osu file format v14

[General]
AudioFilename: IA - Outer Science.mp3
AudioLeadIn: 0
PreviewTime: -1
Countdown: 1
SampleSet: None
StackLeniency: 0.7
Mode: 0
LetterboxInBreaks: 1
WidescreenStoryboard: 1

[Editor]
DistanceSpacing: 1
BeatDivisor: 4
GridSize: 32
TimelineZoom: 1

[Metadata]
Title:OuTeR ScIeNCe
TitleUnicode:OuTeR ScIeNCe
Artist:JiN
ArtistUnicode:JiN
Creator:KawaiiAsLen10
Version:VeinS
Source:
Tags:
BeatmapID:651444
BeatmapSetID:288912

[Difficulty]
HPDrainRate:7
CircleSize:6
OverallDifficulty:6
ApproachRate:6
SliderMultiplier:0.400000005960464
SliderTickRate:1

[Events]
//Background and Video events
0,0,"Untitled.png",0,0
//Break Periods
2,47276,48526
2,50320,57478
//Storyboard Layer 0 (Background)
//Storyboard Layer 1 (Fail)
//Storyboard Layer 2 (Pass)
//Storyboard Layer 3 (Foreground)
//Storyboard Sound Samples

[TimingPoints]
0,80.6451612903226,4,1,0,100,1,0

[Colours]
Combo1 : 255,255,255
Combo2 : 128,0,0
Combo3 : 0,0,0
Combo4 : 64,0,0
Combo5 : 192,192,192

[HitObjects]
256,192,7439,12,0,9516,0:0:0:0:
256,192,9939,12,0,10161,0:0:0:0:
256,192,10423,12,0,10745,0:0:0:0:
96,160,11149,5,0,0:0:0:0:
96,160,11330,1,0,0:0:0:0:
96,160,11491,1,0,0:0:0:0:
128,160,11673,1,0,0:0:0:0:
160,160,11854,1,0,0:0:0:0:
192,160,11995,1,0,0:0:0:0:
224,160,12137,1,0,0:0:0:0:
256,160,12338,1,0,0:0:0:0:
288,160,12520,1,0,0:0:0:0:
320,192,12681,1,0,0:0:0:0:
352,192,13064,1,0,0:0:0:0:
352,192,13205,1,0,0:0:0:0:
288,192,13649,1,0,0:0:0:0:
256,192,13991,1,0,0:0:0:0:
224,192,14173,1,0,0:0:0:0:
192,192,14334,1,0,0:0:0:0:
192,192,14495,1,0,0:0:0:0:
160,192,14879,1,0,0:0:0:0:
128,160,15463,1,0,0:0:0:0:
128,160,15625,1,0,0:0:0:0:
192,160,15806,1,0,0:0:0:0:
256,160,15987,1,0,0:0:0:0:
352,160,16169,1,0,0:0:0:0:
384,160,16370,1,0,0:0:0:0:
384,160,16572,1,0,0:0:0:0:
352,192,16774,1,0,0:0:0:0:
352,192,16975,1,0,0:0:0:0:
256,192,17137,1,0,0:0:0:0:
224,192,17338,1,0,0:0:0:0:
192,192,17520,1,0,0:0:0:0:
224,224,17701,1,0,0:0:0:0:
320,256,17903,1,0,0:0:0:0:
352,256,18084,1,0,0:0:0:0:
256,256,18326,1,0,0:0:0:0:
224,288,18508,1,0,0:0:0:0:
192,288,18709,1,0,0:0:0:0:
224,288,18931,1,0,0:0:0:0:
320,320,19133,1,0,0:0:0:0:
64,96,19959,1,0,0:0:0:0:
128,96,20141,1,0,0:0:0:0:
224,128,20342,1,0,0:0:0:0:
288,128,20504,1,0,0:0:0:0:
384,128,21270,1,0,0:0:0:0:
384,128,21391,1,0,0:0:0:0:
160,96,21915,1,0,0:0:0:0:
160,96,22056,1,0,0:0:0:0:
320,256,22560,1,0,0:0:0:0:
320,256,22681,1,0,0:0:0:0:
160,224,23185,1,0,0:0:0:0:
160,224,23306,1,0,0:0:0:0:
448,128,23790,1,0,0:0:0:0:
448,128,23931,1,0,0:0:0:0:
160,96,24375,1,0,0:0:0:0:
160,96,24536,1,0,0:0:0:0:
160,96,24919,1,0,0:0:0:0:
160,128,25100,1,0,0:0:0:0:
224,160,25262,1,0,0:0:0:0:
288,224,25443,1,0,0:0:0:0:
320,224,25584,1,0,0:0:0:0:
320,224,25907,1,0,0:0:0:0:
384,192,26512,1,0,0:0:0:0:
384,192,26673,1,0,0:0:0:0:
128,96,27137,1,0,0:0:0:0:
128,96,27278,1,0,0:0:0:0:
288,224,27721,1,0,0:0:0:0:
288,224,27862,1,0,0:0:0:0:
32,192,28326,1,0,0:0:0:0:
32,192,28487,1,0,0:0:0:0:
352,288,28971,1,0,0:0:0:0:
352,288,29112,1,0,0:0:0:0:
256,224,29556,1,0,0:0:0:0:
224,224,29717,1,0,0:0:0:0:
256,192,29919,1,0,0:0:0:0:
256,192,30322,12,0,31129,0:0:0:0:
64,128,32399,6,0,L|224:192,2,170.000002533197,0|0|0,0:0|0:0|0:0,0:0:0:0:
512,128,33608,2,0,L|384:160,5,130.000001937151,0|0|0|0|0|0,0:0|0:0|0:0|0:0|0:0|0:0,0:0:0:0:
128,128,35725,2,0,L|256:192,5,140.000002086162,0|0|0|0|0|0,0:0|0:0|0:0|0:0|0:0|0:0,0:0:0:0:
256,192,38004,12,0,38790,0:0:0:0:
256,192,39516,12,0,40181,0:0:0:0:
0,64,41088,5,0,0:0:0:0:
32,64,41330,1,0,0:0:0:0:
64,96,41512,1,0,0:0:0:0:
64,96,41713,1,0,0:0:0:0:
96,96,41915,1,0,0:0:0:0:
96,96,42116,1,0,0:0:0:0:
128,128,42298,1,0,0:0:0:0:
128,128,42479,1,0,0:0:0:0:
160,128,42641,1,0,0:0:0:0:
192,128,42983,1,0,0:0:0:0:
192,128,43245,1,0,0:0:0:0:
192,160,43447,1,0,0:0:0:0:
192,192,43669,1,0,0:0:0:0:
224,224,43891,1,0,0:0:0:0:
224,224,44133,1,0,0:0:0:0:
224,224,44334,1,0,0:0:0:0:
256,224,44536,1,0,0:0:0:0:
288,256,44737,1,0,0:0:0:0:
288,256,44939,1,0,0:0:0:0:
128,128,46088,1,0,0:0:0:0:
128,128,46310,1,0,0:0:0:0:
160,128,46532,1,0,0:0:0:0:
192,128,46733,1,0,0:0:0:0:
224,160,46915,1,0,0:0:0:0:
224,160,47076,1,0,0:0:0:0:
352,128,49576,5,0,0:0:0:0:
352,128,49737,1,0,0:0:0:0:
352,128,50120,1,0,0:0:0:0:
128,96,58528,5,0,0:0:0:0:
224,128,58971,1,0,0:0:0:0:
288,224,59435,1,0,0:0:0:0:
352,288,59778,1,0,0:0:0:0:
128,96,60685,1,0,0:0:0:0:
128,96,60947,1,0,0:0:0:0:
128,96,61108,1,0,0:0:0:0:
128,96,61290,1,0,0:0:0:0:
192,128,61491,1,0,0:0:0:0:
192,128,61653,1,0,0:0:0:0:
192,160,61834,1,0,0:0:0:0:
224,192,61995,1,0,0:0:0:0:
256,192,62157,1,0,0:0:0:0:
256,224,62338,1,0,0:0:0:0:
352,128,63205,1,0,0:0:0:0:
352,128,63387,1,0,0:0:0:0:
288,128,63568,1,0,0:0:0:0:
288,128,63729,1,0,0:0:0:0:
256,160,64193,1,0,0:0:0:0:
224,192,64536,1,0,0:0:0:0:
224,192,64858,1,0,0:0:0:0:
96,160,65262,1,0,0:0:0:0:
128,192,65463,1,0,0:0:0:0:
224,256,65645,1,0,0:0:0:0:
288,256,65846,1,0,0:0:0:0:
384,256,66028,1,0,0:0:0:0:
384,64,66532,1,0,0:0:0:0:
352,96,66733,1,0,0:0:0:0:
288,128,66935,1,0,0:0:0:0:
256,192,67137,1,0,0:0:0:0:
128,128,67782,1,0,0:0:0:0:
160,160,67963,1,0,0:0:0:0:
256,224,68165,1,0,0:0:0:0:
448,256,68447,1,0,0:0:0:0:
384,64,69133,1,0,0:0:0:0:
128,96,69556,1,0,0:0:0:0:
352,224,69879,1,0,0:0:0:0:
128,256,70181,1,0,0:0:0:0:
192,288,70463,1,0,0:0:0:0:
320,320,70705,1,0,0:0:0:0:
0,128,72338,5,0,0:0:0:0:
224,96,73044,1,0,0:0:0:0:
224,96,73245,1,0,0:0:0:0:
256,96,73467,1,0,0:0:0:0:
288,128,73649,1,0,0:0:0:0:
384,160,74112,1,0,0:0:0:0:
160,192,74455,1,0,0:0:0:0:
224,256,74737,1,0,0:0:0:0:
384,224,75383,1,0,0:0:0:0:
352,160,75625,1,0,0:0:0:0:
288,128,75826,1,0,0:0:0:0:
224,128,76370,1,0,0:0:0:0:
192,160,76592,1,0,0:0:0:0:
192,192,76794,1,0,0:0:0:0:
256,256,76995,1,0,0:0:0:0:
96,64,77479,1,0,0:0:0:0:
96,64,77681,1,0,0:0:0:0:
128,96,78205,1,0,0:0:0:0:
128,96,78427,1,0,0:0:0:0:
160,128,78669,1,0,0:0:0:0:
224,160,78850,1,0,0:0:0:0:
256,192,79012,1,0,0:0:0:0:
320,224,79173,1,0,0:0:0:0:
352,224,79455,1,0,0:0:0:0:
384,224,79959,1,0,0:0:0:0:
416,256,80141,1,0,0:0:0:0:
