osu file format v14

[General]
AudioFilename: IA - Outer Science.mp3
AudioLeadIn: 0
PreviewTime: -1
Countdown: 1
SampleSet: None
StackLeniency: 0.7
Mode: 1
LetterboxInBreaks: 1
WidescreenStoryboard: 1

[Editor]
DistanceSpacing: 1
BeatDivisor: 4
GridSize: 32
TimelineZoom: 1

[Metadata]
Title:OuTeR ScIeNCe
TitleUnicode:OuTeR ScIeNCe
Artist:JiN
ArtistUnicode:JiN
Creator:KawaiiAsLen10
Version:The death of Pippidon
Source:
Tags:
BeatmapID:651443
BeatmapSetID:288912

[Difficulty]
HPDrainRate:4
CircleSize:6
OverallDifficulty:6
ApproachRate:5
SliderMultiplier:1.4
SliderTickRate:1

[Events]
//Background and Video events
0,0,"Untitled.png",0,0
//Break Periods
2,159290,167850
//Storyboard Layer 0 (Background)
//Storyboard Layer 1 (Fail)
//Storyboard Layer 2 (Pass)
//Storyboard Layer 3 (Foreground)
//Storyboard Sound Samples

[TimingPoints]
0,120,4,1,0,100,1,0

[Colours]
Combo1 : 255,255,255
Combo2 : 128,0,0
Combo3 : 0,0,0
Combo4 : 64,0,0
Combo5 : 192,192,192

[HitObjects]
96,192,2610,5,0,0:0:0:0:
96,192,3270,1,0,0:0:0:0:
96,192,3810,1,0,0:0:0:0:
384,192,4440,5,0,0:0:0:0:
384,192,5040,1,0,0:0:0:0:
384,192,5700,1,0,0:0:0:0:
32,160,6390,1,0,0:0:0:0:
32,160,6990,1,0,0:0:0:0:
352,192,7680,1,0,0:0:0:0:
352,192,8190,1,0,0:0:0:0:
192,192,8820,1,0,0:0:0:0:
192,192,9360,1,0,0:0:0:0:
384,192,10140,1,0,0:0:0:0:
384,192,10650,1,0,0:0:0:0:
384,192,11250,1,0,0:0:0:0:
384,192,11730,1,0,0:0:0:0:
384,192,11910,1,0,0:0:0:0:
384,192,12000,1,0,0:0:0:0:
384,192,12180,1,0,0:0:0:0:
384,192,12420,1,0,0:0:0:0:
128,160,12930,1,0,0:0:0:0:
128,160,13110,1,0,0:0:0:0:
128,160,13410,1,0,0:0:0:0:
128,160,13740,1,0,0:0:0:0:
352,160,14280,1,0,0:0:0:0:
352,160,14430,1,0,0:0:0:0:
352,160,14580,1,0,0:0:0:0:
352,160,14730,1,0,0:0:0:0:
352,160,15000,1,0,0:0:0:0:
192,128,15420,1,0,0:0:0:0:
192,128,15630,1,0,0:0:0:0:
192,128,15780,1,0,0:0:0:0:
192,128,15900,1,0,0:0:0:0:
192,128,16170,1,0,0:0:0:0:
448,256,16710,1,0,0:0:0:0:
448,256,16920,1,0,0:0:0:0:
448,256,17070,1,0,0:0:0:0:
448,256,17220,1,0,0:0:0:0:
64,256,17940,1,0,0:0:0:0:
64,256,18090,1,0,0:0:0:0:
64,256,18270,1,0,0:0:0:0:
64,256,18390,1,0,0:0:0:0:
448,256,18990,1,0,0:0:0:0:
448,256,19140,1,0,0:0:0:0:
448,256,19320,1,0,0:0:0:0:
448,256,19470,1,0,0:0:0:0:
448,256,19620,1,0,0:0:0:0:
416,96,20220,1,0,0:0:0:0:
416,96,20430,1,0,0:0:0:0:
416,96,20580,1,0,0:0:0:0:
416,96,20730,1,0,0:0:0:0:
192,160,21510,1,0,0:0:0:0:
192,160,21660,1,0,0:0:0:0:
384,256,22260,1,0,0:0:0:0:
384,256,22410,1,0,0:0:0:0:
352,128,22920,1,0,0:0:0:0:
352,128,23070,1,0,0:0:0:0:
160,192,23610,1,0,0:0:0:0:
160,192,23730,1,0,0:0:0:0:
320,256,24300,1,0,0:0:0:0:
320,256,24450,1,0,0:0:0:0:
320,256,24690,1,0,0:0:0:0:
320,256,24960,1,0,0:0:0:0:
320,256,25140,1,0,0:0:0:0:
416,128,26520,1,0,0:0:0:0:
416,128,26700,1,0,0:0:0:0:
192,160,27210,1,0,0:0:0:0:
192,160,27360,1,0,0:0:0:0:
384,256,27900,1,0,0:0:0:0:
384,256,28050,1,0,0:0:0:0:
384,128,28590,1,0,0:0:0:0:
384,128,28740,1,0,0:0:0:0:
128,256,29250,1,0,0:0:0:0:
128,256,29430,1,0,0:0:0:0:
128,256,29760,1,0,0:0:0:0:
128,256,29940,1,0,0:0:0:0:
128,256,30060,1,0,0:0:0:0:
448,128,31230,1,0,0:0:0:0:
448,128,31470,1,0,0:0:0:0:
448,128,31680,1,0,0:0:0:0:
448,128,31830,1,0,0:0:0:0:
448,128,32070,1,0,0:0:0:0:
256,128,32550,1,0,0:0:0:0:
256,128,32730,1,0,0:0:0:0:
256,128,32850,1,0,0:0:0:0:
384,288,33630,1,0,0:0:0:0:
384,288,33810,1,0,0:0:0:0:
384,288,34020,1,0,0:0:0:0:
384,288,34230,1,0,0:0:0:0:
384,288,34470,1,0,0:0:0:0:
224,256,34980,1,0,0:0:0:0:
224,256,35160,1,0,0:0:0:0:
224,256,35340,1,0,0:0:0:0:
224,256,35490,1,0,0:0:0:0:
128,96,36240,1,0,0:0:0:0:
128,96,36480,1,0,0:0:0:0:
128,96,36630,1,0,0:0:0:0:
128,96,36750,1,0,0:0:0:0:
128,96,36990,1,0,0:0:0:0:
320,256,37620,1,0,0:0:0:0:
320,256,37770,1,0,0:0:0:0:
320,256,38220,1,0,0:0:0:0:
320,256,38370,1,0,0:0:0:0:
320,256,38520,1,0,0:0:0:0:
320,256,38700,1,0,0:0:0:0:
320,256,38850,1,0,0:0:0:0:
416,160,39840,1,0,0:0:0:0:
416,160,40020,1,0,0:0:0:0:
416,160,40350,1,0,0:0:0:0:
96,256,41130,1,0,0:0:0:0:
96,256,41340,1,0,0:0:0:0:
96,256,41550,1,0,0:0:0:0:
96,256,41700,1,0,0:0:0:0:
96,256,41820,1,0,0:0:0:0:
96,256,41940,1,0,0:0:0:0:
352,256,42510,1,0,0:0:0:0:
352,256,42660,1,0,0:0:0:0:
352,256,42870,1,0,0:0:0:0:
352,256,43110,1,0,0:0:0:0:
256,96,43680,1,0,0:0:0:0:
256,96,43860,1,0,0:0:0:0:
256,96,44070,1,0,0:0:0:0:
256,96,44250,1,0,0:0:0:0:
256,96,44400,1,0,0:0:0:0:
192,128,44910,1,0,0:0:0:0:
192,128,45090,1,0,0:0:0:0:
192,128,45300,1,0,0:0:0:0:
192,128,45390,1,0,0:0:0:0:
448,256,46110,1,0,0:0:0:0:
448,256,46530,1,0,0:0:0:0:
448,256,46710,1,0,0:0:0:0:
448,256,46860,1,0,0:0:0:0:
352,320,47340,1,0,0:0:0:0:
352,320,47520,1,0,0:0:0:0:
352,320,47700,1,0,0:0:0:0:
352,320,48000,1,0,0:0:0:0:
352,320,48510,1,0,0:0:0:0:
160,288,48990,1,0,0:0:0:0:
416,160,49740,1,0,0:0:0:0:
416,160,49890,1,0,0:0:0:0:
416,160,50220,1,0,0:0:0:0:
64,128,51000,1,0,0:0:0:0:
64,128,51780,1,0,0:0:0:0:
64,128,51900,1,0,0:0:0:0:
64,128,52020,1,0,0:0:0:0:
384,192,52710,1,0,0:0:0:0:
384,192,52980,1,0,0:0:0:0:
384,192,53130,1,0,0:0:0:0:
384,192,53340,1,0,0:0:0:0:
160,288,54300,1,0,0:0:0:0:
160,288,54480,1,0,0:0:0:0:
160,288,54660,1,0,0:0:0:0:
160,288,54810,1,0,0:0:0:0:
160,288,55020,1,0,0:0:0:0:
160,288,55110,1,0,0:0:0:0:
160,288,55290,1,0,0:0:0:0:
416,160,55950,1,0,0:0:0:0:
416,160,56670,1,0,0:0:0:0:
416,160,56850,1,0,0:0:0:0:
416,160,57030,1,0,0:0:0:0:
416,160,57180,1,0,0:0:0:0:
160,160,57750,1,0,0:0:0:0:
160,160,57960,1,0,0:0:0:0:
160,160,58110,1,0,0:0:0:0:
384,320,58680,1,0,0:0:0:0:
224,288,59220,1,0,0:0:0:0:
384,128,59760,1,0,0:0:0:0:
384,128,60090,1,0,0:0:0:0:
384,128,60720,1,0,0:0:0:0:
384,128,60960,1,0,0:0:0:0:
384,128,61140,1,0,0:0:0:0:
384,128,61290,1,0,0:0:0:0:
96,192,61920,1,0,0:0:0:0:
96,192,62160,1,0,0:0:0:0:
96,192,62460,1,0,0:0:0:0:
416,320,63270,1,0,0:0:0:0:
416,320,63540,1,0,0:0:0:0:
416,320,63720,1,0,0:0:0:0:
416,320,63990,1,0,0:0:0:0:
192,256,64560,1,0,0:0:0:0:
192,256,64770,1,0,0:0:0:0:
192,256,64980,1,0,0:0:0:0:
352,128,65580,1,0,0:0:0:0:
352,128,65760,1,0,0:0:0:0:
352,128,65910,1,0,0:0:0:0:
352,128,66060,1,0,0:0:0:0:
352,128,66210,1,0,0:0:0:0:
192,128,66870,1,0,0:0:0:0:
192,128,67050,1,0,0:0:0:0:
192,128,67230,1,0,0:0:0:0:
192,128,67380,1,0,0:0:0:0:
384,352,67950,1,0,0:0:0:0:
384,352,68160,1,0,0:0:0:0:
384,352,68490,1,0,0:0:0:0:
384,352,68670,1,0,0:0:0:0:
384,352,68850,1,0,0:0:0:0:
64,320,69420,1,0,0:0:0:0:
64,320,69630,1,0,0:0:0:0:
352,288,70320,1,0,0:0:0:0:
352,288,70470,1,0,0:0:0:0:
352,288,70680,1,0,0:0:0:0:
384,160,71250,1,0,0:0:0:0:
384,160,71400,1,0,0:0:0:0:
384,160,71550,1,0,0:0:0:0:
384,160,71850,1,0,0:0:0:0:
384,160,72090,1,0,0:0:0:0:
32,96,73020,1,0,0:0:0:0:
32,96,73320,1,0,0:0:0:0:
32,96,73530,1,0,0:0:0:0:
32,96,73680,1,0,0:0:0:0:
416,160,74280,1,0,0:0:0:0:
416,160,74520,1,0,0:0:0:0:
416,160,74730,1,0,0:0:0:0:
288,288,75360,1,0,0:0:0:0:
288,288,75540,1,0,0:0:0:0:
288,288,75720,1,0,0:0:0:0:
288,288,76110,1,0,0:0:0:0:
160,320,76620,1,0,0:0:0:0:
160,320,76830,1,0,0:0:0:0:
160,320,76980,1,0,0:0:0:0:
160,320,77130,1,0,0:0:0:0:
416,352,77760,1,0,0:0:0:0:
416,352,77940,1,0,0:0:0:0:
416,352,78090,1,0,0:0:0:0:
352,128,78720,1,0,0:0:0:0:
352,128,78900,1,0,0:0:0:0:
128,160,79500,1,0,0:0:0:0:
128,160,79770,1,0,0:0:0:0:
128,160,80010,1,0,0:0:0:0:
128,160,80160,1,0,0:0:0:0:
352,320,80790,1,0,0:0:0:0:
352,96,82320,1,0,0:0:0:0:
352,96,82560,1,0,0:0:0:0:
192,128,83010,1,0,0:0:0:0:
160,224,85350,1,0,0:0:0:0:
384,160,87300,1,0,0:0:0:0:
384,160,87540,1,0,0:0:0:0:
224,160,88110,1,0,0:0:0:0:
384,256,90210,1,0,0:0:0:0:
384,256,90450,1,0,0:0:0:0:
384,256,90660,1,0,0:0:0:0:
384,256,90840,1,0,0:0:0:0:
192,160,91500,1,0,0:0:0:0:
192,160,91680,1,0,0:0:0:0:
192,160,91860,1,0,0:0:0:0:
192,160,91980,1,0,0:0:0:0:
384,128,92550,1,0,0:0:0:0:
384,128,92730,1,0,0:0:0:0:
384,128,92850,1,0,0:0:0:0:
384,128,93360,1,0,0:0:0:0:
160,256,94050,1,0,0:0:0:0:
160,256,94230,1,0,0:0:0:0:
160,256,94380,1,0,0:0:0:0:
160,256,94590,1,0,0:0:0:0:
416,352,95490,1,0,0:0:0:0:
416,352,95670,1,0,0:0:0:0:
416,352,95820,1,0,0:0:0:0:
416,352,96000,1,0,0:0:0:0:
192,160,96570,1,0,0:0:0:0:
192,160,96780,1,0,0:0:0:0:
192,160,96900,1,0,0:0:0:0:
32,352,97500,1,0,0:0:0:0:
32,352,97680,1,0,0:0:0:0:
32,352,97830,1,0,0:0:0:0:
32,352,98010,1,0,0:0:0:0:
32,352,98160,1,0,0:0:0:0:
320,160,98910,1,0,0:0:0:0:
320,160,99090,1,0,0:0:0:0:
320,160,99480,1,0,0:0:0:0:
96,160,100140,1,0,0:0:0:0:
96,160,100410,1,0,0:0:0:0:
96,160,100590,1,0,0:0:0:0:
96,160,100800,1,0,0:0:0:0:
96,160,100950,1,0,0:0:0:0:
352,288,101490,1,0,0:0:0:0:
352,288,101640,1,0,0:0:0:0:
352,288,101790,1,0,0:0:0:0:
352,288,102000,1,0,0:0:0:0:
384,128,102750,1,0,0:0:0:0:
384,128,102990,1,0,0:0:0:0:
384,128,103140,1,0,0:0:0:0:
384,128,103320,1,0,0:0:0:0:
384,128,103440,1,0,0:0:0:0:
96,288,104010,1,0,0:0:0:0:
96,288,104160,1,0,0:0:0:0:
96,288,104340,1,0,0:0:0:0:
96,288,104430,1,0,0:0:0:0:
128,96,105090,1,0,0:0:0:0:
128,96,105360,1,0,0:0:0:0:
128,96,105540,1,0,0:0:0:0:
128,96,105690,1,0,0:0:0:0:
128,96,105840,1,0,0:0:0:0:
128,96,105960,1,0,0:0:0:0:
448,256,106500,1,0,0:0:0:0:
448,256,106650,1,0,0:0:0:0:
448,256,106800,1,0,0:0:0:0:
384,128,107340,1,0,0:0:0:0:
384,128,107520,1,0,0:0:0:0:
384,128,107670,1,0,0:0:0:0:
384,128,107850,1,0,0:0:0:0:
384,128,107970,1,0,0:0:0:0:
160,160,108750,1,0,0:0:0:0:
160,160,108930,1,0,0:0:0:0:
160,160,109290,1,0,0:0:0:0:
384,320,110010,1,0,0:0:0:0:
384,320,110790,1,0,0:0:0:0:
384,320,110970,1,0,0:0:0:0:
384,320,111150,1,0,0:0:0:0:
96,128,111870,1,0,0:0:0:0:
96,128,112080,1,0,0:0:0:0:
96,128,112290,1,0,0:0:0:0:
96,128,112470,1,0,0:0:0:0:
416,96,113280,1,0,0:0:0:0:
416,96,113460,1,0,0:0:0:0:
160,192,114180,1,0,0:0:0:0:
160,192,114360,1,0,0:0:0:0:
160,192,114510,1,0,0:0:0:0:
416,352,115020,1,0,0:0:0:0:
352,96,115770,1,0,0:0:0:0:
352,96,115920,1,0,0:0:0:0:
352,96,116130,1,0,0:0:0:0:
352,96,116280,1,0,0:0:0:0:
192,256,116910,1,0,0:0:0:0:
192,256,117090,1,0,0:0:0:0:
384,320,117780,1,0,0:0:0:0:
160,96,118320,1,0,0:0:0:0:
320,128,118860,1,0,0:0:0:0:
320,128,119100,1,0,0:0:0:0:
128,320,119940,1,0,0:0:0:0:
128,320,120150,1,0,0:0:0:0:
128,320,120330,1,0,0:0:0:0:
128,320,120510,1,0,0:0:0:0:
480,352,121080,1,0,0:0:0:0:
480,352,121380,1,0,0:0:0:0:
480,352,121650,1,0,0:0:0:0:
320,96,122340,1,0,0:0:0:0:
320,96,122550,1,0,0:0:0:0:
320,96,122760,1,0,0:0:0:0:
320,96,122940,1,0,0:0:0:0:
64,256,123540,1,0,0:0:0:0:
64,256,123780,1,0,0:0:0:0:
64,256,124050,1,0,0:0:0:0:
416,256,125010,1,0,0:0:0:0:
416,256,125130,1,0,0:0:0:0:
416,256,125340,1,0,0:0:0:0:
160,352,125970,1,0,0:0:0:0:
160,352,126150,1,0,0:0:0:0:
160,352,126300,1,0,0:0:0:0:
160,352,126510,1,0,0:0:0:0:
480,352,127140,1,0,0:0:0:0:
480,352,127530,1,0,0:0:0:0:
480,352,127650,1,0,0:0:0:0:
416,128,128520,1,0,0:0:0:0:
416,128,128670,1,0,0:0:0:0:
416,128,128940,1,0,0:0:0:0:
416,128,129180,1,0,0:0:0:0:
128,160,129720,1,0,0:0:0:0:
128,160,129930,1,0,0:0:0:0:
128,160,130110,1,0,0:0:0:0:
128,160,130320,1,0,0:0:0:0:
320,320,130860,1,0,0:0:0:0:
320,320,131130,1,0,0:0:0:0:
320,320,131370,1,0,0:0:0:0:
128,288,132150,1,0,0:0:0:0:
128,288,132360,1,0,0:0:0:0:
128,288,132540,1,0,0:0:0:0:
128,288,132690,1,0,0:0:0:0:
384,160,133290,1,0,0:0:0:0:
384,160,133560,1,0,0:0:0:0:
384,160,133830,1,0,0:0:0:0:
128,96,134460,1,0,0:0:0:0:
128,96,134610,1,0,0:0:0:0:
128,96,134790,1,0,0:0:0:0:
128,96,134970,1,0,0:0:0:0:
320,256,135570,1,0,0:0:0:0:
320,256,135750,1,0,0:0:0:0:
320,256,135900,1,0,0:0:0:0:
320,256,136080,1,0,0:0:0:0:
320,256,136230,1,0,0:0:0:0:
384,128,136860,1,0,0:0:0:0:
384,128,137040,1,0,0:0:0:0:
160,192,137670,1,0,0:0:0:0:
160,192,137820,1,0,0:0:0:0:
160,128,138480,1,0,0:0:0:0:
160,128,138660,1,0,0:0:0:0:
160,128,138870,1,0,0:0:0:0:
416,256,139560,1,0,0:0:0:0:
96,128,141630,1,0,0:0:0:0:
96,128,141900,1,0,0:0:0:0:
96,128,142110,1,0,0:0:0:0:
128,320,144450,1,0,0:0:0:0:
416,128,146370,1,0,0:0:0:0:
416,128,146610,1,0,0:0:0:0:
416,128,146910,1,0,0:0:0:0:
256,192,148950,12,0,151650,0:0:0:0:
256,192,151920,12,0,153420,0:0:0:0:
256,192,155220,12,0,156510,0:0:0:0:
256,192,157800,12,0,159090,0:0:0:0:
96,128,169050,5,0,0:0:0:0:
96,128,169290,1,0,0:0:0:0:
96,128,169470,1,0,0:0:0:0:
96,128,169650,1,0,0:0:0:0:
96,128,169800,1,0,0:0:0:0:
320,256,170550,1,0,0:0:0:0:
320,256,170730,1,0,0:0:0:0:
320,256,170910,1,0,0:0:0:0:
320,256,171090,1,0,0:0:0:0:
480,352,171720,1,0,0:0:0:0:
480,352,171930,1,0,0:0:0:0:
352,64,172770,1,0,0:0:0:0:
352,64,172950,1,0,0:0:0:0:
352,64,173130,1,0,0:0:0:0:
352,64,173310,1,0,0:0:0:0:
160,288,173970,1,0,0:0:0:0:
160,288,174180,1,0,0:0:0:0:
160,288,174420,1,0,0:0:0:0:
416,288,175020,1,0,0:0:0:0:
416,288,175200,1,0,0:0:0:0:
416,288,175410,1,0,0:0:0:0:
416,288,175530,1,0,0:0:0:0:
384,64,176160,1,0,0:0:0:0:
384,64,176340,1,0,0:0:0:0:
384,64,176520,1,0,0:0:0:0:
96,320,177360,1,0,0:0:0:0:
96,320,177570,1,0,0:0:0:0:
96,320,177930,1,0,0:0:0:0:
416,288,178650,1,0,0:0:0:0:
416,288,178980,1,0,0:0:0:0:
416,288,179190,1,0,0:0:0:0:
416,288,179370,1,0,0:0:0:0:
416,288,179550,1,0,0:0:0:0:
384,128,180060,1,0,0:0:0:0:
384,128,180240,1,0,0:0:0:0:
384,128,180420,1,0,0:0:0:0:
384,128,180600,1,0,0:0:0:0:
384,128,180780,1,0,0:0:0:0:
96,160,181380,1,0,0:0:0:0:
96,160,181560,1,0,0:0:0:0:
96,160,181800,1,0,0:0:0:0:
384,320,182670,1,0,0:0:0:0:
384,320,182880,1,0,0:0:0:0:
384,320,183030,1,0,0:0:0:0:
384,320,183180,1,0,0:0:0:0:
384,96,183810,1,0,0:0:0:0:
384,96,184050,1,0,0:0:0:0:
384,96,184290,1,0,0:0:0:0:
128,192,184830,1,0,0:0:0:0:
128,192,185010,1,0,0:0:0:0:
128,192,185190,1,0,0:0:0:0:
128,192,185340,1,0,0:0:0:0:
352,288,186000,1,0,0:0:0:0:
352,288,186180,1,0,0:0:0:0:
352,288,186300,1,0,0:0:0:0:
352,288,186420,1,0,0:0:0:0:
352,128,187110,1,0,0:0:0:0:
128,320,187650,1,0,0:0:0:0:
128,128,188160,1,0,0:0:0:0:
288,320,188730,1,0,0:0:0:0:
448,64,189270,1,0,0:0:0:0:
128,288,189900,1,0,0:0:0:0:
64,64,190470,1,0,0:0:0:0:
384,288,191010,1,0,0:0:0:0:
416,64,191580,1,0,0:0:0:0:
64,320,192240,1,0,0:0:0:0:
