osu file format v14

[General]
AudioFilename: IA - Outer Science.mp3
AudioLeadIn: 0
PreviewTime: -1
Countdown: 1
SampleSet: None
StackLeniency: 0.7
Mode: 0
LetterboxInBreaks: 1
WidescreenStoryboard: 1

[Editor]
DistanceSpacing: 1
BeatDivisor: 4
GridSize: 32
TimelineZoom: 1

[Metadata]
Title:OuTeR ScIeNCe
TitleUnicode:OuTeR ScIeNCe
Artist:JiN
ArtistUnicode:JiN
Creator:KawaiiAsLen10
Version:Syringe
Source:
Tags:
BeatmapID:651442
BeatmapSetID:288912

[Difficulty]
HPDrainRate:7
CircleSize:6
OverallDifficulty:6
ApproachRate:6
SliderMultiplier:0.400000005960464
SliderTickRate:1

[Events]
//Background and Video events
0,0,"kuroha_by_cedion-d6khey0.jpg",0,0
//Break Periods
2,48970,49897
2,114937,116450
2,158970,160482
//Storyboard Layer 0 (Background)
//Storyboard Layer 1 (Fail)
//Storyboard Layer 2 (Pass)
//Storyboard Layer 3 (Foreground)
//Storyboard Sound Samples

[TimingPoints]
0,80.6451612903226,4,1,0,100,1,0

[Colours]
Combo1 : 255,255,255
Combo2 : 128,0,0
Combo3 : 0,0,0
Combo4 : 64,0,0
Combo5 : 192,192,192

[HitObjects]
64,64,2177,5,0,0:0:0:0:
64,64,2681,1,0,0:0:0:0:
64,64,3508,1,0,0:0:0:0:
64,64,3649,1,0,0:0:0:0:
64,64,3810,1,0,0:0:0:0:
352,256,4455,1,0,0:0:0:0:
352,256,4919,1,0,0:0:0:0:
352,256,5544,1,0,0:0:0:0:
352,256,5927,1,0,0:0:0:0:
352,256,6048,1,0,0:0:0:0:
352,256,6310,1,0,0:0:0:0:
320,96,6875,1,0,0:0:0:0:
320,96,7338,1,0,0:0:0:0:
320,96,7862,1,0,0:0:0:0:
320,96,8286,1,0,0:0:0:0:
320,96,8427,1,0,0:0:0:0:
64,192,9133,1,0,0:0:0:0:
64,192,9737,1,0,0:0:0:0:
64,192,10282,1,0,0:0:0:0:
64,192,10443,1,0,0:0:0:0:
64,192,10645,1,0,0:0:0:0:
416,192,11310,1,0,0:0:0:0:
416,192,11552,1,0,0:0:0:0:
416,192,11713,1,0,0:0:0:0:
416,192,11814,1,0,0:0:0:0:
128,96,12439,1,0,0:0:0:0:
128,96,12580,1,0,0:0:0:0:
128,96,12681,1,0,0:0:0:0:
128,96,12862,1,0,0:0:0:0:
128,96,13125,1,0,0:0:0:0:
128,96,13387,1,0,0:0:0:0:
416,288,14032,1,0,0:0:0:0:
416,288,14193,1,0,0:0:0:0:
416,288,14334,1,0,0:0:0:0:
416,288,14475,1,0,0:0:0:0:
416,288,14596,1,0,0:0:0:0:
352,96,15241,1,0,0:0:0:0:
352,96,15423,1,0,0:0:0:0:
352,96,15544,1,0,0:0:0:0:
352,96,15907,1,0,0:0:0:0:
32,288,16532,1,0,0:0:0:0:
32,288,16673,1,0,0:0:0:0:
32,288,16834,1,0,0:0:0:0:
32,288,17137,1,0,0:0:0:0:
384,288,17701,1,0,0:0:0:0:
384,288,17862,1,0,0:0:0:0:
384,288,18004,1,0,0:0:0:0:
384,288,18387,1,0,0:0:0:0:
128,96,18951,1,0,0:0:0:0:
128,96,19092,1,0,0:0:0:0:
128,96,19274,1,0,0:0:0:0:
128,96,19556,1,0,0:0:0:0:
448,320,20181,1,0,0:0:0:0:
448,320,20342,1,0,0:0:0:0:
448,320,20665,1,0,0:0:0:0:
448,320,20745,1,0,0:0:0:0:
320,96,21693,1,0,0:0:0:0:
320,96,21834,1,0,0:0:0:0:
160,128,22318,1,0,0:0:0:0:
160,128,22459,1,0,0:0:0:0:
384,288,22983,1,0,0:0:0:0:
384,288,23125,1,0,0:0:0:0:
416,160,23608,1,0,0:0:0:0:
416,160,23750,1,0,0:0:0:0:
128,256,24274,1,0,0:0:0:0:
128,256,24435,1,0,0:0:0:0:
160,128,24919,1,0,0:0:0:0:
160,128,25080,1,0,0:0:0:0:
448,256,26532,5,0,0:0:0:0:
448,256,26653,1,0,0:0:0:0:
32,32,27217,1,0,0:0:0:0:
32,32,27338,1,0,0:0:0:0:
320,224,27883,1,0,0:0:0:0:
320,224,28004,1,0,0:0:0:0:
384,64,28528,1,0,0:0:0:0:
384,64,28669,1,0,0:0:0:0:
96,128,29133,1,0,0:0:0:0:
96,128,29294,1,0,0:0:0:0:
256,160,29838,1,0,0:0:0:0:
256,160,30000,1,0,0:0:0:0:
416,128,31270,1,0,0:0:0:0:
416,128,31552,1,0,0:0:0:0:
416,128,31733,1,0,0:0:0:0:
416,128,31875,1,0,0:0:0:0:
288,96,32419,1,0,0:0:0:0:
288,96,32580,1,0,0:0:0:0:
288,96,32701,1,0,0:0:0:0:
288,96,33064,1,0,0:0:0:0:
352,96,33528,1,0,0:0:0:0:
352,96,33689,1,0,0:0:0:0:
352,96,34032,1,0,0:0:0:0:
352,96,34193,1,0,0:0:0:0:
352,96,34354,1,0,0:0:0:0:
96,128,34879,1,0,0:0:0:0:
96,128,35080,1,0,0:0:0:0:
96,128,35221,1,0,0:0:0:0:
96,128,35383,1,0,0:0:0:0:
96,128,35504,1,0,0:0:0:0:
384,224,36229,1,0,0:0:0:0:
384,224,36491,1,0,0:0:0:0:
384,224,36673,1,0,0:0:0:0:
384,224,36834,1,0,0:0:0:0:
384,224,36995,1,0,0:0:0:0:
384,224,37137,1,0,0:0:0:0:
384,224,37298,1,0,0:0:0:0:
384,224,37439,1,0,0:0:0:0:
192,128,38084,1,0,0:0:0:0:
192,128,38306,1,0,0:0:0:0:
192,128,38568,1,0,0:0:0:0:
192,128,38729,1,0,0:0:0:0:
320,224,39233,1,0,0:0:0:0:
128,96,41088,5,0,0:0:0:0:
128,96,41391,1,0,0:0:0:0:
128,96,41572,1,0,0:0:0:0:
128,96,41733,1,0,0:0:0:0:
128,96,41895,1,0,0:0:0:0:
384,288,42479,1,0,0:0:0:0:
384,288,42641,1,0,0:0:0:0:
384,288,42782,1,0,0:0:0:0:
384,288,42903,1,0,0:0:0:0:
384,96,43427,1,0,0:0:0:0:
384,96,43588,1,0,0:0:0:0:
384,96,43790,1,0,0:0:0:0:
384,96,43971,1,0,0:0:0:0:
224,64,44475,1,0,0:0:0:0:
224,64,44616,1,0,0:0:0:0:
224,64,44778,1,0,0:0:0:0:
128,192,45262,1,0,0:0:0:0:
320,128,45907,1,0,0:0:0:0:
320,128,46088,1,0,0:0:0:0:
320,128,46350,1,0,0:0:0:0:
192,128,46975,1,0,0:0:0:0:
192,128,47157,1,0,0:0:0:0:
192,128,47298,1,0,0:0:0:0:
192,128,47439,1,0,0:0:0:0:
192,128,47620,1,0,0:0:0:0:
288,160,48145,1,0,0:0:0:0:
288,160,48326,1,0,0:0:0:0:
288,160,48487,1,0,0:0:0:0:
288,160,48649,1,0,0:0:0:0:
288,160,48770,1,0,0:0:0:0:
64,128,50947,5,0,0:0:0:0:
64,128,51673,1,0,0:0:0:0:
64,128,51834,1,0,0:0:0:0:
64,128,52016,1,0,0:0:0:0:
480,192,52721,1,0,0:0:0:0:
480,192,52943,1,0,0:0:0:0:
480,192,53266,1,0,0:0:0:0:
480,192,53427,1,0,0:0:0:0:
160,160,54354,1,0,0:0:0:0:
160,160,54516,1,0,0:0:0:0:
160,160,54677,1,0,0:0:0:0:
160,160,54818,1,0,0:0:0:0:
160,160,54979,1,0,0:0:0:0:
160,160,55161,1,0,0:0:0:0:
320,96,55665,1,0,0:0:0:0:
320,96,55846,1,0,0:0:0:0:
320,96,55987,1,0,0:0:0:0:
128,96,56733,1,0,0:0:0:0:
128,96,56915,1,0,0:0:0:0:
128,96,57096,1,0,0:0:0:0:
128,96,57258,1,0,0:0:0:0:
128,96,57399,1,0,0:0:0:0:
128,96,57520,1,0,0:0:0:0:
128,96,57661,1,0,0:0:0:0:
128,96,57903,1,0,0:0:0:0:
128,96,58064,1,0,0:0:0:0:
352,96,58709,1,0,0:0:0:0:
352,96,58850,1,0,0:0:0:0:
352,96,59274,1,0,0:0:0:0:
352,96,59717,1,0,0:0:0:0:
352,96,59879,1,0,0:0:0:0:
32,128,60766,1,0,0:0:0:0:
32,128,61088,1,0,0:0:0:0:
32,128,61250,1,0,0:0:0:0:
32,128,61391,1,0,0:0:0:0:
128,192,61633,2,0,L|384:288,2,270.000004023314,0|0|0,0:0|0:0|0:0,0:0:0:0:
384,96,63245,1,0,0:0:0:0:
384,96,63588,1,0,0:0:0:0:
192,224,63709,1,0,0:0:0:0:
384,96,63891,1,0,0:0:0:0:
384,96,64032,1,0,0:0:0:0:
416,160,64435,2,0,L|160:256,1,270.000004023314,0|0,0:0|0:0,0:0:0:0:
160,128,65423,1,0,0:0:0:0:
160,128,65625,1,0,0:0:0:0:
160,128,65786,1,0,0:0:0:0:
160,128,65947,1,0,0:0:0:0:
160,128,66108,1,0,0:0:0:0:
416,128,66774,1,0,0:0:0:0:
416,128,66915,1,0,0:0:0:0:
416,128,67096,1,0,0:0:0:0:
416,128,67237,1,0,0:0:0:0:
416,128,67399,1,0,0:0:0:0:
352,320,67923,1,0,0:0:0:0:
352,320,68104,1,0,0:0:0:0:
352,320,68245,1,0,0:0:0:0:
352,320,68427,1,0,0:0:0:0:
160,128,69233,1,0,0:0:0:0:
160,128,69556,1,0,0:0:0:0:
160,128,69697,1,0,0:0:0:0:
160,128,69858,1,0,0:0:0:0:
160,128,70020,1,0,0:0:0:0:
160,128,70201,1,0,0:0:0:0:
160,128,70383,1,0,0:0:0:0:
288,96,70907,1,0,0:0:0:0:
288,96,71088,1,0,0:0:0:0:
288,96,71330,1,0,0:0:0:0:
416,128,71834,1,0,0:0:0:0:
416,128,72016,1,0,0:0:0:0:
416,128,72177,1,0,0:0:0:0:
0,64,72862,1,0,0:0:0:0:
0,64,73004,1,0,0:0:0:0:
0,64,73165,1,0,0:0:0:0:
288,128,73770,1,0,0:0:0:0:
288,128,73911,1,0,0:0:0:0:
288,128,74072,1,0,0:0:0:0:
480,96,74657,1,0,0:0:0:0:
480,96,74818,1,0,0:0:0:0:
480,96,74959,1,0,0:0:0:0:
96,96,75504,1,0,0:0:0:0:
96,96,75665,1,0,0:0:0:0:
96,96,75826,1,0,0:0:0:0:
96,96,75987,1,0,0:0:0:0:
320,64,76512,1,0,0:0:0:0:
320,64,76673,1,0,0:0:0:0:
320,64,76834,1,0,0:0:0:0:
320,64,76995,1,0,0:0:0:0:
320,64,77177,1,0,0:0:0:0:
64,96,77762,1,0,0:0:0:0:
64,96,77923,1,0,0:0:0:0:
64,96,78084,1,0,0:0:0:0:
352,128,78608,1,0,0:0:0:0:
352,128,78750,1,0,0:0:0:0:
352,128,78911,1,0,0:0:0:0:
192,128,79395,1,0,0:0:0:0:
192,128,79576,1,0,0:0:0:0:
192,128,79939,1,0,0:0:0:0:
192,128,80100,1,0,0:0:0:0:
256,192,80241,12,0,82721,0:0:0:0:
256,192,83528,12,0,84495,0:0:0:0:
96,64,85322,6,0,L|352:288,2,340.000005066395,0|0|0,0:0|0:0|0:0,0:0:0:0:
448,64,87600,2,0,L|128:256,2,370.00000551343,0|0|0,0:0|0:0|0:0,0:0:0:0:
96,96,90262,5,0,0:0:0:0:
96,96,90564,1,0,0:0:0:0:
96,96,90745,1,0,0:0:0:0:
96,96,90927,1,0,0:0:0:0:
384,256,91552,1,0,0:0:0:0:
384,256,91713,1,0,0:0:0:0:
384,256,91895,1,0,0:0:0:0:
384,256,92056,1,0,0:0:0:0:
352,96,92641,1,0,0:0:0:0:
352,96,92802,1,0,0:0:0:0:
352,96,93064,1,0,0:0:0:0:
352,96,93205,1,0,0:0:0:0:
352,96,93387,1,0,0:0:0:0:
64,64,94032,1,0,0:0:0:0:
64,64,94193,1,0,0:0:0:0:
64,64,94354,1,0,0:0:0:0:
64,64,94556,1,0,0:0:0:0:
352,224,95201,1,0,0:0:0:0:
352,224,95403,1,0,0:0:0:0:
352,224,95665,1,0,0:0:0:0:
352,224,95846,1,0,0:0:0:0:
224,96,96693,2,0,L|416:288,4,270.000004023314,0|0|0|0|0,0:0|0:0|0:0|0:0|0:0,0:0:0:0:
384,128,99415,1,0,0:0:0:0:
384,128,99778,1,0,0:0:0:0:
96,96,100645,1,0,0:0:0:0:
96,96,100786,1,0,0:0:0:0:
96,96,100947,1,0,0:0:0:0:
96,96,101108,1,0,0:0:0:0:
96,96,101250,1,0,0:0:0:0:
352,160,101854,1,0,0:0:0:0:
352,160,102036,1,0,0:0:0:0:
352,160,102197,1,0,0:0:0:0:
96,160,102721,1,0,0:0:0:0:
96,160,102923,1,0,0:0:0:0:
96,160,103104,1,0,0:0:0:0:
96,160,103245,1,0,0:0:0:0:
96,160,103366,1,0,0:0:0:0:
288,256,103931,1,0,0:0:0:0:
288,256,104092,1,0,0:0:0:0:
288,256,104254,1,0,0:0:0:0:
288,256,104415,1,0,0:0:0:0:
416,96,105100,1,0,0:0:0:0:
416,96,105423,1,0,0:0:0:0:
416,96,105584,1,0,0:0:0:0:
416,96,105766,1,0,0:0:0:0:
160,128,106330,1,0,0:0:0:0:
160,128,106512,1,0,0:0:0:0:
160,128,106653,1,0,0:0:0:0:
384,256,107298,1,0,0:0:0:0:
384,256,107459,1,0,0:0:0:0:
384,256,107620,1,0,0:0:0:0:
384,256,107782,1,0,0:0:0:0:
64,96,108790,1,0,0:0:0:0:
64,96,109213,1,0,0:0:0:0:
64,96,109637,1,0,0:0:0:0:
192,128,109879,2,0,L|384:288,4,250.00000372529,0|0|0|0|0,0:0|0:0|0:0|0:0|0:0,0:0:0:0:
480,96,113125,2,0,L|128:288,2,400.000005960464,0|0|0,0:0|0:0|0:0,0:0:0:0:
128,96,117500,5,0,0:0:0:0:
128,96,117681,1,0,0:0:0:0:
416,256,118245,1,0,0:0:0:0:
416,256,118467,1,0,0:0:0:0:
416,256,118850,1,0,0:0:0:0:
416,96,119455,1,0,0:0:0:0:
416,96,119616,1,0,0:0:0:0:
416,96,119758,1,0,0:0:0:0:
416,96,119919,1,0,0:0:0:0:
256,96,120362,1,0,0:0:0:0:
256,96,120504,1,0,0:0:0:0:
256,96,120645,1,0,0:0:0:0:
128,192,121088,1,0,0:0:0:0:
128,192,121250,1,0,0:0:0:0:
128,192,121411,1,0,0:0:0:0:
128,192,121532,1,0,0:0:0:0:
128,192,121673,1,0,0:0:0:0:
416,224,122338,1,0,0:0:0:0:
416,224,122520,1,0,0:0:0:0:
416,224,122661,1,0,0:0:0:0:
416,224,122842,1,0,0:0:0:0:
416,224,122983,1,0,0:0:0:0:
128,64,123467,1,0,0:0:0:0:
128,64,123709,1,0,0:0:0:0:
128,64,124012,1,0,0:0:0:0:
352,96,124556,1,0,0:0:0:0:
352,96,124697,1,0,0:0:0:0:
352,96,124858,1,0,0:0:0:0:
352,96,125020,1,0,0:0:0:0:
352,96,125161,1,0,0:0:0:0:
96,256,125745,1,0,0:0:0:0:
96,256,125907,1,0,0:0:0:0:
96,256,126068,1,0,0:0:0:0:
96,256,126209,1,0,0:0:0:0:
96,256,126370,1,0,0:0:0:0:
448,224,126975,1,0,0:0:0:0:
448,224,127137,1,0,0:0:0:0:
448,224,127298,1,0,0:0:0:0:
448,224,127560,1,0,0:0:0:0:
448,224,127721,1,0,0:0:0:0:
448,224,127862,1,0,0:0:0:0:
352,96,128427,1,0,0:0:0:0:
352,96,128608,1,0,0:0:0:0:
352,96,128770,1,0,0:0:0:0:
352,96,128911,1,0,0:0:0:0:
352,96,129052,1,0,0:0:0:0:
352,96,129213,1,0,0:0:0:0:
352,96,129395,1,0,0:0:0:0:
96,96,129899,1,0,0:0:0:0:
96,96,130060,1,0,0:0:0:0:
96,96,130201,1,0,0:0:0:0:
96,96,130362,1,0,0:0:0:0:
384,288,131290,1,0,0:0:0:0:
384,288,131451,1,0,0:0:0:0:
384,288,131592,1,0,0:0:0:0:
192,96,132237,1,0,0:0:0:0:
192,96,132439,1,0,0:0:0:0:
192,96,132641,1,0,0:0:0:0:
192,96,132802,1,0,0:0:0:0:
384,128,133326,1,0,0:0:0:0:
384,128,133588,1,0,0:0:0:0:
384,128,133870,1,0,0:0:0:0:
64,192,134032,2,0,L|288:224,2,220.000003278255,0|0|0,0:0|0:0|0:0,0:0:0:0:
96,128,135262,1,0,0:0:0:0:
416,192,135665,2,0,L|96:256,1,320.000004768372,0|0,0:0|0:0,0:0:0:0:
384,160,137056,1,0,0:0:0:0:
384,160,137217,1,0,0:0:0:0:
384,160,137379,1,0,0:0:0:0:
96,128,137842,1,0,0:0:0:0:
96,128,138004,1,0,0:0:0:0:
96,128,138125,1,0,0:0:0:0:
288,224,138669,1,0,0:0:0:0:
288,224,138830,1,0,0:0:0:0:
288,224,138971,1,0,0:0:0:0:
288,224,139153,1,0,0:0:0:0:
160,160,139576,1,0,0:0:0:0:
160,64,140302,2,0,L|224:160,3,110.000001639128,0|0|0|0,0:0|0:0|0:0|0:0,0:0:0:0:
416,224,141350,1,0,0:0:0:0:
416,224,141693,1,0,0:0:0:0:
512,96,142096,2,0,L|192:192,2,330.000004917383,0|0|0,0:0|0:0|0:0,0:0:0:0:
128,128,143870,1,0,0:0:0:0:
160,160,144516,2,0,L|352:288,2,230.000003427267,0|0|0,0:0|0:0|0:0,0:0:0:0:
416,192,146330,1,0,0:0:0:0:
416,192,146633,1,0,0:0:0:0:
416,192,146915,1,0,0:0:0:0:
256,192,150544,12,0,151532,0:0:0:0:
256,192,151915,12,0,153991,0:0:0:0:
256,192,154233,12,0,156411,0:0:0:0:
256,192,156814,12,0,158770,0:0:0:0:
160,160,161532,5,0,0:0:0:0:
160,160,161854,1,0,0:0:0:0:
160,160,162137,1,0,0:0:0:0:
448,320,163891,5,0,0:0:0:0:
448,320,164274,1,0,0:0:0:0:
448,320,164495,1,0,0:0:0:0:
64,96,165362,1,0,0:0:0:0:
64,96,165524,1,0,0:0:0:0:
64,96,165685,1,0,0:0:0:0:
64,96,165846,1,0,0:0:0:0:
480,320,166572,1,0,0:0:0:0:
480,320,166733,1,0,0:0:0:0:
480,320,166895,1,0,0:0:0:0:
480,320,167076,1,0,0:0:0:0:
256,192,167943,12,0,170282,0:0:0:0:
128,128,170504,5,0,0:0:0:0:
128,128,170645,1,0,0:0:0:0:
128,128,170826,1,0,0:0:0:0:
128,128,170967,1,0,0:0:0:0:
128,128,171129,1,0,0:0:0:0:
384,192,171592,1,0,0:0:0:0:
384,192,171794,1,0,0:0:0:0:
384,192,172016,1,0,0:0:0:0:
32,320,172782,1,0,0:0:0:0:
32,320,173064,1,0,0:0:0:0:
32,320,173245,1,0,0:0:0:0:
32,320,173407,1,0,0:0:0:0:
192,128,173991,1,0,0:0:0:0:
192,128,174213,1,0,0:0:0:0:
192,128,174455,1,0,0:0:0:0:
416,96,174959,1,0,0:0:0:0:
416,96,175120,1,0,0:0:0:0:
416,96,175282,1,0,0:0:0:0:
224,224,175786,1,0,0:0:0:0:
224,224,176048,1,0,0:0:0:0:
224,224,176209,1,0,0:0:0:0:
224,224,176370,1,0,0:0:0:0:
224,224,176491,1,0,0:0:0:0:
448,224,177076,1,0,0:0:0:0:
448,224,177217,1,0,0:0:0:0:
448,224,177379,1,0,0:0:0:0:
128,128,177903,1,0,0:0:0:0:
128,128,178064,1,0,0:0:0:0:
128,128,178205,1,0,0:0:0:0:
128,128,178366,1,0,0:0:0:0:
352,96,178891,1,0,0:0:0:0:
352,96,179133,1,0,0:0:0:0:
352,96,179334,1,0,0:0:0:0:
352,96,179495,1,0,0:0:0:0:
352,96,179697,1,0,0:0:0:0:
96,256,180302,1,0,0:0:0:0:
96,256,180544,1,0,0:0:0:0:
96,256,180725,1,0,0:0:0:0:
96,256,180967,1,0,0:0:0:0:
416,288,181491,1,0,0:0:0:0:
416,288,181713,1,0,0:0:0:0:
416,288,181935,1,0,0:0:0:0:
416,64,182620,1,0,0:0:0:0:
416,64,182943,1,0,0:0:0:0:
416,64,183104,1,0,0:0:0:0:
416,64,183286,1,0,0:0:0:0:
96,96,183830,1,0,0:0:0:0:
96,96,184112,1,0,0:0:0:0:
96,96,184375,1,0,0:0:0:0:
512,224,185000,1,0,0:0:0:0:
512,224,185161,1,0,0:0:0:0:
512,224,185322,1,0,0:0:0:0:
512,224,185463,1,0,0:0:0:0:
64,320,186129,1,0,0:0:0:0:
64,320,186270,1,0,0:0:0:0:
64,320,186431,1,0,0:0:0:0:
64,320,186612,1,0,0:0:0:0:
448,64,187258,1,0,0:0:0:0:
448,64,187419,1,0,0:0:0:0:
256,96,187883,1,0,0:0:0:0:
352,224,188387,1,0,0:0:0:0:
128,256,188891,1,0,0:0:0:0:
352,128,189415,1,0,0:0:0:0:
160,64,189939,1,0,0:0:0:0:
384,288,190463,1,0,0:0:0:0:
128,320,190987,1,0,0:0:0:0:
384,96,191532,1,0,0:0:0:0:
96,128,192056,1,0,0:0:0:0:
96,128,192379,1,0,0:0:0:0:
