osu file format v5

[General]
AudioFilename: Jet - Are you Gonna Be My Girl.mp3
AudioLeadIn: 0
PreviewTime: -1
Countdown: 1
SampleSet: Normal
StackLeniency: 0.7
Mode: 0
LetterboxInBreaks: 1
EditorBookmarks: 19840,32680,35740,37900,40180,42580,47201,49541,52061,57461,57701,59741,68861,75701,77381,78221,82301,93342,100362,102942,111822,113982,122982,130782,149383,149623,149863,150103,150523,157903,166783,167623,170083,184784,193964,218324

[Metadata]
Title:Are you Gonna Be My Girl
Artist:Jet
Creator:RhqStud722
Version:Insane
Source:
Tags:

[Difficulty]
HPDrainRate:9
CircleSize:5
OverallDifficulty:8
SliderMultiplier:2.6
SliderTickRate:2

[Events]
//Background and Video events
//Break Periods
2,31860,35290
2,37620,39730
2,42120,46631
2,59341,68771
2,82501,97692
2,100142,102192
2,104582,108912
2,114002,121152
2,130802,148873
2,157683,166513
2,184984,193574
2,210784,217574
//Storyboard Layer 0 (Background)
//Storyboard Layer 1 (Failing)
//Storyboard Layer 2 (Passing)
//Storyboard Layer 3 (Foreground)
//Storyboard Sound Samples
//Background Colour Transformations
3,100,163,162,255

[TimingPoints]
1060,480.0107,4,1,0,100

[HitObjects]
152,248,22420,1,4
296,312,22660,1,4
200,272,22960,1,4
368,216,23380,1,4
368,216,23620,1,4
368,216,23860,1,4
216,192,24340,1,2
360,248,24640,5,4
216,312,24880,1,4
312,272,25180,1,4
144,216,25600,1,4
144,216,25840,1,4
144,216,26080,1,4
272,200,26560,1,2
152,248,26860,5,4
296,312,27100,1,4
200,272,27400,1,4
368,216,27760,1,4
368,216,28000,1,4
368,216,28240,1,4
256,192,28960,12,4,31660
152,248,36040,5,4
296,312,36280,1,4
200,272,36580,1,4
368,216,36940,1,4
368,216,37180,1,4
368,216,37420,1,4
152,248,40480,5,4
296,312,40720,1,4
200,272,41020,1,4
368,216,41440,1,4
368,216,41680,1,4
368,216,41920,1,4
152,248,47381,5,4
296,312,47621,1,4
200,272,47921,1,4
368,216,48341,1,4
368,216,48581,1,4
368,216,48821,1,4
360,176,49541,2,0,B|296:138|214:140|165:200|167:254|222:295|328:256,4,325
352,192,52421,1,0
352,192,52781,1,0
352,192,54161,5,0
352,192,54521,1,0
352,192,54881,1,0
352,192,56261,5,0
352,192,56621,1,0
352,192,56981,1,0
288,192,57461,2,0,B|152:192,1,130
352,192,58421,5,0
352,192,58781,1,0
352,192,59141,1,0
256,192,69521,5,0
256,192,69941,1,0
256,192,70361,1,0
176,192,70781,1,0
176,192,71081,1,0
248,192,71981,1,0
248,192,72161,1,0
248,192,72341,1,0
256,192,73901,1,0
256,192,74141,1,0
256,192,74381,1,0
360,192,74621,1,0
360,192,74861,1,0
360,192,75221,1,0
360,192,75521,1,0
360,192,75701,2,0,B|365:302|275:344|195:336|76:295|88:184,2,422.5
256,192,78221,2,0,B|296:192,68,32.5
152,248,98442,5,0
296,312,98682,1,0
200,272,98982,1,0
368,216,99402,1,0
368,216,99702,1,0
368,216,99942,1,0
152,248,102942,5,0
296,312,103182,1,0
200,272,103422,1,0
368,216,103842,1,0
368,216,104142,1,0
368,216,104382,1,0
152,248,109662,5,0
296,312,109962,1,0
200,272,110262,1,0
368,216,110682,1,0
368,216,110982,1,0
368,216,111222,1,0
256,192,111822,12,0,113802
256,192,121902,6,0,B|216:192,18,32.5
256,192,123342,1,0
256,192,123582,1,0
176,192,125082,1,0
176,192,125322,1,0
176,192,125622,1,0
176,192,125802,1,0
256,192,127242,1,0
256,192,127482,1,0
256,192,127722,1,0
360,192,127962,1,0
360,192,128202,1,0
360,192,128562,1,0
360,192,128742,1,0
360,192,129042,2,0,B|365:302|275:344|195:336|76:295|88:184,2,422.5
256,192,149623,6,0,B|120:192,2,130
256,192,150523,2,0,B|392:192,2,130
256,192,151783,6,0,B|120:192,2,130
256,192,152683,2,0,B|392:192,2,130
256,192,153943,6,0,B|256:56,2,130
256,192,154903,2,0,B|256:328,2,130
256,192,156043,6,0,B|256:328,2,130
256,192,157003,2,0,B|256:56,2,130
368,304,167263,2,0,B|88:80,5,325
144,304,171403,2,0,B|368:24,4,325
368,80,174643,2,0,B|88:304,4,325
144,80,178003,2,0,B|368:360,4,325
256,192,182684,6,0,B|208:192,35,32.5
256,192,194324,1,0
256,192,194564,1,0
176,192,196064,1,0
176,192,196304,1,0
176,192,196604,1,0
176,192,196784,1,0
256,192,198224,1,0
256,192,198464,1,0
256,192,198704,1,0
360,192,198944,1,0
360,192,199184,1,0
360,192,199544,1,0
360,192,199724,1,0
360,192,200024,2,0,B|365:302|275:344|195:336|76:295|88:184,2,422.5
256,192,202724,1,0
256,192,203084,1,0
336,192,203564,1,0
336,192,203984,1,0
336,192,204224,1,0
336,192,205184,1,0
336,192,205484,1,0
336,192,205664,1,0
256,192,207104,1,0
256,192,207404,1,0
256,192,207704,1,0
208,192,207824,1,0
208,192,208064,1,0
208,192,208544,1,0
208,192,208724,1,0
208,192,209024,2,0,B|203:82|293:40|373:48|492:89|480:200,2,422.5
256,192,218324,12,4,225525
