osu file format v12

[General]
AudioFilename: PV (1).mp3
AudioLeadIn: 0
PreviewTime: 226428
Countdown: 0
SampleSet: Normal
StackLeniency: 0.2
Mode: 0
LetterboxInBreaks: 0

[Editor]
Bookmarks: 38764
DistanceSpacing: 0.8
BeatDivisor: 4
GridSize: 4

[Metadata]
Title:Remote Control
TitleUnicode:リモコン
Artist:JesusP
ArtistUnicode:じーざすP
Creator:SkyDevil
Version:Hard
Source:
Tags:vocaloid jiizasu jesus winber1 bestz2541 vacalia mkstar26 ayu leyko byakugan249 thenutritiousguy stefan kuma-san mystykamv mapper 31 Kagamine Rin Len teru21 betsuto
BeatmapID:156748
BeatmapSetID:44080

[Difficulty]
HPDrainRate:5
CircleSize:4
OverallDifficulty:6
ApproachRate:7
SliderMultiplier:1.6
SliderTickRate:2

[Events]
//Background and Video events
0,0,"remote_control_bg.jpg",0,0
Video,0,"Video.avi"
//Break Periods
2,44782,49500
2,108599,112045
2,120418,125136
2,184236,194955
//Storyboard Layer 0 (Background)
//Storyboard Layer 1 (Fail)
//Storyboard Layer 2 (Pass)
//Storyboard Layer 3 (Foreground)
//Storyboard Sound Samples
//Background Colour Transformations
3,100,255,255,128

[TimingPoints]
3855,363.636363636364,4,2,1,70,1,0
15491,-200,4,1,0,70,0,0
15673,-200,4,1,0,30,0,0
16945,-200,4,1,0,70,0,0
17127,-200,4,1,0,30,0,0
17673,-200,4,1,0,70,0,0
18582,-200,4,1,0,30,0,0
19127,-200,4,1,0,70,0,0
20218,-200,4,1,0,30,0,0
20945,-200,4,1,0,70,0,0
21491,-200,4,1,0,30,0,0
22400,-200,4,1,0,70,0,0
22945,-200,4,1,0,30,0,0
23309,-200,4,1,0,70,0,0
25855,-200,4,1,0,30,0,0
26400,-200,4,1,0,70,0,0
26582,-200,4,1,0,30,0,0
26764,-200,4,1,0,70,0,0
26945,-200,4,1,0,30,0,0
27127,-100,4,1,0,70,0,0
50400,-100,4,2,1,70,0,0
61491,-100,4,1,0,50,0,0
61673,-100,4,1,0,60,0,0
61855,-100,4,1,0,70,0,0
73673,-100,4,2,1,70,0,0
78764,-100,4,1,0,80,0,0
79127,-100,4,1,0,90,0,0
79491,-100,4,1,0,100,0,0
79855,-100,4,2,1,70,0,0
82400,-100,4,1,0,70,0,0
85309,-100,4,1,0,70,0,1
96764,-100,4,1,0,70,0,0
96945,-100,4,1,0,70,0,1
108582,-100,4,1,0,70,0,0
126036,-100,4,2,1,70,0,0
137309,-100,4,1,0,70,0,0
149309,-100,4,2,1,70,0,0
154400,-100,4,1,0,80,0,0
154764,-100,4,1,0,90,0,0
155127,-100,4,1,0,100,0,0
155491,-100,4,2,1,70,0,0
158036,-100,4,1,0,70,0,0
160945,-100,4,1,0,70,0,1
172400,-100,4,1,0,70,0,0
172582,-100,4,1,0,70,0,1
184218,-100,4,1,0,70,0,0
225673,-100,4,1,0,70,0,0
226400,-100,4,1,0,70,0,1
238036,-100,4,1,0,70,0,0
238218,-100,4,2,1,70,0,0
243127,-100,4,1,0,80,0,0
243491,-100,4,1,0,90,0,0
243855,-100,4,1,0,100,0,0
244218,-100,4,2,1,70,0,0
246764,-100,4,1,0,70,0,0
251127,-100,4,1,0,70,0,1
262582,-100,4,1,0,70,0,0
262764,-100,4,1,0,70,0,1
275855,-100,4,1,0,70,0,0

[Colours]
Combo1 : 49,49,49
Combo2 : 255,255,13
Combo3 : 255,255,168
Combo4 : 230,219,15

[HitObjects]
256,48,15491,6,0,B|224:112|256:208,1,160
320,280,16582,1,0,0:0:0:0:
384,352,16945,2,0,B|304:384|224:352,1,160
168,280,18036,1,0,0:0:0:0:
120,200,18400,2,0,B|200:160|280:200,1,160
256,48,19855,5,0,0:0:0:0:
256,48,20218,1,0,0:0:0:0:
312,128,20582,1,0,0:0:0:0:
312,128,20945,1,0,0:0:0:0:
256,200,21309,2,0,B|296:272|256:360,1,160
176,328,22400,1,0,0:0:0:0:
96,280,22764,6,0,B|56:208|96:120,1,160
176,80,23855,1,0,0:0:0:0:
256,32,24218,2,0,B|288:104|392:128,1,160
448,352,25673,5,0,0:0:0:0:
384,280,26036,1,0,0:0:0:0:
320,352,26400,2,0,B|264:352,1,40
264,280,26764,2,0,B|304:280,1,40
320,208,27127,6,0,B|384:136|312:48,1,160,0|0,0:0|0:0,0:0:0:0:
192,64,27855,2,0,B|130:137|194:209,1,160,8|0,0:0|0:0,0:0:0:0:
128,320,28582,1,0,0:0:0:0:
256,368,28945,1,0,0:0:0:0:
384,320,29309,2,0,B|288:272|352:176,1,160,8|0,0:0|0:0,0:0:0:0:
167,188,30036,2,0,B|224:272|128:320,1,160,0|0,0:0|0:0,0:0:0:0:
0,232,30764,1,8,0:0:0:0:
88,40,31491,6,0,B|120:128|216:112,1,160
424,40,32218,2,0,B|392:128|296:112,1,160,8|0,0:0|0:0,0:0:0:0:
192,240,32945,1,0,0:0:0:0:
320,240,33309,1,0,0:0:0:0:
192,360,33673,1,8,0:0:0:0:
320,360,34036,1,0,0:0:0:0:
192,240,34400,6,0,B|152:160|224:80,1,160
320,240,35127,2,0,B|360:160|288:80,1,160,8|0,0:0|0:0,0:0:0:0:
192,240,35855,1,0,0:0:0:0:
256,368,36218,1,0,0:0:0:0:
320,240,36582,1,8,0:0:0:0:
256,192,37309,12,0,38764,0:0:0:0:
256,48,38945,6,0,B|296:32|336:48,1,80,8|0,0:0|0:0,0:0:0:0:
376,120,39309,2,0,B|336:136|296:120,1,80,8|0,0:0|0:0,0:0:0:0:
336,208,39673,2,0,B|376:192|416:208,1,80,8|0,0:0|0:0,0:0:0:0:
456,280,40037,2,0,B|416:296|376:280,1,80,8|0,0:0|0:0,0:0:0:0:
328,352,40400,1,8,0:0:0:0:
280,280,40582,1,0,0:0:0:0:
232,352,40764,1,8,0:0:0:0:
184,280,40945,1,0,0:0:0:0:
136,352,41127,1,8,0:0:0:0:
136,352,41309,1,8,0:0:0:0:
32,248,41673,6,0,B|64:168|168:176,1,160,0|8,0:0|0:0,0:0:0:0:
312,120,42400,1,0,0:0:0:0:
352,48,42582,1,0,0:0:0:0:
392,120,42764,1,8,0:0:0:0:
432,48,42945,1,0,0:0:0:0:
472,120,43127,2,0,B|512:208|464:296,1,160,0|8,0:0|0:0,0:0:0:0:
296,344,43855,1,0,0:0:0:0:
216,344,44036,1,0,0:0:0:0:
256,272,44218,1,8,0:0:0:0:
256,104,44582,5,4,0:0:0:0:
256,56,50400,5,4,0:0:0:0:
304,120,50582,2,0,B|328:168|368:176,1,80,0|8,0:0|0:0,0:0:0:0:
440,152,50945,2,0,B|424:104|384:96,1,80,0|0,0:0|0:0,0:0:0:0:
360,173,51309,1,0,0:0:0:0:
424,232,51491,2,0,B|432:272|400:312,1,80,8|0,0:0|0:0,0:0:0:0:
320,328,51855,2,0,B|312:288|344:248,1,80,0|0,0:0|0:0,0:0:0:0:
256,136,52400,1,0,0:0:0:0:
171,253,52764,22,0,B|200:288|192:328,1,80,0|8,0:0|0:0,0:0:0:0:
108,306,53127,2,0,B|80:272|88:232,1,80
184,96,53673,1,8,0:0:0:0:
256,136,53855,1,0,0:0:0:0:
328,96,54036,2,0,B|416:128|432:232,1,160,0|8,0:0|0:0,0:0:0:0:
360,264,54582,1,0,0:0:0:0:
288,304,54764,1,0,0:0:0:0:
256,376,54945,1,2,0:0:0:0:
200,248,55309,1,2,0:0:0:0:
312,168,55673,1,2,0:0:0:0:
256,80,56036,2,0,B|256:40,2,40,2|2|4,0:0|0:0|0:0,0:0:0:0:
184,104,56400,5,0,0:0:0:0:
136,160,56582,2,0,B|176:184|160:248,1,80,8|0,0:0|0:0,0:0:0:0:
184,304,56945,1,0,0:0:0:0:
256,336,57127,1,0,0:0:0:0:
328,304,57309,1,8,0:0:0:0:
348,229,57491,2,0,B|336:184|374:160,1,80,0|0,0:0|0:0,0:0:0:0:
328,104,57855,1,0,0:0:0:0:
256,80,58036,2,0,B|256:160,1,80,8|0,0:0|0:0,0:0:0:0:
256,336,58582,6,0,B|240:296|256:256,2,80,0|8|0,0:0|0:0|0:0,0:0:0:0:
328,304,59127,2,0,B|384:216|288:144,1,160,0|8,0:0|0:0,0:0:0:0:
256,104,59673,1,0,0:0:0:0:
204,160,59855,2,0,B|128:216|184:304,1,160,0|8,0:0|0:0,0:0:0:0:
120,352,60400,1,0,0:0:0:0:
56,304,60582,1,0,0:0:0:0:
88,232,60764,1,0,0:0:0:0:
32,176,60945,1,8,0:0:0:0:
72,112,61127,2,0,B|120:40|224:32,1,160,0|0,0:0|0:0,0:0:0:0:
256,104,61673,1,0,0:0:0:0:
306,33,61855,1,0,0:0:0:0:
352,104,62036,6,0,B|368:192|448:240,1,160,6|8,0:0|0:0,0:0:0:0:
328,352,62764,2,0,B|256:304|176:352,1,160,2|8,0:0|0:0,0:0:0:0:
74,233,63491,2,0,B|144:192|160:104,1,160,2|8,0:0|0:0,0:0:0:0:
256,216,64218,1,2,0:0:0:0:
352,104,64582,1,8,0:0:0:0:
408,240,64945,1,2,0:0:0:0:
256,216,65309,1,8,0:0:0:0:
184,336,65673,2,0,B|256:392|336:336,1,160,2|8,0:0|0:0,0:0:0:0:
356,208,66400,5,2,0:0:0:0:
432,208,66582,1,0,0:0:0:0:
456,136,66764,1,8,0:0:0:0:
392,88,66945,1,0,0:0:0:0:
328,136,67127,2,0,B|256:88|176:136,1,160,2|8,0:0|0:0,0:0:0:0:
64,240,67855,2,0,B|136:288|216:240,1,160,6|8,0:0|0:0,0:0:0:0:
448,240,68582,2,0,B|376:288|296:240,1,160,2|8,0:0|0:0,0:0:0:0:
256,368,69309,1,2,0:0:0:0:
184,240,69673,2,0,B|256:192|336:240,1,160,8|2,0:0|0:0,0:0:0:0:
432,144,70400,2,0,B|344:160|288:48,1,160,8|2,0:0|0:0,0:0:0:0:
80,144,71127,2,0,B|168:160|224:48,1,160,8|2,0:0|0:0,0:0:0:0:
256,352,72218,6,0,B|256:256,2,80,2|0|8,0:0|0:0|0:0,0:0:0:0:
184,192,72945,2,0,B|256:144|336:192,1,160,2|8,0:0|0:0,0:0:0:0:
400,144,73491,1,0,0:0:0:0:
432,216,73673,2,0,B|416:296|336:360,1,160,4|8,0:0|0:0,0:0:0:0:
163,349,74400,2,0,B|96:296|80:216,1,160,0|8,0:0|0:0,0:0:0:0:
104,128,74945,2,0,B|144:144|168:192,1,80
216,128,75309,2,0,B|192:88|216:48,1,80,0|8,0:0|0:0,0:0:0:0:
298,51,75673,2,0,B|320:88|296:128,1,80,0|0,0:0|0:0,0:0:0:0:
350,180,76037,2,0,B|368:144|408:128,1,80,0|8,0:0|0:0,0:0:0:0:
480,168,76400,1,0,0:0:0:0:
432,240,76582,6,0,B|416:320|348:373,1,160,0|8,0:0|0:0,0:0:0:0:
296,240,77309,1,0,0:0:0:0:
256,304,77491,1,0,0:0:0:0:
216,240,77673,1,8,0:0:0:0:
163,373,78036,2,0,B|96:320|80:240,1,160,0|8,0:0|0:0,0:0:0:0:
128,136,78764,1,0,0:0:0:0:
192,32,79127,1,0,0:0:0:0:
320,32,79491,1,0,0:0:0:0:
384,136,79855,6,0,B|408:216|320:304,1,160,8|0,0:0|0:0,0:0:0:0:
256,192,80582,2,0,B|208:192|184:240,1,80,8|0,0:0|0:0,0:0:0:0:
256,280,80945,2,0,B|237:317|189:317,1,80,0|0,0:0|0:0,0:0:0:0:
112,280,81309,1,8,0:0:0:0:
120,200,81491,2,0,B|120:160|168:128,1,80,0|0,0:0|0:0,0:0:0:0:
88,72,81855,2,0,B|88:112|48:144,1,80,0|8,0:0|0:0,0:0:0:0:
256,72,82400,5,0,0:0:0:0:
256,72,82582,1,0,0:0:0:0:
376,191,83127,5,0,0:0:0:0:
376,191,83309,1,0,0:0:0:0:
256,232,83673,6,0,B|208:312|256:384,1,160
328,344,84218,1,0,0:0:0:0:
400,384,84400,1,0,0:0:0:0:
256,48,85127,5,0,0:0:0:0:
184,112,85309,2,0,B|256:176|328:112,1,160,4|8,0:0|0:0,0:0:0:0:
408,136,85855,1,0,0:0:0:0:
448,208,86036,2,0,B|360:216|312:304,1,160,0|8,0:0|0:0,0:0:0:0:
256,232,86582,1,0,0:0:0:0:
192,291,86764,2,0,B|152:216|64:208,2,160,0|8|0,0:0|0:0|0:0,0:0:0:0:
256,96,87855,1,10,0:0:0:0:
256,96,88036,1,0,0:0:0:0:
216,232,88400,5,0,0:0:0:0:
184,312,88582,1,8,0:0:0:0:
256,368,88764,1,0,0:0:0:0:
328,312,88945,2,0,B|264:240|328:168,1,160,0|8,0:0|0:0,0:0:0:0:
368,80,89491,2,0,B|320:64|288:104,1,80
256,32,89855,1,0,0:0:0:0:
217,96,90036,2,0,B|191:63|143:79,1,80,8|0,0:0|0:0,0:0:0:0:
184,168,90400,2,0,B|248:240|184:312,1,160,0|8,0:0|0:0,0:0:0:0:
104,336,90945,5,0,0:0:0:0:
40,288,91127,2,0,B|-24:216|40:144,1,160,0|8,0:0|0:0,0:0:0:0:
120,128,91673,1,0,0:0:0:0:
184,80,91855,2,0,B|256:128|336:80,1,160,0|8,0:0|0:0,0:0:0:0:
472,144,92582,2,0,B|536:216|472:288,2,160,0|8|0,0:0|0:0|0:0,0:0:0:0:
328,224,93673,1,10,0:0:0:0:
328,224,93855,1,0,0:0:0:0:
360,88,94218,6,0,B|312:80|296:32,1,80,0|8,0:0|0:0,0:0:0:0:
212,41,94582,2,0,B|200:80|152:88,1,80,0|0,0:0|0:0,0:0:0:0:
112,152,94945,1,0,0:0:0:0:
168,208,95127,1,8,0:0:0:0:
128,280,95309,1,0,0:0:0:0:
184,336,95491,2,0,B|256:288|336:336,1,160,4|8,0:0|0:0,0:0:0:0:
408,192,96218,2,0,B|336:240|256:192,1,160,4|8,0:0|0:0,0:0:0:0:
192,144,96764,5,0,0:0:0:0:
128,104,96945,2,0,B|88:88|48:104,1,80,4|0,0:0|0:0,0:0:0:0:
88,176,97309,1,8,0:0:0:0:
53,249,97491,2,0,B|91:264|131:248,1,80,0|0,0:0|0:0,0:0:0:0:
200,304,97855,1,0,0:0:0:0:
256,240,98036,1,8,0:0:0:0:
440,160,98400,6,0,B|336:176|320:64,1,160,0|8,0:0|0:0,0:0:0:0:
72,160,99127,2,0,B|176:176|192:64,1,160,0|10,0:0|0:0,0:0:0:0:
256,32,99673,1,0,0:0:0:0:
216,176,100036,6,0,B|192:216|216:256,1,80,0|8,0:0|0:0,0:0:0:0:
296,296,100400,2,0,B|312:256|296:216,1,80,0|0,0:0|0:0,0:0:0:0:
400,56,100945,1,8,0:0:0:0:
376,128,101127,1,0,0:0:0:0:
456,136,101309,2,0,B|512:208|456:288,1,160,0|8,0:0|0:0,0:0:0:0:
384,280,101855,1,0,0:0:0:0:
360,352,102036,2,0,B|288:408|208:352,1,160,0|8,0:0|0:0,0:0:0:0:
152,304,102582,5,0,0:0:0:0:
128,224,102764,2,0,B|128:184|168:152,1,80,4|0,0:0|0:0,0:0:0:0:
208,88,103127,1,8,0:0:0:0:
256,152,103309,1,0,0:0:0:0:
304,88,103491,1,0,0:0:0:0:
348,155,103673,2,0,B|384:184|384:224,1,80,0|8,0:0|0:0,0:0:0:0:
328,344,104218,2,0,B|256:288|176:344,2,160,0|8|0,0:0|0:0|0:0,0:0:0:0:
256,232,105309,1,10,0:0:0:0:
256,232,105491,1,0,0:0:0:0:
160,128,105855,5,0,0:0:0:0:
176,40,106036,1,8,0:0:0:0:
256,72,106218,2,0,B|256:160,2,80
336,40,106764,1,8,0:0:0:0:
352,128,106945,1,0,0:0:0:0:
400,208,107127,2,0,B|400:288,1,80
312,336,107491,2,0,B|312:256,1,80,8|0,0:0|0:0,0:0:0:0:
256,192,107855,1,0,0:0:0:0:
200,256,108036,2,0,B|96:240|88:120,1,160,0|4,0:0|0:0,0:0:0:0:
256,72,112945,5,0,0:0:0:0:
256,312,113491,1,0,0:0:0:0:
184,192,113855,1,0,0:0:0:0:
256,152,114036,1,0,0:0:0:0:
256,232,114218,1,0,0:0:0:0:
328,192,114400,6,0,B|416:224|408:320,1,160,4|8,0:0|0:0,0:0:0:0:
256,384,115127,1,0,0:0:0:0:
103,315,115491,1,8,0:0:0:0:
152,256,115673,1,0,0:0:0:0:
112,192,115855,1,0,0:0:0:0:
184,168,116036,2,0,B|184:120|232:96,1,80,0|8,0:0|0:0,0:0:0:0:
320,80,116400,2,0,B|320:128|272:152,1,80,0|0,0:0|0:0,0:0:0:0:
248,224,116764,1,8,0:0:0:0:
248,224,116945,1,8,0:0:0:0:
352,304,117309,6,0,B|304:216|408:160,1,160,0|8,0:0|0:0,0:0:0:0:
304,48,118036,1,0,0:0:0:0:
256,120,118218,1,0,0:0:0:0:
208,48,118400,1,8,0:0:0:0:
118,168,118764,2,0,B|208:216|160:304,1,160,0|8,0:0|0:0,0:0:0:0:
256,200,119491,1,0,0:0:0:0:
304,120,119673,1,0,0:0:0:0:
208,120,119855,1,8,0:0:0:0:
256,352,120218,5,4,0:0:0:0:
256,40,126036,5,4,0:0:0:0:
216,112,126218,2,0,B|224:160|176:184,1,80,0|8,0:0|0:0,0:0:0:0:
296,112,126582,2,0,B|288:160|336:184,1,80,0|0,0:0|0:0,0:0:0:0:
256,216,126945,1,0,0:0:0:0:
216,280,127127,2,0,B|256:304|296:280,1,80,8|0,0:0|0:0,0:0:0:0:
368,248,127491,2,0,B|456:200|432:104,1,160,0|8,0:0|0:0,0:0:0:0:
368,64,128036,1,0,0:0:0:0:
328,136,128218,1,0,0:0:0:0:
256,168,128400,1,0,0:0:0:0:
184,136,128582,1,8,0:0:0:0:
144,64,128764,1,0,0:0:0:0:
80,112,128945,6,0,B|59:197|147:245,1,160,0|8,0:0|0:0,0:0:0:0:
104,312,129491,1,0,0:0:0:0:
184,320,129673,2,0,B|256:368|336:320,1,160,0|8,0:0|0:0,0:0:0:0:
376,208,130218,2,0,B|336:240|288:240,1,80
208,239,130582,1,2,0:0:0:0:
256,112,130945,1,2,0:0:0:0:
128,64,131309,1,2,0:0:0:0:
72,192,131673,2,0,B|16:224,2,40,2|2|4,0:0|0:0|0:0,0:0:0:0:
104,280,132036,6,0,B|112:328|160:360,1,80,0|8,0:0|0:0,0:0:0:0:
192,248,132400,2,0,B|184:296|232:336,1,80,0|0,0:0|0:0,0:0:0:0:
295,321,132764,2,0,B|328:296|320:248,1,80,0|8,0:0|0:0,0:0:0:0:
368,347,133128,2,0,B|400:328|408:280,1,80,0|0,0:0|0:0,0:0:0:0:
384,192,133491,1,0,0:0:0:0:
256,104,133855,1,0,0:0:0:0:
128,192,134218,2,0,B|144:240|200:240,1,80,0|8,0:0|0:0,0:0:0:0:
256,272,134582,1,0,0:0:0:0:
325,239,134764,2,0,B|376:320|480:280,1,160,0|8,0:0|0:0,0:0:0:0:
456,200,135309,2,0,B|432:160|376:176,1,80
256,112,135855,37,8,0:0:0:0:
184,152,136036,2,0,B|144:184|136:240,1,80
192,296,136400,2,0,B|232:264|232:208,1,80,0|8,0:0|0:0,0:0:0:0:
304,192,136764,2,0,B|368:272|440:192,1,160,0|8,0:0|0:0,0:0:0:0:
408,120,137309,2,0,B|408:40,1,80
328,72,137673,6,0,B|256:128|176:72,1,160,2|8,0:0|0:0,0:0:0:0:
168,272,138400,2,0,B|176:232|216:208,1,80,2|0,0:0|0:0,0:0:0:0:
298,209,138764,2,0,B|336:232|344:272,1,80,8|0,0:0|0:0,0:0:0:0:
256,312,139127,1,2,0:0:0:0:
256,72,139491,1,8,0:0:0:0:
184,280,139855,2,0,B|256:344|336:272,1,160,2|8,0:0|0:0,0:0:0:0:
408,104,140582,2,0,B|304:104|304:224,1,160,2|8,0:0|0:0,0:0:0:0:
104,104,141309,2,0,B|208:104|208:224,1,160,2|8,0:0|0:0,0:0:0:0:
192,368,142036,5,2,0:0:0:0:
256,320,142218,1,0,0:0:0:0:
320,368,142400,1,8,0:0:0:0:
328,192,142764,2,0,B|256:240|168:192,1,160,2|8,0:0|0:0,0:0:0:0:
392,264,143491,6,0,B|456:192|384:120,1,160,6|8,0:0|0:0,0:0:0:0:
125,122,144218,2,0,B|56:192|120:264,1,160,2|8,0:0|0:0,0:0:0:0:
256,328,144945,1,2,0:0:0:0:
296,264,145127,1,0,0:0:0:0:
256,200,145309,1,8,0:0:0:0:
296,48,145673,2,0,B|256:64|216:48,2,80,2|0|8,0:0|0:0|0:0,0:0:0:0:
160,144,146400,6,0,B|96:232|200:272,1,160,2|8,0:0|0:0,0:0:0:0:
352,144,147127,2,0,B|416:232|312:272,1,160,2|8,0:0|0:0,0:0:0:0:
256,208,147673,1,0,0:0:0:0:
256,128,147855,2,0,B|240:80|192:72,1,80,2|0,0:0|0:0,0:0:0:0:
256,128,148218,2,0,B|272:80|320:72,1,80,8|0,0:0|0:0,0:0:0:0:
352,144,148582,1,2,0:0:0:0:
160,240,148945,1,8,0:0:0:0:
256,360,149309,6,0,B|352:360|400:296,1,160,4|8,0:0|0:0,0:0:0:0:
328,248,149855,2,0,B|280:248|256:279,1,80,0|0,0:0|0:0,0:0:0:0:
184,136,150400,2,0,B|232:136|256:105,1,80,8|0,0:0|0:0,0:0:0:0:
176,56,150764,2,0,B|128:56|104:87,1,80,0|0,0:0|0:0,0:0:0:0:
56,152,151127,1,8,0:0:0:0:
128,208,151309,1,0,0:0:0:0:
64,272,151491,1,0,0:0:0:0:
128,328,151673,2,0,B|160:360|200:360,1,80,0|8,0:0|0:0,0:0:0:0:
312,360,152036,2,0,B|352:360|384:328,1,80,0|0,0:0|0:0,0:0:0:0:
256,48,152582,5,8,0:0:0:0:
296,176,152945,2,0,B|296:248,1,40,0|8,0:0|0:0,0:0:0:0:
216,256,153218,2,0,B|216:184,1,40,0|8,0:0|0:0,0:0:0:0:
112,112,153673,5,0,0:0:0:0:
64,240,154036,1,8,0:0:0:0:
184,320,154400,2,0,B|256:376|336:320,1,160
448,240,155127,1,0,0:0:0:0:
400,112,155491,2,0,B|320:128|296:240,1,160,8|0,0:0|0:0,0:0:0:0:
256,32,156218,6,0,B|232:72|256:112,1,80,8|0,0:0|0:0,0:0:0:0:
128,64,156582,2,0,B|139:109|180:119,1,80,0|0,0:0|0:0,0:0:0:0:
80,192,156945,2,0,B|120:216|156:194,1,80,8|0,0:0|0:0,0:0:0:0:
240,184,157309,2,0,B|304:256|240:336,1,160,0|8,0:0|0:0,0:0:0:0:
112,288,158036,5,0,0:0:0:0:
112,288,158218,1,0,0:0:0:0:
256,32,158764,5,0,0:0:0:0:
256,32,158945,1,0,0:0:0:0:
328,144,159309,2,0,B|248:192|176:144,1,160
104,104,159855,1,0,0:0:0:0:
64,176,160036,1,0,0:0:0:0:
256,336,160764,5,0,0:0:0:0:
328,272,160946,2,0,B|256:208|184:272,1,160,0|8,0:0|0:0,0:0:0:0:
104,248,161492,1,0,0:0:0:0:
64,176,161673,2,0,B|152:168|200:80,1,160,0|8,0:0|0:0,0:0:0:0:
320,93,162401,2,0,B|360:168|448:176,2,160,0|8|0,0:0|0:0|0:0,0:0:0:0:
256,288,163492,1,10,0:0:0:0:
256,288,163673,1,0,0:0:0:0:
296,152,164037,5,0,0:0:0:0:
328,72,164219,1,8,0:0:0:0:
256,16,164401,1,0,0:0:0:0:
184,72,164582,2,0,B|248:144|184:216,1,160,0|8,0:0|0:0,0:0:0:0:
144,304,165128,2,0,B|192:320|224:280,1,80
256,352,165492,1,0,0:0:0:0:
295,288,165673,2,0,B|321:321|369:305,1,80,8|0,0:0|0:0,0:0:0:0:
328,216,166037,2,0,B|264:144|328:72,1,160,0|8,0:0|0:0,0:0:0:0:
408,48,166582,5,0,0:0:0:0:
472,96,166764,2,0,B|536:168|472:240,1,160,0|8,0:0|0:0,0:0:0:0:
392,256,167310,1,0,0:0:0:0:
328,304,167492,2,0,B|256:256|176:304,1,160,0|8,0:0|0:0,0:0:0:0:
40,240,168219,2,0,B|-24:168|40:96,2,160,0|8|0,0:0|0:0|0:0,0:0:0:0:
184,160,169310,1,10,0:0:0:0:
184,160,169492,1,0,0:0:0:0:
152,296,169855,6,0,B|200:304|216:352,1,80,0|8,0:0|0:0,0:0:0:0:
300,343,170219,2,0,B|312:304|360:296,1,80,0|0,0:0|0:0,0:0:0:0:
400,232,170582,1,0,0:0:0:0:
344,176,170764,1,8,0:0:0:0:
384,104,170946,1,0,0:0:0:0:
328,48,171128,2,0,B|256:96|176:48,1,160,4|8,0:0|0:0,0:0:0:0:
104,192,171855,2,0,B|176:144|256:192,1,160,4|8,0:0|0:0,0:0:0:0:
320,240,172401,5,0,0:0:0:0:
384,280,172582,2,0,B|424:296|464:280,1,80,4|0,0:0|0:0,0:0:0:0:
424,208,172946,1,8,0:0:0:0:
459,135,173128,2,0,B|421:120|381:136,1,80,0|0,0:0|0:0,0:0:0:0:
312,80,173492,1,0,0:0:0:0:
256,144,173673,1,8,0:0:0:0:
72,224,174037,6,0,B|176:208|192:320,1,160,0|8,0:0|0:0,0:0:0:0:
440,224,174764,2,0,B|336:208|320:320,1,160,0|10,0:0|0:0,0:0:0:0:
256,352,175310,1,0,0:0:0:0:
296,208,175673,6,0,B|320:168|296:128,1,80,0|8,0:0|0:0,0:0:0:0:
216,88,176037,2,0,B|200:128|216:168,1,80,0|0,0:0|0:0,0:0:0:0:
112,328,176582,1,8,0:0:0:0:
136,256,176764,1,0,0:0:0:0:
56,248,176946,2,0,B|0:176|56:96,1,160,0|8,0:0|0:0,0:0:0:0:
128,104,177492,1,0,0:0:0:0:
152,32,177673,2,0,B|224:104|304:32,1,160,0|8,0:0|0:0,0:0:0:0:
368,80,178219,5,0,0:0:0:0:
384,160,178401,2,0,B|384:200|344:232,1,80
304,296,178764,1,8,0:0:0:0:
256,232,178946,1,0,0:0:0:0:
208,296,179128,1,0,0:0:0:0:
164,229,179310,2,0,B|128:200|128:160,1,80,0|8,0:0|0:0,0:0:0:0:
184,40,179855,2,0,B|256:96|336:40,2,160,0|8|0,0:0|0:0|0:0,0:0:0:0:
256,152,180946,1,10,0:0:0:0:
256,152,181128,1,0,0:0:0:0:
352,256,181492,5,0,0:0:0:0:
312,328,181673,2,0,B|264:312|256:272,1,80,8|0,0:0|0:0,0:0:0:0:
255,275,182036,2,0,B|248:312|200:328,1,80,0|0,0:0|0:0,0:0:0:0:
160,256,182400,1,8,0:0:0:0:
216,184,182582,2,0,B|256:160|296:184,1,80
376,144,182945,1,0,0:0:0:0:
328,88,183127,1,8,0:0:0:0:
256,72,183309,1,0,0:0:0:0:
184,88,183491,1,0,0:0:0:0:
136,144,183673,2,0,B|96:216|184:216|136:304,1,160,0|4,0:0|0:0,0:0:0:0:
256,40,195855,5,4,0:0:0:0:
208,104,196036,1,8,0:0:0:0:
256,168,196218,1,0,0:0:0:0:
208,232,196400,2,0,B|208:320,1,80,8|0,0:0|0:0,0:0:0:0:
304,312,196764,2,0,B|304:232,1,80,8|0,0:0|0:0,0:0:0:0:
328,160,197127,2,0,B|256:104|176:160,1,160,8|8,0:0|0:0,0:0:0:0:
120,208,197673,2,0,B|128:248|176:272,1,80,0|8,0:0|0:0,0:0:0:0:
256,240,198036,2,0,B|256:336,2,80,0|8|0,0:0|0:0|0:0,0:0:0:0:
392,128,198945,6,0,B|344:128|336:72,1,80,8|0,0:0|0:0,0:0:0:0:
256,40,199309,2,0,B|256:136,2,80,8|0|8,0:0|0:0|0:0,0:0:0:0:
174,79,199855,2,0,B|168:128|120:128,1,80,0|8,0:0|0:0,0:0:0:0:
112,208,200218,1,0,0:0:0:0:
168,272,200400,1,8,0:0:0:0:
256,248,200582,1,0,0:0:0:0:
344,272,200764,1,8,0:0:0:0:
400,208,200945,2,0,B|400:128,2,80,0|8|0,0:0|0:0|0:0,0:0:0:0:
256,40,201673,5,4,0:0:0:0:
208,120,201855,2,0,B|169:114|153:66,2,80,8|0|8,0:0|0:0|0:0,0:0:0:0:
304,120,202400,2,0,B|342:114|358:66,2,80,0|8|0,0:0|0:0|0:0,0:0:0:0:
256,200,202945,2,8,B|208:272|312:272|256:352,1,160
160,312,203491,1,0,0:0:0:0:
136,224,203673,1,8,0:0:0:0:
184,144,203855,2,0,B|256:72|328:144,1,160
352,304,204764,6,0,B|304:312|288:376,1,80,8|0,0:0|0:0,0:0:0:0:
217,354,205127,2,0,B|208:312|160:304,1,80,8|0,0:0|0:0,0:0:0:0:
184,224,205491,1,8,0:0:0:0:
256,256,205673,1,0,0:0:0:0:
328,224,205855,2,0,B|352:192|328:144,2,80,8|0|8,0:0|0:0|0:0,0:0:0:0:
256,96,206400,2,0,B|232:128|256:176,2,80,0|8|0,0:0|0:0|0:0,0:0:0:0:
72,48,207127,1,8,0:0:0:0:
32,192,207491,5,4,0:0:0:0:
64,264,207673,2,0,B|72:312|120:320,1,80,8|0,0:0|0:0,0:0:0:0:
256,368,208036,2,0,B|248:320|205:313,1,80,8|0,0:0|0:0,0:0:0:0:
256,368,208400,2,0,B|264:320|306:313,1,80,8|0,0:0|0:0,0:0:0:0:
456,264,208764,2,0,B|448:312|405:318,1,80,8|0,0:0|0:0,0:0:0:0:
304,184,209127,2,0,B|344:192|360:241,2,80,8|0|8,0:0|0:0|0:0,0:0:0:0:
208,184,209673,2,0,B|168:192|151:241,2,80,0|8|0,0:0|0:0|0:0,0:0:0:0:
136,104,210582,5,8,0:0:0:0:
184,40,210764,1,0,0:0:0:0:
256,80,210945,1,8,0:0:0:0:
328,40,211127,1,0,0:0:0:0:
376,104,211309,2,0,B|400:144|376:184,1,80,8|0,0:0|0:0,0:0:0:0:
312,224,211673,2,0,B|288:184|312:144,1,80,8|0,0:0|0:0,0:0:0:0:
202,147,212036,2,0,B|224:184|200:224,1,80,8|0,0:0|0:0,0:0:0:0:
256,280,212400,1,8,0:0:0:0:
216,352,212582,2,0,B|256:368|296:352,2,80,0|8|0,0:0|0:0|0:0,0:0:0:0:
64,288,213309,5,4,0:0:0:0:
48,192,213491,2,0,B|32:96|144:64,1,160,8|8,0:0|0:0,0:0:0:0:
208,80,214036,1,0,0:0:0:0:
184,160,214218,2,8,B|256:216|336:160,1,160
304,80,214764,2,0,B|344:56|384:80,2,80,0|8|0,0:0|0:0|0:0,0:0:0:0:
208,80,215309,2,0,B|168:56|128:80,2,80,8|0|8,0:0|0:0|0:0,0:0:0:0:
256,152,215855,1,0,0:0:0:0:
256,352,216400,5,8,0:0:0:0:
216,280,216582,2,0,B|112:280,1,80,0|8,0:0|0:0,0:0:0:0:
104,200,216945,2,0,B|192:200,1,80,0|8,0:0|0:0,0:0:0:0:
256,152,217309,1,0,0:0:0:0:
328,200,217491,2,0,B|408:200,1,80,8|0,0:0|0:0,0:0:0:0:
376,280,217855,2,0,B|296:280,1,80,8|0,0:0|0:0,0:0:0:0:
256,352,218218,1,8,0:0:0:0:
256,352,218400,2,0,B|208:280|296:280|256:200,1,160
256,192,219127,12,0,220582,0:0:0:0:
256,192,220673,12,0,222036,0:0:0:0:
256,56,222764,21,0,0:0:0:0:
256,328,223491,1,0,0:0:0:0:
200,208,223855,1,0,0:0:0:0:
328,144,224218,1,0,0:0:0:0:
400,104,224400,1,0,0:0:0:0:
472,144,224582,1,0,0:0:0:0:
472,224,224764,1,0,0:0:0:0:
400,184,224945,1,4,0:0:0:0:
256,288,225673,37,0,0:0:0:0:
256,288,226036,1,2,0:0:0:0:
256,288,226400,2,0,B|200:224|200:224|96:224,1,160,6|8,0:0|0:0,0:0:0:0:
136,144,226945,1,0,0:0:0:0:
152,64,227127,2,0,B|192:64|192:64|216:32,1,80,2|0,0:0|0:0,0:0:0:0:
296,32,227491,2,0,B|320:64|320:64|360:64,1,80,8|0,0:0|0:0,0:0:0:0:
376,144,227855,2,0,B|336:144|336:144|296:176,1,80,2|0,0:0|0:0,0:0:0:0:
207,168,228218,2,0,B|176:144|176:144|136:144,1,80,8|0,0:0|0:0,0:0:0:0:
112,224,228582,1,2,0:0:0:0:
112,248,228673,1,0,0:0:0:0:
112,272,228764,1,0,0:0:0:0:
184,328,228945,2,0,B|256:296|256:296|336:328,1,160,8|2,0:0|0:0,0:0:0:0:
384,256,229491,6,0,B|352:232|352:232|352:176,1,80,0|8,0:0|0:0,0:0:0:0:
440,160,229855,2,0,B|440:112|440:112|400:88,1,80,0|2,0:0|0:0,0:0:0:0:
328,112,230218,1,0,0:0:0:0:
256,64,230400,1,8,0:0:0:0:
184,112,230582,1,0,0:0:0:0:
99,95,230764,2,0,B|64:72,4,40,2|0|0|0|8,0:0|0:0|0:0|0:0|0:0,0:0:0:0:
96,176,231309,6,0,B|96:216|96:216|136:256,1,80,0|2,0:0|0:0,0:0:0:0:
187,299,231673,2,0,B|216:328|216:328|216:368,1,80,0|8,0:0|0:0,0:0:0:0:
296,368,232036,2,0,B|296:328|296:328|324:299,1,80,0|2,0:0|0:0,0:0:0:0:
387,244,232400,2,0,B|416:216|416:216|416:176,1,80,0|8,0:0|0:0,0:0:0:0:
384,104,232764,1,0,0:0:0:0:
312,136,232945,5,2,0:0:0:0:
288,112,233036,1,0,0:0:0:0:
256,104,233127,1,0,0:0:0:0:
224,112,233218,1,0,0:0:0:0:
200,136,233309,1,8,0:0:0:0:
200,248,233673,5,2,0:0:0:0:
224,272,233764,1,0,0:0:0:0:
256,280,233855,1,0,0:0:0:0:
288,272,233946,1,0,0:0:0:0:
312,248,234037,1,8,0:0:0:0:
384,192,234218,2,0,B|432:192,2,40,0|0|2,0:0|0:0|0:0,0:0:0:0:
376,64,234764,1,8,0:0:0:0:
256,32,235127,6,0,B|216:32|216:32|184:72,1,80,2|0,0:0|0:0,0:0:0:0:
248,128,235491,2,0,B|223:159|223:159|183:159,1,80,8|0,0:0|0:0,0:0:0:0:
112,216,235855,2,0,B|136:248|136:248|176:248,1,80,2|0,0:0|0:0,0:0:0:0:
256,304,236218,2,0,B|232:336|232:336|192:336,1,80,8|0,0:0|0:0,0:0:0:0:
256,304,236582,2,0,B|280:336|280:336|320:336,1,80,2|0,0:0|0:0,0:0:0:0:
336,248,236945,2,0,B|376:248|376:248|400:216,1,80,8|0,0:0|0:0,0:0:0:0:
352,144,237309,2,0,B|352:104,8,40,2|0|2|0|2|0|2|0|4,0:0|0:0|0:0|0:0|0:0|0:0|0:0|0:0|0:0,0:0:0:0:
256,32,238400,6,0,B|184:96|256:176,1,160,8|0,0:0|0:0,0:0:0:0:
168,360,239127,2,0,B|216:352|216:304,1,80,8|0,0:0|0:0,0:0:0:0:
296,305,239491,2,0,B|296:352|344:360,1,80,0|0,0:0|0:0,0:0:0:0:
376,288,239855,2,0,B|376:241|328:233,1,80,8|0,0:0|0:0,0:0:0:0:
256,192,240218,1,0,0:0:0:0:
183,233,240400,2,0,B|135:241|136:288,1,80,0|8,0:0|0:0,0:0:0:0:
64,144,240945,6,0,B|168:152|184:56,1,160,0|8,0:0|0:0,0:0:0:0:
256,88,241491,2,0,B|296:64|336:88,1,80
376,160,241855,2,0,B|336:184|296:160,1,80,0|8,0:0|0:0,0:0:0:0:
256,376,242400,6,0,B|200:296|256:224,1,160,0|8,0:0|0:0,0:0:0:0:
184,176,242945,2,0,B|256:112|328:176,1,160
327,175,243491,1,0,0:0:0:0:
256,32,243855,1,0,0:0:0:0:
184,176,244218,6,0,B|192:264|104:320,1,160,8|0,0:0|0:0,0:0:0:0:
320,336,244945,2,0,B|280:336|256:376,1,80,8|0,0:0|0:0,0:0:0:0:
248,272,245309,2,0,B|288:272|312:232,1,80,0|0,0:0|0:0,0:0:0:0:
378,280,245673,1,8,0:0:0:0:
421,347,245855,1,0,0:0:0:0:
488,304,246036,1,0,0:0:0:0:
444,237,246218,1,0,0:0:0:0:
378,280,246400,1,8,0:0:0:0:
400,96,246764,6,0,B|312:96,1,80
112,288,247491,6,0,B|200:288,1,80
328,176,248036,6,0,B|256:120|176:176,1,160
216,240,248582,2,0,B|256:264|296:240,1,80
24,192,249491,5,0,0:0:0:0:
160,152,249855,2,0,B|160:240,2,80
256,48,250945,21,0,0:0:0:0:
296,120,251127,2,0,B|304:168|368:184,1,80
424,160,251491,2,0,B|416:112|352:96,1,80,8|0,0:0|0:0,0:0:0:0:
346,177,251855,1,0,0:0:0:0:
328,248,252036,1,0,0:0:0:0:
304,320,252218,2,0,B|232:376|152:320,1,160,8|0,0:0|0:0,0:0:0:0:
24,208,252945,2,0,B|96:152|176:208,1,160,8|0,0:0|0:0,0:0:0:0:
256,88,253673,1,10,0:0:0:0:
256,88,253855,1,0,0:0:0:0:
339,205,254218,6,0,B|376:176|416:208,1,80,0|8,0:0|0:0,0:0:0:0:
456,288,254582,2,0,B|419:317|382:287,1,80,0|0,0:0|0:0,0:0:0:0:
256,352,255127,1,8,0:0:0:0:
192,304,255309,2,0,B|152:328|112:304,1,80
152,232,255673,1,0,0:0:0:0:
72,192,255855,1,8,0:0:0:0:
104,112,256036,1,0,0:0:0:0:
184,144,256218,2,0,B|256:88|336:144,1,160,0|8,0:0|0:0,0:0:0:0:
408,112,256764,5,0,0:0:0:0:
440,192,256945,2,0,B|440:272,1,80,4|0,0:0|0:0,0:0:0:0:
360,328,257309,2,0,B|360:248,1,80,8|0,0:0|0:0,0:0:0:0:
280,280,257673,2,0,B|280:360,1,80,0|0,0:0|0:0,0:0:0:0:
200,328,258036,2,0,B|112:328|80:224,1,160,8|0,0:0|0:0,0:0:0:0:
200,56,258764,2,0,B|112:56|80:160,1,160,8|0,0:0|0:0,0:0:0:0:
256,192,259491,2,0,B|152:192,1,80,10|0,0:0|0:0,0:0:0:0:
432,64,260036,5,0,0:0:0:0:
392,136,260218,1,8,0:0:0:0:
448,192,260400,1,0,0:0:0:0:
392,248,260582,1,0,0:0:0:0:
432,320,260764,2,0,B|400:352|352:352,1,80,0|8,0:0|0:0,0:0:0:0:
224,320,261127,2,8,B|256:288|304:288,1,80,0|4,0:0|0:0,0:0:0:0:
256,112,261673,1,8,0:0:0:0:
216,288,262036,2,8,B|256:288|288:320,1,80,4|4,0:0|0:0,0:0:0:0:
304,232,262400,2,8,B|343:231|375:263,1,80,0|0,0:0|0:0,0:0:0:0:
424,176,262764,6,8,B|385:177|353:145,1,80,0|0,0:0|0:0,0:0:0:0:
296,80,263127,2,0,B|256:104|216:80,1,80,8|0,0:0|0:0,0:0:0:0:
159,145,263491,2,8,B|127:177|88:176,1,80,0|0,0:0|0:0,0:0:0:0:
152,248,263855,1,8,0:0:0:0:
360,248,264218,1,0,0:0:0:0:
173,332,264582,1,8,0:0:0:0:
320,184,264945,1,0,0:0:0:0:
256,352,265309,1,10,0:0:0:0:
256,352,265491,1,0,0:0:0:0:
192,184,265855,6,0,B|168:144|192:104,1,80,0|8,0:0|0:0,0:0:0:0:
264,48,266218,2,0,B|288:88|264:128,1,80,0|0,0:0|0:0,0:0:0:0:
320,256,266764,1,8,0:0:0:0:
392,296,266945,2,0,B|416:256|392:216,1,80
456,168,267309,2,0,B|464:216|512:216,1,80,0|8,0:0|0:0,0:0:0:0:
504,312,267673,2,0,B|457:311|449:359,1,80,0|0,0:0|0:0,0:0:0:0:
376,376,268036,1,0,0:0:0:0:
320,320,268218,2,0,B|296:360|256:360,1,80,8|0,0:0|0:0,0:0:0:0:
184,336,268582,6,0,B|152:304|184:264,1,80
256,232,268945,1,8,0:0:0:0:
320,180,269127,2,0,B|352:140|320:108,1,80,0|0,0:0|0:0,0:0:0:0:
248,84,269491,2,0,B|228:125|180:108,1,80,0|8,0:0|0:0,0:0:0:0:
124,276,270036,6,0,P|144:352|220:356,1,160,0|8,0:0|0:0,0:0:0:0:
388,276,270764,2,0,P|368:352|292:356,1,160,0|10,0:0|0:0,0:0:0:0:
256,288,271309,1,2,0:0:0:0:
408,192,271673,6,0,B|368:184|360:128,1,80,0|8,0:0|0:0,0:0:0:0:
320,64,272036,1,0,0:0:0:0:
256,120,272218,1,0,0:0:0:0:
192,64,272400,1,0,0:0:0:0:
151,133,272582,2,0,B|144:184|104:192,1,80,8|0,0:0|0:0,0:0:0:0:
136,264,272945,2,0,B|184:280|192:328,1,80
256,280,273309,1,8,0:0:0:0:
322,318,273491,2,0,B|328:280|376:264,1,80
440,304,273855,1,0,0:0:0:0:
440,304,274218,1,4,0:0:0:0:
256,192,274400,12,4,275855,0:0:0:0:
