osu file format v12

[General]
AudioFilename: PV (1).mp3
AudioLeadIn: 0
PreviewTime: 226428
Countdown: 0
SampleSet: Soft
StackLeniency: 0.2
Mode: 0
LetterboxInBreaks: 0

[Editor]
Bookmarks: 38764,197127
DistanceSpacing: 0.8
BeatDivisor: 4
GridSize: 8

[Metadata]
Title:Remote Control
TitleUnicode:リモコン
Artist:JesusP
ArtistUnicode:じーざすP
Creator:SkyDevil
Version:Control
Source:
Tags:vocaloid jiizasu jesus winber1 bestz2541 vacalia mkstar26 ayu leyko byakugan249 thenutritiousguy stefan kuma-san mystykamv mapper 31 Kagamine Rin Len teru21 betsuto
BeatmapID:179987
BeatmapSetID:44080

[Difficulty]
HPDrainRate:5
CircleSize:3
OverallDifficulty:8
ApproachRate:8
SliderMultiplier:1.8
SliderTickRate:2

[Events]
//Background and Video events
0,0,"remote_control_bg.jpg",0,0
Video,0,"Video.avi"
//Break Periods
2,44782,49650
2,108599,112195
2,120418,125286
2,184236,195105
//Storyboard Layer 0 (Background)
//Storyboard Layer 1 (Fail)
//Storyboard Layer 2 (Pass)
//Storyboard Layer 3 (Foreground)
//Storyboard Sound Samples
//Background Colour Transformations
3,100,255,255,128

[TimingPoints]
3855,363.636363636364,4,2,1,70,1,0
15491,-200,4,1,0,70,0,0
15582,-200,4,1,0,30,0,0
16036,-200,4,1,0,70,0,0
16582,-200,4,1,0,30,0,0
16945,-200,4,1,0,70,0,0
17036,-200,4,1,0,30,0,0
17491,-200,4,1,0,70,0,0
18764,-200,4,1,0,30,0,0
18945,-200,4,1,0,70,0,0
20218,-200,4,1,0,30,0,0
20792,-200,4,1,0,70,0,0
21673,-200,4,1,0,30,0,0
21855,-200,4,1,0,70,0,0
22582,-200,4,1,0,30,0,0
22764,-200,4,1,0,70,0,0
22945,-200,4,1,0,30,0,0
23309,-200,4,1,0,70,0,0
24582,-200,4,1,0,30,0,0
24764,-200,4,1,0,70,0,0
25855,-200,4,1,0,30,0,0
26400,-200,4,1,0,70,0,0
26582,-200,4,1,0,30,0,0
26764,-200,4,1,0,70,0,0
26945,-200,4,1,0,30,0,0
27127,-200,4,1,0,70,0,0
27855,-100,4,1,0,70,0,0
28582,-200,4,1,0,70,0,0
29309,-100,4,1,0,70,0,0
30036,-200,4,1,0,70,0,0
30764,-100,4,1,0,70,0,0
31491,-200,4,1,0,70,0,0
32218,-100,4,1,0,70,0,0
50400,-100,4,2,1,70,0,0
61491,-100,4,1,0,50,0,0
61673,-100,4,1,0,60,0,0
61855,-100,4,1,0,70,0,0
73673,-100,4,2,1,70,0,0
78764,-100,4,1,0,80,0,0
79127,-100,4,1,0,90,0,0
79491,-100,4,1,0,100,0,0
79855,-100,4,2,1,70,0,0
82400,-100,4,1,0,70,0,0
85309,-100,4,1,0,70,0,1
96764,-100,4,1,0,70,0,0
96945,-100,4,1,0,70,0,1
108036,-200,4,1,0,70,0,1
108582,-100,4,1,0,70,0,0
126036,-100,4,2,1,70,0,0
137127,-100,4,1,0,70,0,0
149309,-100,4,2,1,70,0,0
154400,-100,4,1,0,80,0,0
154764,-100,4,1,0,90,0,0
155127,-100,4,1,0,100,0,0
155491,-100,4,2,1,70,0,0
158036,-100,4,1,0,70,0,0
160945,-100,4,1,0,70,0,1
172400,-100,4,1,0,70,0,0
172582,-100,4,1,0,70,0,1
184218,-100,4,1,0,70,0,0
225673,-66.6666666666667,4,1,0,70,0,0
226400,-100,4,1,0,70,0,1
238036,-100,4,2,1,70,0,0
243127,-100,4,1,0,80,0,0
243173,-100,4,2,1,70,0,0
243491,-100,4,1,0,90,0,0
243536,-100,4,2,1,70,0,0
243855,-100,4,1,0,100,0,0
243900,-100,4,2,1,70,0,0
244218,-100,4,2,1,70,0,0
246764,-100,4,1,0,70,0,0
250945,-100,4,1,0,70,0,1
262582,-100,4,1,0,70,0,0
262764,-100,4,1,0,70,0,1
275855,-100,4,1,0,70,0,0

[Colours]
Combo1 : 49,49,49
Combo2 : 255,255,13
Combo3 : 255,255,168
Combo4 : 230,219,15

[HitObjects]
56,32,15491,6,0,B|32:72|32:128,1,90
32,176,16036,1,0,0:0:0:0:
32,176,16582,1,0,0:0:0:0:
40,240,16764,1,0,0:0:0:0:
80,288,16945,2,0,B|112:320|176:320,1,90
162,319,17491,1,0,0:0:0:0:
162,319,18400,6,0,B|208:336|256:320,1,90
250,321,18945,1,0,0:0:0:0:
250,321,19855,1,0,0:0:0:0:
328,304,20218,1,0,0:0:0:0:
392,264,20582,1,0,0:0:0:0:
432,200,20945,1,0,0:0:0:0:
440,128,21309,6,0,B|424:88|376:56,1,90
382,60,21855,1,0,0:0:0:0:
382,60,22400,1,0,0:0:0:0:
304,40,22582,1,0,0:0:0:0:
224,48,22764,2,0,B|176:56|136:80,1,90
139,77,23309,1,0,0:0:0:0:
139,77,24218,6,0,B|112:112|96:168,1,90
99,157,24764,1,0,0:0:0:0:
99,157,25673,1,0,0:0:0:0:
108,236,25855,1,0,0:0:0:0:
176,192,26036,1,0,0:0:0:0:
192,264,26218,1,0,0:0:0:0:
256,216,26400,1,0,0:0:0:0:
264,296,26582,1,0,0:0:0:0:
336,248,26764,1,0,0:0:0:0:
344,328,26945,1,0,0:0:0:0:
416,280,27127,6,0,B|464:200|424:136,1,135
400,112,27764,1,0,0:0:0:0:
360,80,27855,6,0,B|312:48|272:80,1,90,8|0,0:0|0:0,0:0:0:0:
256,192,28400,5,0,0:0:0:0:
200,176,28491,1,0,0:0:0:0:
144,184,28582,2,0,B|88:232|88:320,1,135
120,352,29218,1,0,0:0:0:0:
176,336,29309,6,0,B|216:312|264:336,3,90,8|0|0|0,0:0|0:0|0:0|0:0,0:0:0:0:
320,352,29945,1,0,0:0:0:0:
376,344,30036,6,0,B|416:288|416:208,1,135
400,160,30673,1,0,0:0:0:0:
352,120,30764,6,0,B|312:96|264:120,1,90,8|0,0:0|0:0,0:0:0:0:
112,80,31127,1,0,0:0:0:0:
104,128,31218,1,0,0:0:0:0:
88,176,31309,1,0,0:0:0:0:
56,216,31400,1,0,0:0:0:0:
16,248,31491,6,0,B|24:320|96:360,1,135
144,368,32127,1,0,0:0:0:0:
200,360,32218,6,0,B|240:336|256:280,1,90,8|0,0:0|0:0,0:0:0:0:
320,232,32582,1,0,0:0:0:0:
352,152,32764,1,0,0:0:0:0:
336,72,32945,6,0,B|408:16|504:16,1,180,0|8,0:0|0:0,0:0:0:0:
176,72,33673,2,0,B|104:16|8:16,1,180,0|8,0:0|0:0,0:0:0:0:
392,160,34400,1,0,0:0:0:0:
168,320,34764,1,8,0:0:0:0:
256,40,35127,1,0,0:0:0:0:
344,320,35491,1,8,0:0:0:0:
120,160,35855,2,0,B|40:200|8:312,2,180,0|8|0,0:0|0:0|0:0,0:0:0:0:
256,192,37309,12,0,38764,0:0:0:0:
256,32,38945,6,0,B|232:64|184:88,1,90,8|0,0:0|0:0,0:0:0:0:
256,32,39309,2,0,B|280:64|328:88,1,90,8|0,0:0|0:0,0:0:0:0:
408,144,39673,2,0,B|368:176|344:248,1,90,8|0,0:0|0:0,0:0:0:0:
256,256,40036,1,8,0:0:0:0:
155,216,40218,2,0,B|144:176|104:144,1,90,0|8,0:0|0:0,0:0:0:0:
80,280,40582,2,0,B|91:320|131:352,1,90,0|8,0:0|0:0,0:0:0:0:
380,352,40945,2,0,B|420:320|432:280,1,90,0|8,0:0|0:0,0:0:0:0:
480,192,41309,1,0,0:0:0:0:
432,104,41491,1,8,0:0:0:0:
80,104,41855,5,8,0:0:0:0:
256,344,42218,1,8,0:0:0:0:
312,272,42400,2,0,B|336:232|384:216,1,90,0|8,0:0|0:0,0:0:0:0:
200,272,42764,2,0,B|176:232|128:216,1,90,0|8,0:0|0:0,0:0:0:0:
256,192,43127,1,0,0:0:0:0:
344,128,43309,2,0,B|304:104|296:40,2,90,8|0|8,0:0|0:0|0:0,0:0:0:0:
168,128,43855,2,0,B|208:104|216:40,2,90,0|8|0,0:0|0:0|0:0,0:0:0:0:
256,344,44582,1,4,0:0:0:0:
256,40,50400,21,4,0:0:0:0:
208,112,50582,2,0,B|192:152|144:176,1,90,0|8,0:0|0:0,0:0:0:0:
304,112,50945,2,0,B|320:152|368:176,1,90,0|0,0:0|0:0,0:0:0:0:
448,232,51309,1,0,0:0:0:0:
368,304,51491,1,8,0:0:0:0:
256,336,51673,1,0,0:0:0:0:
144,304,51855,1,0,0:0:0:0:
64,232,52036,2,0,B|40:184|72:128,2,90,0|8|0,0:0|0:0|0:0,0:0:0:0:
256,248,52764,5,0,0:0:0:0:
304,176,52945,1,8,0:0:0:0:
208,176,53127,1,0,0:0:0:0:
256,104,53309,2,0,B|344:80|448:80,1,180,0|8,0:0|0:0,0:0:0:0:
480,160,53855,1,0,0:0:0:0:
480,256,54036,2,0,B|416:336|320:368,1,180,0|8,0:0|0:0,0:0:0:0:
256,248,54582,1,0,0:0:0:0:
176,360,54764,2,0,B|129:350|81:310,1,90,0|2,0:0|0:0,0:0:0:0:
8,184,55309,1,2,0:0:0:0:
160,104,55673,1,2,0:0:0:0:
256,248,56036,1,2,0:0:0:0:
256,248,56127,1,2,0:0:0:0:
256,248,56218,5,4,0:0:0:0:
384,224,56400,1,0,0:0:0:0:
480,136,56582,2,0,B|472:88|424:40,1,90,8|0,0:0|0:0,0:0:0:0:
304,32,56945,2,0,B|312:80|360:128,1,90,0|0,0:0|0:0,0:0:0:0:
168,112,57309,2,0,B|200:80|208:32,1,90,8|0,0:0|0:0,0:0:0:0:
72,56,57673,2,0,B|40:88|32:136,1,90
256,192,58218,1,0,0:0:0:0:
256,344,58582,21,0,0:0:0:0:
192,272,58764,2,0,B|176:224|120:208,1,90,8|0,0:0|0:0,0:0:0:0:
320,272,59127,2,0,B|376:192|496:184,1,180,0|8,0:0|0:0,0:0:0:0:
416,96,59673,1,0,0:0:0:0:
344,24,59855,2,0,B|256:64|160:24,1,180,0|8,0:0|0:0,0:0:0:0:
96,96,60400,1,0,0:0:0:0:
32,184,60582,2,0,B|72:200|112:248,1,90
408,237,60945,2,0,B|440:200|480:184,1,90,8|0,0:0|0:0,0:0:0:0:
256,336,61491,5,0,0:0:0:0:
208,264,61673,1,0,0:0:0:0:
304,264,61855,1,0,0:0:0:0:
256,192,62036,2,0,B|296:112|400:72,1,180,6|8,0:0|0:0,0:0:0:0:
256,192,62764,2,0,B|216:112|112:72,1,180,2|8,0:0|0:0,0:0:0:0:
56,144,63309,1,0,0:0:0:0:
32,240,63491,2,0,B|80:272|96:336,1,90,2|0,0:0|0:0,0:0:0:0:
160,352,63855,2,0,B|176:312|224:272,1,90,8|0,0:0|0:0,0:0:0:0:
298,280,64218,2,0,B|336:312|352:352,1,90,2|0,0:0|0:0,0:0:0:0:
424,309,64582,2,0,B|432:272|480:240,1,90,8|0,0:0|0:0,0:0:0:0:
480,160,64945,21,2,0:0:0:0:
424,88,65127,1,0,0:0:0:0:
344,48,65309,2,0,B|256:96|168:48,1,180,8|2,0:0|0:0,0:0:0:0:
144,144,65855,2,0,B|192:168|216:216,1,90,0|8,0:0|0:0,0:0:0:0:
304,200,66218,2,0,B|321:163|369:139,1,90,0|2,0:0|0:0,0:0:0:0:
456,160,66582,1,0,0:0:0:0:
336,336,67127,1,2,0:0:0:0:
256,360,67309,1,0,0:0:0:0:
176,336,67491,1,8,0:0:0:0:
64,192,67855,6,0,B|112:112|200:72,1,180,6|8,0:0|0:0,0:0:0:0:
448,192,68582,2,0,B|400:112|312:72,1,180,2|8,0:0|0:0,0:0:0:0:
256,168,69127,1,0,0:0:0:0:
144,216,69309,2,0,B|160:256|208:280,1,90,2|0,0:0|0:0,0:0:0:0:
306,278,69673,2,0,B|352:256|368:216,1,90,8|0,0:0|0:0,0:0:0:0:
344,352,70036,2,0,B|256:384|168:352,1,180,2|8,0:0|0:0,0:0:0:0:
112,112,70764,2,0,B|152:72|216:64,1,90,2|0,0:0|0:0,0:0:0:0:
322,68,71127,2,0,B|360:72|400:112,1,90,8|0,0:0|0:0,0:0:0:0:
256,184,71491,2,0,B|208:272|304:272|256:368,1,180,2|8,0:0|0:0,0:0:0:0:
208,352,71945,1,0,0:0:0:0:
152,328,72036,1,0,0:0:0:0:
112,288,72127,1,0,0:0:0:0:
96,232,72218,6,0,B|104:184|144:152,1,90,2|0,0:0|0:0,0:0:0:0:
372,155,72582,2,0,B|408:184|416:232,1,90,8|0,0:0|0:0,0:0:0:0:
344,48,72945,2,0,B|256:80|168:48,1,180,2|8,0:0|0:0,0:0:0:0:
72,80,73491,1,0,0:0:0:0:
16,160,73673,2,0,B|96:208|120:312,1,180,4|8,0:0|0:0,0:0:0:0:
394,302,74400,2,8,B|416:208|496:160,1,180,0|8,0:0|0:0,0:0:0:0:
464,72,74945,2,0,B|416:80|368:16,1,90
296,120,75309,2,0,B|344:112|392:176,1,90,0|8,0:0|0:0,0:0:0:0:
216,120,75673,2,0,B|168:112|120:176,1,90,0|0,0:0|0:0,0:0:0:0:
48,72,76036,2,0,B|96:80|126:36,2,90,0|8|0,0:0|0:0|0:0,0:0:0:0:
16,160,76582,6,0,B|16:256|72:336,1,180,0|8,0:0|0:0,0:0:0:0:
168,312,77127,2,0,B|256:264|344:312,1,180
444,329,77673,2,0,B|496:256|496:160,1,180,8|0,0:0|0:0,0:0:0:0:
256,40,78400,1,8,0:0:0:0:
152,352,78764,1,0,0:0:0:0:
408,184,79127,1,0,0:0:0:0:
104,184,79491,1,0,0:0:0:0:
360,352,79855,6,0,B|392:264|496:232,1,180,8|0,0:0|0:0,0:0:0:0:
152,352,80582,2,0,B|136:304|64:264,1,90,8|0,0:0|0:0,0:0:0:0:
160,184,80945,2,0,B|176:232|248:272,1,90,0|0,0:0|0:0,0:0:0:0:
48,192,81309,1,8,0:0:0:0:
80,104,81491,1,0,0:0:0:0:
168,72,81673,2,0,B|256:32|344:72,1,180,0|8,0:0|0:0,0:0:0:0:
410,234,82400,5,0,0:0:0:0:
352,312,82582,1,0,0:0:0:0:
186,299,83127,5,0,0:0:0:0:
328,112,83309,1,0,0:0:0:0:
496,336,83673,5,0,0:0:0:0:
192,56,84036,5,0,0:0:0:0:
86,197,84218,1,0,0:0:0:0:
192,56,84400,1,0,0:0:0:0:
256,344,85127,5,0,0:0:0:0:
296,272,85309,2,0,B|312:224|352:200,1,90
216,272,85673,2,0,B|200:224|160:200,1,90,8|0,0:0|0:0,0:0:0:0:
256,160,86036,1,0,0:0:0:0:
312,72,86218,1,0,0:0:0:0:
200,72,86400,2,0,B|112:40|16:72,1,180,8|0,0:0|0:0,0:0:0:0:
312,72,87127,2,0,B|400:40|496:72,1,180,8|0,0:0|0:0,0:0:0:0:
256,160,87854,1,10,0:0:0:0:
256,160,88036,1,0,0:0:0:0:
193,289,88400,6,0,B|240:312|256:352,1,90,0|8,0:0|0:0,0:0:0:0:
318,289,88764,2,0,B|272:312|256:352,1,90
104,168,89309,1,8,0:0:0:0:
136,88,89491,2,0,B|168:48|216:40,1,90
376,88,89855,2,0,B|344:48|301:41,1,90,0|8,0:0|0:0,0:0:0:0:
256,120,90218,1,0,0:0:0:0:
216,192,90400,2,0,B|256:216|304:192,2,90,0|0|8,0:0|0:0|0:0,0:0:0:0:
144,248,90945,5,0,0:0:0:0:
72,304,91127,2,0,B|104:336|152:352,1,90,4|0,0:0|0:0,0:0:0:0:
256,320,91491,1,8,0:0:0:0:
363,350,91673,2,0,B|408:336|440:304,1,90
472,216,92036,1,0,0:0:0:0:
480,128,92218,2,0,B|400:80|304:72,1,180,8|0,0:0|0:0,0:0:0:0:
32,128,92945,2,0,B|111:80|207:72,1,180,8|0,0:0|0:0,0:0:0:0:
208,344,93673,1,10,0:0:0:0:
304,344,93855,1,0,0:0:0:0:
256,32,94218,5,0,0:0:0:0:
200,96,94400,2,0,B|160:120|152:168,1,90,8|0,0:0|0:0,0:0:0:0:
312,96,94764,2,0,B|352:120|360:168,1,90
256,192,95127,1,8,0:0:0:0:
256,192,95309,1,0,0:0:0:0:
208,272,95491,2,0,B|112:256|48:160,1,180,4|12,0:0|0:0,0:0:0:0:
304,272,96218,2,0,B|400:256|464:160,1,180,4|12,0:0|0:0,0:0:0:0:
496,272,96764,5,0,0:0:0:0:
424,336,96945,2,0,B|384:360|328:360,1,90,4|0,0:0|0:0,0:0:0:0:
256,320,97309,1,8,0:0:0:0:
88,336,97491,2,0,B|128:360|184:360,1,90
256,320,97855,1,0,0:0:0:0:
328,264,98036,2,0,B|392:184|384:88,1,180,8|0,0:0|0:0,0:0:0:0:
184,264,98764,2,0,B|120:184|128:88,1,180,8|0,0:0|0:0,0:0:0:0:
256,152,99491,1,10,0:0:0:0:
256,152,99673,1,0,0:0:0:0:
256,352,100036,6,0,B|296:328|320:288,1,90,0|8,0:0|0:0,0:0:0:0:
256,352,100400,2,0,B|216:328|192:288,1,90
80,144,100945,1,8,0:0:0:0:
136,72,101127,2,0,B|176:40|224:32,1,90
376,72,101491,2,0,B|336:40|288:32,1,90,0|8,0:0|0:0,0:0:0:0:
256,112,101855,1,0,0:0:0:0:
304,192,102036,2,0,B|336:224|336:288,1,90,0|0,0:0|0:0,0:0:0:0:
208,192,102400,2,0,B|176:224|176:288,1,90,8|0,0:0|0:0,0:0:0:0:
256,304,102764,5,0,0:0:0:0:
184,360,102945,2,0,B|88:336|40:256,1,180
104,192,103491,1,0,0:0:0:0:
40,128,103673,2,0,B|63:88|112:64,1,90,0|8,0:0|0:0,0:0:0:0:
256,112,104218,1,0,0:0:0:0:
406,67,104582,1,8,0:0:0:0:
256,112,104945,1,0,0:0:0:0:
105,67,105309,1,10,0:0:0:0:
105,67,105491,1,0,0:0:0:0:
256,192,105855,5,0,0:0:0:0:
216,264,106036,2,0,B|200:304|152:336,1,90,8|0,0:0|0:0,0:0:0:0:
296,264,106400,2,0,B|312:304|360:336,1,90,0|0,0:0|0:0,0:0:0:0:
384,192,106764,2,0,B|368:152|320:120,1,90,8|0,0:0|0:0,0:0:0:0:
128,192,107127,2,0,B|144:152|192:120,1,90,0|0,0:0|0:0,0:0:0:0:
408,80,107491,2,0,B|379:47|323:34,1,90,8|0,0:0|0:0,0:0:0:0:
104,80,107855,1,0,0:0:0:0:
104,80,108036,6,0,B|132:47|188:34,1,90,0|4,0:0|0:0,0:0:0:0:
256,40,112945,53,0,0:0:0:0:
256,344,113491,1,0,0:0:0:0:
168,192,113855,1,0,0:0:0:0:
256,120,114036,1,0,0:0:0:0:
256,264,114218,1,0,0:0:0:0:
344,192,114400,6,0,B|384:216|400:264,1,90,4|8,0:0|0:0,0:0:0:0:
168,192,114764,2,0,B|128:216|112:264,1,90,0|8,0:0|0:0,0:0:0:0:
172,72,115127,2,0,B|256:16|340:72,1,180,0|0,0:0|0:0,0:0:0:0:
384,104,115582,1,0,0:0:0:0:
416,144,115673,1,8,0:0:0:0:
440,192,115764,1,0,0:0:0:0:
448,240,115855,2,0,B|440:288|392:324,1,90,0|8,0:0|0:0,0:0:0:0:
256,344,116218,1,0,0:0:0:0:
109,315,116400,2,0,B|72:288|64:240,1,90,8|0,0:0|0:0,0:0:0:0:
112,112,116764,5,8,0:0:0:0:
256,40,116945,2,0,B|256:128,1,90,0|8,0:0|0:0,0:0:0:0:
456,336,117491,1,8,0:0:0:0:
56,336,117855,1,8,0:0:0:0:
60,236,118036,2,0,B|76:192|120:168,1,90,0|8,0:0|0:0,0:0:0:0:
204,240,118400,1,0,0:0:0:0:
256,256,118491,1,0,0:0:0:0:
308,240,118582,1,8,0:0:0:0:
452,236,118764,6,0,B|436:192|392:168,1,90,0|8,0:0|0:0,0:0:0:0:
360,76,119127,2,0,B|316:96|296:148,1,90,0|8,0:0|0:0,0:0:0:0:
152,76,119491,2,0,B|196:96|216:148,1,90,0|8,0:0|0:0,0:0:0:0:
256,216,119855,1,0,0:0:0:0:
256,40,120218,1,4,0:0:0:0:
256,32,126036,21,4,0:0:0:0:
216,104,126218,2,0,B|200:152|160:176,1,90,0|8,0:0|0:0,0:0:0:0:
296,104,126582,2,0,B|312:152|352:176,1,90,0|0,0:0|0:0,0:0:0:0:
256,216,126945,1,0,0:0:0:0:
360,256,127127,2,0,B|344:304|288:312,1,90,8|0,0:0|0:0,0:0:0:0:
152,256,127491,2,0,B|168:304|224:312,1,90
256,32,128036,1,0,0:0:0:0:
256,352,128400,6,0,B|256:264,2,90,0|8|0,0:0|0:0|0:0,0:0:0:0:
376,272,128945,2,0,B|376:176|312:96,1,180,0|8,0:0|0:0,0:0:0:0:
256,32,129491,1,0,0:0:0:0:
193,104,129673,2,0,B|136:176|136:272,1,180,0|8,0:0|0:0,0:0:0:0:
256,176,130218,1,0,0:0:0:0:
256,262,130400,2,0,B|256:352,1,90,0|2,0:0|0:0,0:0:0:0:
424,192,130945,1,2,0:0:0:0:
256,32,131309,1,2,0:0:0:0:
88,192,131673,1,2,0:0:0:0:
96,248,131764,1,2,0:0:0:0:
128,296,131855,1,4,0:0:0:0:
256,352,132036,5,0,0:0:0:0:
296,272,132218,2,0,B|312:232|360:192,1,90,8|0,0:0|0:0,0:0:0:0:
216,272,132582,2,0,B|200:232|152:192,1,90,0|0,0:0|0:0,0:0:0:0:
96,112,132945,2,0,B|128:80|176:64,1,90,8|0,0:0|0:0,0:0:0:0:
416,112,133309,2,0,B|384:80|336:64,1,90,0|0,0:0|0:0,0:0:0:0:
256,336,133855,1,0,0:0:0:0:
96,112,134218,2,0,B|128:80|176:64,1,90,0|8,0:0|0:0,0:0:0:0:
256,120,134582,21,0,0:0:0:0:
208,200,134764,2,0,B|176:288|112:352,1,180,0|8,0:0|0:0,0:0:0:0:
256,336,135309,1,0,0:0:0:0:
400,352,135491,2,0,B|336:288|304:200,1,180,0|8,0:0|0:0,0:0:0:0:
256,120,136036,1,0,0:0:0:0:
152,96,136218,2,0,B|176:56|216:32,1,90
296,32,136582,2,0,B|336:56|360:96,1,90,8|0,0:0|0:0,0:0:0:0:
256,272,137127,5,0,0:0:0:0:
328,192,137309,1,0,0:0:0:0:
256,112,137491,1,0,0:0:0:0:
184,192,137673,2,0,B|112:248|80:336,1,180,6|8,0:0|0:0,0:0:0:0:
328,192,138400,2,0,B|400:248|432:336,1,180,2|8,0:0|0:0,0:0:0:0:
344,368,138945,1,0,0:0:0:0:
296,288,139127,2,0,B|256:264|208:288,1,90,2|0,0:0|0:0,0:0:0:0:
168,368,139491,1,8,0:0:0:0:
88,312,139673,1,0,0:0:0:0:
56,224,139855,6,0,B|80:120|160:64,1,180,2|8,0:0|0:0,0:0:0:0:
364,73,140582,2,0,B|432:120|456:224,1,180,2|8,0:0|0:0,0:0:0:0:
256,352,141309,1,2,0:0:0:0:
208,272,141491,2,0,B|192:232|152:200,1,90,0|8,0:0|0:0,0:0:0:0:
304,272,141855,2,0,B|320:232|360:200,1,90,0|2,0:0|0:0,0:0:0:0:
256,192,142218,2,0,B|256:104,1,90,0|8,0:0|0:0,0:0:0:0:
96,56,142764,5,2,0:0:0:0:
48,248,143127,1,8,0:0:0:0:
256,352,143491,2,0,B|352:336|392:224,1,180,6|8,0:0|0:0,0:0:0:0:
256,352,144218,2,0,B|160:336|120:224,1,180,2|8,0:0|0:0,0:0:0:0:
256,192,144764,1,0,0:0:0:0:
360,136,144945,2,0,B|344:96|296:72,1,90,2|0,0:0|0:0,0:0:0:0:
152,136,145309,2,0,B|168:96|216:72,1,90,8|0,0:0|0:0,0:0:0:0:
256,192,145673,2,0,B|208:280|304:280|256:368,1,180,2|8,0:0|0:0,0:0:0:0:
24,200,146400,6,0,B|40:248|80:280,1,90,2|0,0:0|0:0,0:0:0:0:
208,312,146764,2,0,B|192:264|152:232,1,90,8|0,0:0|0:0,0:0:0:0:
304,312,147127,2,0,B|328:224|448:176,1,180,2|8,0:0|0:0,0:0:0:0:
256,32,147855,6,0,B|216:56|192:112,1,90,2|0,0:0|0:0,0:0:0:0:
256,32,148218,2,0,B|296:56|320:112,1,90,8|0,0:0|0:0,0:0:0:0:
168,184,148582,2,0,B|256:232|352:176,1,180,2|8,0:0|0:0,0:0:0:0:
416,136,149127,1,8,0:0:0:0:
416,136,149218,1,8,0:0:0:0:
416,136,149309,2,0,B|480:208|488:320,1,180,4|8,0:0|0:0,0:0:0:0:
400,352,149855,2,0,B|368:312|328:296,1,90
256,32,150400,6,0,B|208:56|168:120,1,90,8|0,0:0|0:0,0:0:0:0:
256,32,150764,2,0,B|304:56|344:120,1,90
136,160,151127,2,0,B|176:200|232:208,1,90,8|0,0:0|0:0,0:0:0:0:
376,160,151491,2,0,B|336:200|280:208,1,90
208,280,151855,2,0,B|256:296|296:280,1,90,8|0,0:0|0:0,0:0:0:0:
448,264,152218,2,0,B|376:352|288:368,1,180,0|8,0:0|0:0,0:0:0:0:
209,364,152764,2,0,B|136:352|64:264,1,180,0|0,0:0|0:0,0:0:0:0:
40,176,153309,1,8,0:0:0:0:
256,32,153673,6,0,B|176:80|144:192,1,180,0|8,0:0|0:0,0:0:0:0:
256,32,154218,2,0,B|336:80|368:192,1,180,0|0,0:0|0:0,0:0:0:0:
361,172,154764,1,0,0:0:0:0:
256,344,155127,1,0,0:0:0:0:
150,172,155491,6,0,B|72:240|48:344,1,180,8|0,0:0|0:0,0:0:0:0:
256,344,156218,2,0,B|296:312|336:304,1,90,8|0,0:0|0:0,0:0:0:0:
448,328,156582,2,0,B|472:288|472:216,1,90
448,56,156945,2,0,B|472:96|471:142,1,90,8|0,0:0|0:0,0:0:0:0:
336,80,157309,2,0,B|248:112|160:80,1,180,0|8,0:0|0:0,0:0:0:0:
48,336,158036,5,0,0:0:0:0:
48,336,158218,1,0,0:0:0:0:
464,48,158764,5,0,0:0:0:0:
464,48,158946,1,0,0:0:0:0:
256,344,159309,5,0,0:0:0:0:
256,40,159673,1,0,0:0:0:0:
152,184,159855,1,0,0:0:0:0:
360,184,160036,1,0,0:0:0:0:
256,40,160764,5,0,0:0:0:0:
216,112,160946,2,0,B|200:160|160:184,1,90
296,112,161310,2,0,B|312:160|352:184,1,90,8|0,0:0|0:0,0:0:0:0:
256,224,161673,1,0,0:0:0:0:
200,312,161855,1,0,0:0:0:0:
312,312,162037,2,0,B|400:344|496:312,1,180,8|0,0:0|0:0,0:0:0:0:
200,312,162764,2,0,B|112:344|16:312,1,180,8|0,0:0|0:0,0:0:0:0:
256,224,163491,1,10,0:0:0:0:
256,224,163673,1,0,0:0:0:0:
256,32,164037,6,0,B|272:72|336:104,1,90,0|8,0:0|0:0,0:0:0:0:
256,32,164401,2,0,B|240:72|176:104,1,90
408,216,164946,1,8,0:0:0:0:
376,296,165128,2,0,B|344:336|296:344,1,90
136,296,165492,2,0,B|168:336|211:343,1,90,0|8,0:0|0:0,0:0:0:0:
256,264,165855,1,0,0:0:0:0:
296,192,166037,2,0,B|256:168|208:192,2,90,0|0|8,0:0|0:0|0:0,0:0:0:0:
368,136,166582,5,0,0:0:0:0:
440,80,166764,2,0,B|408:48|360:32,1,90
256,64,167128,1,8,0:0:0:0:
149,34,167310,2,0,B|104:48|72:80,1,90
40,168,167673,1,0,0:0:0:0:
32,256,167855,2,0,B|112:304|208:312,1,180,8|0,0:0|0:0,0:0:0:0:
480,256,168582,2,0,B|401:304|305:312,1,180,8|0,0:0|0:0,0:0:0:0:
256,40,169310,1,10,0:0:0:0:
256,40,169492,1,0,0:0:0:0:
256,352,169855,5,0,0:0:0:0:
312,288,170037,2,0,B|344:256|360:208,1,90,8|0,0:0|0:0,0:0:0:0:
200,288,170400,2,0,B|168:256|152:208,1,90,0|0,0:0|0:0,0:0:0:0:
256,192,170764,1,8,0:0:0:0:
256,192,170946,1,0,0:0:0:0:
304,112,171128,2,0,B|400:128|464:224,1,180,4|12,0:0|0:0,0:0:0:0:
208,112,171855,2,0,B|112:128|48:224,1,180,4|12,0:0|0:0,0:0:0:0:
16,112,172401,5,0,0:0:0:0:
88,48,172582,2,0,B|128:24|184:24,1,90
256,64,172946,1,8,0:0:0:0:
424,48,173128,2,0,B|384:24|328:24,1,90
256,64,173492,1,0,0:0:0:0:
184,120,173673,2,0,B|120:200|128:296,1,180,8|0,0:0|0:0,0:0:0:0:
328,120,174401,2,0,B|392:200|384:296,1,180,8|0,0:0|0:0,0:0:0:0:
256,232,175128,1,10,0:0:0:0:
256,232,175310,1,0,0:0:0:0:
256,32,175673,6,0,B|216:56|192:96,1,90,0|8,0:0|0:0,0:0:0:0:
256,32,176037,2,0,B|296:56|320:96,1,90
432,240,176582,1,8,0:0:0:0:
376,312,176764,2,0,B|336:344|288:352,1,90
136,312,177128,2,0,B|176:344|224:352,1,90,0|8,0:0|0:0,0:0:0:0:
256,272,177492,1,0,0:0:0:0:
208,192,177673,2,0,B|176:160|176:96,1,90,0|0,0:0|0:0,0:0:0:0:
304,192,178037,2,0,B|336:160|336:96,1,90,8|0,0:0|0:0,0:0:0:0:
256,80,178401,5,0,0:0:0:0:
328,24,178582,2,0,B|424:48|472:128,1,180
408,192,179128,1,0,0:0:0:0:
472,256,179310,2,0,B|449:296|400:320,1,90,0|8,0:0|0:0,0:0:0:0:
41,258,179855,2,0,B|88:336|184:360,2,180,0|8|0,0:0|0:0|0:0,0:0:0:0:
96,104,180946,1,10,0:0:0:0:
96,104,181127,1,0,0:0:0:0:
256,192,181492,5,0,0:0:0:0:
296,120,181673,2,0,B|312:80|360:48,1,90,8|0,0:0|0:0,0:0:0:0:
216,120,182037,2,0,B|200:80|152:48,1,90,0|0,0:0|0:0,0:0:0:0:
128,192,182401,2,0,B|144:232|192:264,1,90,8|0,0:0|0:0,0:0:0:0:
384,192,182764,2,0,B|368:232|320:264,1,90,0|0,0:0|0:0,0:0:0:0:
104,304,183128,2,0,B|133:337|189:350,1,90,8|0,0:0|0:0,0:0:0:0:
408,304,183491,2,0,B|380:337|324:350,1,90,0|0,0:0|0:0,0:0:0:0:
256,32,184036,1,4,0:0:0:0:
256,44,195855,5,4,0:0:0:0:
188,108,196036,2,0,B|148:136|132:188,1,90,8|0,0:0|0:0,0:0:0:0:
324,108,196400,2,0,B|364:136|380:188,1,90,8|0,0:0|0:0,0:0:0:0:
144,320,196764,2,0,B|184:292|200:240,1,90,8|0,0:0|0:0,0:0:0:0:
307,249,197127,2,0,B|320:292|360:320,1,90,8|0,0:0|0:0,0:0:0:0:
464,240,197491,1,8,0:0:0:0:
472,120,197673,2,0,B|448:76|400:60,1,90,0|8,0:0|0:0,0:0:0:0:
256,40,198036,1,0,0:0:0:0:
106,62,198218,2,0,B|64:76|40:120,1,90,8|0,0:0|0:0,0:0:0:0:
256,192,198764,5,4,0:0:0:0:
256,192,198945,1,8,0:0:0:0:
216,264,199127,2,0,B|200:312|144:336,1,90,0|8,0:0|0:0,0:0:0:0:
296,264,199491,2,0,B|312:312|368:336,1,90,0|8,0:0|0:0,0:0:0:0:
432,272,199855,1,0,0:0:0:0:
464,184,200036,1,8,0:0:0:0:
424,104,200218,1,0,0:0:0:0:
354,54,200400,2,0,B|312:72|296:120,1,90,8|0,0:0|0:0,0:0:0:0:
256,32,200764,1,8,0:0:0:0:
157,54,200945,2,0,B|200:72|216:120,2,90,0|8|0,0:0|0:0|0:0,0:0:0:0:
256,336,201673,5,4,0:0:0:0:
256,336,201855,1,8,0:0:0:0:
168,280,202036,2,0,B|184:232|224:192,1,90,0|8,0:0|0:0,0:0:0:0:
344,280,202400,2,0,B|328:232|288:192,1,90,0|8,0:0|0:0,0:0:0:0:
256,128,202764,1,0,0:0:0:0:
200,40,202945,2,0,B|160:72|128:128,1,90,8|0,0:0|0:0,0:0:0:0:
312,40,203309,2,0,B|352:72|384:128,1,90,8|0,0:0|0:0,0:0:0:0:
256,128,203673,1,8,0:0:0:0:
336,184,203855,2,0,B|256:248|168:184,1,180
56,240,204582,5,4,0:0:0:0:
56,240,204764,2,8,B|96:336|208:368,1,180
256,304,205309,1,0,0:0:0:0:
328,359,205491,2,8,B|416:336|456:240,1,180
360,208,206036,2,0,B|336:160|296:136,1,90,0|8,0:0|0:0,0:0:0:0:
209,140,206400,2,0,B|176:160|152:208,1,90,0|8,0:0|0:0,0:0:0:0:
176,56,206764,2,0,B|256:16|352:56,1,180
256,264,207673,5,8,0:0:0:0:
152,304,207855,2,0,B|168:352|232:376,1,90,0|8,0:0|0:0,0:0:0:0:
299,367,208218,2,0,B|344:352|360:304,1,90,0|8,0:0|0:0,0:0:0:0:
256,264,208582,1,0,0:0:0:0:
176,200,208764,2,8,B|256:144|352:200,1,180
432,168,209309,1,0,0:0:0:0:
392,88,209491,2,0,B|352:64|304:56,1,90,8|0,0:0|0:0,0:0:0:0:
120,88,209855,2,0,B|160:64|203:56,1,90,8|0,0:0|0:0,0:0:0:0:
32,192,210582,5,8,0:0:0:0:
104,248,210764,2,0,B|128:288|176:296,1,90,0|8,0:0|0:0,0:0:0:0:
104,136,211127,2,0,B|128:96|176:88,1,90,0|8,0:0|0:0,0:0:0:0:
200,192,211491,1,0,0:0:0:0:
296,112,211673,2,8,B|352:192|296:288,1,180
344,360,212218,1,0,0:0:0:0:
400,296,212400,2,0,B|424:256|472:232,1,90,8|0,0:0|0:0,0:0:0:0:
400,88,212764,2,0,B|424:128|472:152,1,90,8|0,0:0|0:0,0:0:0:0:
256,48,213309,5,4,0:0:0:0:
168,120,213491,2,8,B|256:176|352:112,1,180
304,240,214036,2,0,B|352:224|384:200,1,90,0|8,0:0|0:0,0:0:0:0:
208,240,214400,2,0,B|160:224|128:200,1,90,0|8,0:0|0:0,0:0:0:0:
40,216,214764,1,0,0:0:0:0:
56,304,214945,2,8,B|120:368|224:384,1,180
382,356,215491,2,0,B|344:376|297:382,2,90,0|8|0,0:0|0:0|0:0,0:0:0:0:
256,120,216400,5,8,0:0:0:0:
328,192,216582,1,0,0:0:0:0:
256,264,216764,1,8,0:0:0:0:
184,192,216946,1,0,0:0:0:0:
256,120,217127,2,0,B|296:88|344:80,1,90,8|0,0:0|0:0,0:0:0:0:
256,120,217491,2,0,B|216:88|168:80,1,90,8|0,0:0|0:0,0:0:0:0:
256,120,217855,2,8,B|216:208|304:208|240:328,1,180
256,376,218400,1,0,0:0:0:0:
256,32,218764,1,8,0:0:0:0:
256,192,219127,12,4,220582,0:0:0:0:
256,192,220673,12,4,222036,0:0:0:0:
256,44,222764,21,4,0:0:0:0:
256,352,223491,1,4,0:0:0:0:
144,192,223855,1,4,0:0:0:0:
368,192,224218,1,4,0:0:0:0:
420,264,224400,1,4,0:0:0:0:
320,264,224582,2,4,B|276:264,4,45
256,32,225673,6,0,B|256:88,6,44.9999986588955,2|0|0|0|0|0|2,0:0|0:0|0:0|0:0|0:0|0:0|0:0,0:0:0:0:
256,344,226400,6,0,B|200:320|168:264,1,90,2|0,0:0|0:0,0:0:0:0:
256,344,226764,2,0,B|312:320|344:264,1,90,8|0,0:0|0:0,0:0:0:0:
68,256,227127,5,2,0:0:0:0:
80,220,227218,1,0,0:0:0:0:
100,188,227309,1,0,0:0:0:0:
124,160,227400,1,0,0:0:0:0:
152,136,227491,1,8,0:0:0:0:
184,116,227582,1,0,0:0:0:0:
220,104,227673,1,0,0:0:0:0:
256,96,227764,1,0,0:0:0:0:
292,104,227855,1,2,0:0:0:0:
328,116,227946,1,0,0:0:0:0:
360,136,228037,1,0,0:0:0:0:
388,160,228128,1,0,0:0:0:0:
412,188,228219,1,8,0:0:0:0:
432,220,228310,1,0,0:0:0:0:
448,256,228400,6,0,B|448:312,2,45,0|0|2,0:0|0:0|0:0,0:0:0:0:
376,284,228673,2,0,B|376:344,2,45
304,304,228945,2,0,B|304:352,2,45,8|0|0,0:0|0:0|0:0,0:0:0:0:
204,300,229309,5,2,0:0:0:0:
192,272,229400,1,0,0:0:0:0:
184,240,229491,1,0,0:0:0:0:
188,208,229582,1,0,0:0:0:0:
204,180,229673,1,8,0:0:0:0:
228,160,229764,1,0,0:0:0:0:
256,144,229855,2,0,B|256:88,4,45,0|0|2|0|0,0:0|0:0|0:0|0:0|0:0,0:0:0:0:
284,160,230309,1,0,0:0:0:0:
308,180,230400,1,8,0:0:0:0:
324,208,230491,1,0,0:0:0:0:
328,240,230582,1,0,0:0:0:0:
320,272,230673,1,0,0:0:0:0:
308,300,230764,1,2,0:0:0:0:
256,144,230945,1,0,0:0:0:0:
200,304,231127,6,0,B|152:304|152:304|104:264,1,90,8|0,0:0|0:0,0:0:0:0:
40,160,231491,2,0,B|64:120|64:120|112:120,1,90,2|0,0:0|0:0,0:0:0:0:
256,144,231855,2,0,B|256:88,2,45,8|0|0,0:0|0:0|0:0,0:0:0:0:
404,120,232218,2,0,B|448:120|448:120|472:160,1,90,2|0,0:0|0:0,0:0:0:0:
392,277,232582,2,0,B|360:304|360:304|312:304,1,90,8|0,0:0|0:0,0:0:0:0:
168,304,232945,1,2,0:0:0:0:
152,272,233036,1,0,0:0:0:0:
144,240,233127,1,0,0:0:0:0:
152,208,233218,1,0,0:0:0:0:
160,176,233309,1,8,0:0:0:0:
176,144,233400,1,0,0:0:0:0:
200,112,233491,1,0,0:0:0:0:
224,88,233582,1,0,0:0:0:0:
256,64,233673,1,2,0:0:0:0:
288,88,233764,1,0,0:0:0:0:
312,112,233855,1,0,0:0:0:0:
336,144,233946,1,0,0:0:0:0:
352,176,234036,1,8,0:0:0:0:
360,208,234128,1,0,0:0:0:0:
368,240,234218,2,0,B|368:256|360:272,3,30,0|0|0|2,0:0|0:0|0:0|0:0,0:0:0:0:
272,320,234764,5,8,0:0:0:0:
164,336,235127,6,0,B|112:336,2,45,2|0|0,0:0|0:0|0:0,0:0:0:0:
348,248,235491,2,0,B|408:248,2,45,8|0|0,0:0|0:0|0:0,0:0:0:0:
164,160,235855,2,0,B|112:160,2,45,2|0|0,0:0|0:0|0:0,0:0:0:0:
348,72,236218,2,0,B|400:72,2,45,8|0|0,0:0|0:0|0:0,0:0:0:0:
256,336,236582,5,2,0:0:0:0:
256,304,236673,1,0,0:0:0:0:
256,272,236764,1,0,0:0:0:0:
256,240,236855,1,0,0:0:0:0:
256,208,236945,1,8,0:0:0:0:
256,176,237036,1,0,0:0:0:0:
256,144,237127,1,0,0:0:0:0:
256,112,237218,1,0,0:0:0:0:
256,80,237309,2,0,B|256:48,12,30,2|0|0|2|0|0|2|0|0|2|0|0|4,0:0|0:0|0:0|0:0|0:0|0:0|0:0|0:0|0:0|0:0|0:0|0:0|0:0,0:0:0:0:
120,32,238400,6,0,B|56:104|48:208,1,180,8|0,0:0|0:0,0:0:0:0:
88,360,239127,2,0,B|104:312|136:272,1,90,8|0,0:0|0:0,0:0:0:0:
168,184,239491,2,0,B|200:216|216:264,1,90
297,260,239855,2,0,B|312:216|344:184,1,90,8|0,0:0|0:0,0:0:0:0:
382,280,240219,2,0,B|408:312|424:360,1,90,0|0,0:0|0:0,0:0:0:0:
423,359,240582,1,8,0:0:0:0:
472,192,240945,6,0,B|464:88|376:40,1,180,0|8,0:0|0:0,0:0:0:0:
336,112,241491,1,0,0:0:0:0:
256,144,241673,1,0,0:0:0:0:
176,112,241855,1,0,0:0:0:0:
128,44,242036,2,0,B|48:88|40:192,1,180,8|0,0:0|0:0,0:0:0:0:
144,336,242764,1,8,0:0:0:0:
368,336,243127,2,0,B|368:248,1,90
288,176,243491,2,0,B|288:272,1,90
200,224,243855,2,0,B|200:120,1,90
256,64,244218,6,0,B|352:80|432:160,1,180,8|0,0:0|0:0,0:0:0:0:
464,288,244945,2,0,B|440:328|392:352,1,90,8|0,0:0|0:0,0:0:0:0:
304,304,245309,2,0,B|328:264|376:240,1,90
208,304,245673,2,0,B|184:264|142:243,1,90,8|0,0:0|0:0,0:0:0:0:
48,288,246036,2,0,B|40:184|96:112,1,180,0|8,0:0|0:0,0:0:0:0:
296,48,246763,5,0,0:0:0:0:
216,48,246945,1,0,0:0:0:0:
176,336,247491,5,0,0:0:0:0:
336,336,247672,1,0,0:0:0:0:
256,48,248036,5,0,0:0:0:0:
144,256,248400,5,0,0:0:0:0:
368,256,248581,1,0,0:0:0:0:
144,256,248764,1,0,0:0:0:0:
256,336,249491,5,0,0:0:0:0:
112,128,249855,5,0,0:0:0:0:
400,128,250036,1,0,0:0:0:0:
112,128,250219,1,0,0:0:0:0:
256,32,250945,5,0,0:0:0:0:
256,32,251127,2,0,B|168:64|128:168,1,180,0|8,0:0|0:0,0:0:0:0:
120,240,251673,1,0,0:0:0:0:
128,328,251855,2,0,B|160:360|216:376,1,90
384,328,252218,2,0,B|352:360|306:372,1,90,8|0,0:0|0:0,0:0:0:0:
256,304,252582,2,0,B|304:208|216:208|264:112,2,180,0|8|0,0:0|0:0|0:0,0:0:0:0:
200,48,253673,1,10,0:0:0:0:
304,48,253855,1,2,0:0:0:0:
256,352,254218,6,0,B|224:312|168:288,1,90,0|8,0:0|0:0,0:0:0:0:
256,352,254582,2,0,B|288:312|344:288,1,90,0|0,0:0|0:0,0:0:0:0:
392,104,255127,1,8,0:0:0:0:
304,48,255309,2,0,B|256:24|216:48,1,90
32,112,255673,2,0,B|70:134|118:110,1,90,0|8,0:0|0:0,0:0:0:0:
304,168,256036,2,0,B|256:144|216:168,1,90
32,240,256400,2,0,B|70:262|118:238,1,90,0|8,0:0|0:0,0:0:0:0:
216,264,256764,5,0,0:0:0:0:
256,352,256945,1,0,0:0:0:0:
296,264,257127,2,0,B|336:248|392:264,1,90,0|8,0:0|0:0,0:0:0:0:
448,192,257491,1,0,0:0:0:0:
384,122,257673,2,0,B|336:136|296:120,1,90,0|0,0:0|0:0,0:0:0:0:
256,48,258036,2,0,B|160:16|80:48,1,180,8|0,0:0|0:0,0:0:0:0:
152,192,258764,2,0,B|248:224|328:192,1,180,8|0,0:0|0:0,0:0:0:0:
256,344,259491,1,10,0:0:0:0:
256,344,259673,1,2,0:0:0:0:
256,40,260036,5,0,0:0:0:0:
336,72,260218,2,0,B|376:104|392:152,1,90,8|0,0:0|0:0,0:0:0:0:
336,312,260582,2,0,B|376:280|392:232,1,90,0|0,0:0|0:0,0:0:0:0:
230,192,260945,2,0,B|320:192,1,90,8|0,0:0|0:0,0:0:0:0:
464,112,261309,2,4,B|504:192|472:288,1,180,4|12,0:0|0:0,0:0:0:0:
40,288,262036,2,4,B|8:192|48:112,1,180,4|12,0:0|0:0,0:0:0:0:
120,48,262582,5,0,0:0:0:0:
208,16,262764,2,0,B|240:64|200:112,1,90
392,336,263309,5,0,0:0:0:0:
304,368,263491,2,0,B|272:320|312:272,1,90
392,240,263855,2,0,B|424:144|352:64,1,180,8|0,0:0|0:0,0:0:0:0:
120,240,264582,2,0,B|88:144|160:64,1,180,8|0,0:0|0:0,0:0:0:0:
256,160,265309,1,10,0:0:0:0:
256,160,265491,1,2,0:0:0:0:
256,352,265855,6,0,B|224:312|184:296,1,90,0|8,0:0|0:0,0:0:0:0:
256,352,266218,2,0,B|288:312|328:296,1,90,0|0,0:0|0:0,0:0:0:0:
72,160,266764,1,8,0:0:0:0:
136,112,266945,2,0,B|176:88|232:72,1,90
376,112,267309,2,0,B|336:88|280:72,1,90,0|8,0:0|0:0,0:0:0:0:
256,144,267673,1,0,0:0:0:0:
216,216,267855,2,0,B|256:240|304:216,2,90,0|0|8,0:0|0:0|0:0,0:0:0:0:
96,232,268400,5,0,0:0:0:0:
80,336,268582,1,0,0:0:0:0:
176,288,268764,2,0,B|256:344|344:288,1,180
440,320,269309,1,0,0:0:0:0:
424,216,269491,1,0,0:0:0:0:
320,184,269673,2,0,B|392:104|288:24,1,180,8|0,0:0|0:0,0:0:0:0:
192,184,270400,2,0,B|120:104|224:24,1,180,8|0,0:0|0:0,0:0:0:0:
256,264,271127,1,10,0:0:0:0:
256,264,271309,1,2,0:0:0:0:
256,32,271673,5,0,0:0:0:0:
296,104,271855,2,0,B|400:104,1,90,8|0,0:0|0:0,0:0:0:0:
448,192,272218,2,0,B|352:192,1,90
256,264,272582,1,8,0:0:0:0:
154,192,272764,2,0,B|64:192,1,90,0|0,0:0|0:0,0:0:0:0:
126,104,273127,2,0,B|216:104,1,90,0|8,0:0|0:0,0:0:0:0:
256,32,273491,1,0,0:0:0:0:
296,104,273673,1,0,0:0:0:0:
256,176,273855,2,0,B|208:256|304:256|256:360,1,180
256,192,275127,12,4,275855,0:0:0:0:
