osu file format v12

[General]
AudioFilename: PV (1).mp3
AudioLeadIn: 0
PreviewTime: 226428
Countdown: 0
SampleSet: Soft
StackLeniency: 0.2
Mode: 0
LetterboxInBreaks: 0

[Editor]
Bookmarks: 15491,160945,184400
DistanceSpacing: 0.9
BeatDivisor: 4
GridSize: 4

[Metadata]
Title:Remote Control
TitleUnicode:リモコン
Artist:JesusP
ArtistUnicode:じーざすP
Creator:SkyDevil
Version:Collab
Source:
Tags:vocaloid jiizasu jesus winber1 bestz2541 vacalia mkstar26 ayu leyko byakugan249 thenutritiousguy stefan kuma-san mystykamv mapper 31 Kagamine Rin Len teru21 betsuto
BeatmapID:179986
BeatmapSetID:44080

[Difficulty]
HPDrainRate:5
CircleSize:4
OverallDifficulty:8
ApproachRate:8
SliderMultiplier:1.9
SliderTickRate:2

[Events]
//Background and Video events
0,0,"remote_control_bg.jpg",1,1
Video,0,"Video.avi"
//Break Periods
2,108599,113650
2,184599,195105
//Storyboard Layer 0 (Background)
//Storyboard Layer 1 (Fail)
//Storyboard Layer 2 (Pass)
//Storyboard Layer 3 (Foreground)
Sprite,Foreground,Centre,"Font\skydevil1.png",320,240 M,0,14036,15491,171,523,171,434 S,0,14036,38218,1.3 F,0,38218,38400,1,0 S,0,38218,38400,1.3,1.9
Sprite,Foreground,Centre,"Font\vacalia1.png",320,240 F,0,38400,38764,0,1 S,0,38400,38764,1.9,1.3 M,0,38400,61673,154,434 R,0,49945,50036,0,-0.1816779 R,0,50036,50127,-0.1816779,0 M,0,61673,62036,154,434,-800,434
Sprite,Foreground,Centre,"Font\teru21.png",320,240 M,0,61582,61673,700,434,146,434 M,0,61673,61855,146,434 S,0,61673,82400,1.3 M,0,61855,61945,146,434,146,420 M,0,61945,62036,146,420,146,434 M,0,62036,82400,146,434 M,0,82400,82445,146,434,151,434 S,0,82400,82445,1.3,1.35 M,0,82445,83127,151,434 M,0,82445,83127,151,434 S,0,82445,83127,1.35 M,0,83127,83173,151,434,159,434 S,0,83127,83173,1.35,1.4 M,0,83173,83764,159,434 S,0,83173,83764,1.4 M,0,83764,83809,159,434,164,434 S,0,83764,83809,1.4,1.45 M,0,83809,84400,164,434 S,0,83809,84400,1.45 M,0,84400,84445,164,434,169,434 S,0,84400,84445,1.45,1.5 M,0,84445,84764,169,434 M,0,84764,84945,169,434,800,434
Sprite,Foreground,Centre,"Font\Byakugan2491.png",320,240 M,0,84582,84945,-800,434,265,434 S,0,84945,,1.3 M,0,84945,85127,265,434 M,0,85127,85218,265,434,265,412 M,0,85218,85309,265,412,265,434 F,0,108582,109309,1,0
Sprite,Foreground,Centre,"Font\Stefan.png",320,240 F,0,114218,114400,0,1 S,0,114218,114400,1.9,1.3 M,0,114218,125491,150,434 M,0,125491,125582,150,434,150,444 M,0,125582,125673,150,444,150,434 M,0,125673,137491,150,434 M,0,137491,137673,150,434,593,434 M,0,137673,137945,593,434 M,0,137945,138036,593,434,620,434 M,0,138036,138309,620,434,619,434 M,0,138309,138400,619,434,658,434 M,0,138400,138673,658,434,657,434 M,0,138673,138764,657,434,713,434 M,0,138764,139036,713,434,712,434 M,0,139036,139127,712,434,782,434 M,0,139127,139400,782,434 M,0,139400,139491,782,434,832,434 M,0,139491,139764,832,434 M,0,139764,139855,832,434,896,434 M,0,139855,140127,896,434 M,0,140127,140218,896,434,924,434
Sprite,Foreground,Centre,"Font\Leyko1.png",320,240 M,0,137491,137673,-253,434,334,434 S,0,137491,158036,1.3 M,0,137673,137855,334,434,335,434 M,0,137855,137945,335,434,311,434 M,0,137945,138036,311,434,365,434 M,0,138036,138218,365,434 M,0,138218,138309,365,434,338,434 M,0,138309,138400,338,434,402,434 M,0,138400,138582,402,434 M,0,138582,138673,402,434,367,434 M,0,138673,138764,367,434,457,434 M,0,138764,138945,457,434 M,0,138945,139036,457,434,412,434 M,0,139036,139127,412,434,528,434 M,0,139127,139400,528,434 M,0,139400,139491,528,434,516,434 M,0,139491,139673,516,434 M,0,139673,139764,516,434,516,415 M,0,139764,139855,516,415,516,434 M,0,139855,158764,516,434 S,0,158036,158082,1.3,1.32 S,0,158082,158764,1.32 M,0,158764,158809,516,434,506,431 S,0,158764,158809,1.32,1.4 M,0,158809,,506,431 M,0,158809,159355,506,431 S,0,158809,159355,1.424134 M,0,159355,159400,506,431,506,429 S,0,159355,159400,1.4,1.5 S,0,159400,160491,1.5 F,0,160036,160491,1,0 F,0,160491,160582,0,1 S,0,160491,160582,1.5,2
Sprite,Foreground,Centre,"Font\Kuma-san1.png",320,240 F,0,160764,160945,0,1 S,0,160764,160945,2,1.3 M,0,160945,,206,434 S,0,160945,,1.3 F,0,160945,161673,1 F,0,161673,184218,1 F,0,184218,184945,1,0
Sprite,Foreground,Centre,"Font\MystykAMV1.png",320,240 M,0,195673,195855,222,-78,222,434 F,0,195673,224945,1 S,0,195673,225673,1.3 M,0,195855,195945,222,434,222,424 M,0,195945,196036,222,424,222,434 M,0,196036,,222,434 F,0,224945,225127,1,0 F,0,225127,225627,0 F,0,225627,225673,0,1 F,0,225673,226036,1 S,0,225673,226036,1.3 F,0,226036,226173,1,0 S,0,226036,226173,1.3,2
Sprite,Foreground,Centre,"Font\Betsuto.png",320,240 M,0,226218,,166,434 F,0,226218,226400,1 S,0,226218,226400,2,1.3 S,0,226400,246764,1.3 F,0,226400,250400,1 S,0,246764,246809,1.3,1.2 S,0,246809,247536,1.2 S,0,247536,247582,1.2,1.1 S,0,247582,248082,1.1 S,0,248082,248127,1.1,0.9 S,0,248127,248809,0.9 S,0,248809,248855,0.9,0.85 S,0,248855,251127,0.85 F,0,250400,250491,1,0 F,0,250491,250582,0,1 F,0,250582,250673,1,0 F,0,250673,250764,0,1 F,0,250764,250855,1,0 F,0,250855,250945,0,1 F,0,250945,251036,1,0 F,0,251036,251127,0,1 F,0,251127,251309,1,0 S,0,251127,251309,0.85,2
Sprite,Foreground,Centre,"Font\Ayu1.png",320,240 M,0,250945,251127,95,81 S,0,250945,251127,1.3 F,0,250945,251173,1 M,0,251127,251309,95,81 S,0,251127,275855,1.3 F,0,251173,251309,1 F,0,251309,251332,1,0 M,0,251309,251491,95,81,180,251 F,0,251332,251468,0 F,0,251468,251491,0,1 F,0,251491,,1 F,0,251491,,1 M,0,251491,251673,180,251 F,0,251491,251673,1 F,0,251673,251695,1,0 M,0,251673,251855,180,251,78,434 F,0,251695,251832,0 F,0,251832,251855,0,1 F,0,251855,274400,1 F,0,274400,275491,1,0 F,0,275491,275809,0 F,0,275809,275855,0,1 F,0,275855,275945,1,0 S,0,275855,275945,1.3,2
//Storyboard Sound Samples
//Background Colour Transformations
3,100,163,162,255

[TimingPoints]
3855,363.636363636364,4,2,1,70,1,0
27127,-100,4,1,1,70,0,0
48945,-100,4,2,1,70,0,0
62036,-100,4,1,1,70,0,0
70036,-50,4,2,1,90,0,0
70400,-100,4,1,1,70,0,0
73673,-100,4,2,1,70,0,0
84218,-100,4,1,1,70,0,0
85309,-100,4,1,1,70,0,1
108036,-200,4,1,1,70,0,1
108582,-100,4,1,1,70,0,0
126036,-100,4,2,1,70,0,0
137127,-100,4,1,1,70,0,0
160945,-100,4,1,1,70,0,1
184400,-100,4,1,1,70,0,0
219127,-100,4,1,1,70,0,0
219173,-100,4,1,1,5,0,0
220582,-100,4,1,1,70,0,0
220627,-100,4,1,1,5,0,0
222036,-100,4,1,1,70,0,0
222082,-100,4,1,1,5,0,0
222764,-100,4,1,1,70,0,0
222809,-100,4,1,1,5,0,0
223491,-100,4,1,1,70,0,0
223536,-100,4,1,1,5,0,0
223855,-100,4,1,1,70,0,0
223900,-100,4,1,1,5,0,0
224218,-100,4,1,1,35,0,0
224945,-100,4,2,1,70,0,0
225945,-100,4,2,1,5,0,0
226036,-66.6666666666667,4,2,1,70,0,0
226400,-100,4,2,1,70,0,1
232036,-100,4,2,1,5,0,1
232218,-100,4,2,1,70,0,1
238036,-100,4,2,1,70,0,0
238673,-100,4,2,1,5,0,0
238764,-100,4,2,1,70,0,0
246764,-100,4,1,1,70,0,0
251127,-100,4,1,1,70,0,1
275855,-100,4,1,1,70,0,0

[Colours]
Combo1 : 49,49,49
Combo2 : 255,255,13
Combo3 : 255,255,168
Combo4 : 230,219,15

[HitObjects]
32,96,15491,6,0,B|120:8|224:112,1,190,2|8,0:0|0:0,0:0:0:0:
96,248,16218,1,2,0:0:0:0:
168,280,16400,1,0,0:0:0:0:
240,248,16582,1,8,0:0:0:0:
392,160,16945,6,0,B|472:240|392:336,1,190,2|8,0:0|0:0,0:0:0:0:
240,248,17673,1,2,0:0:0:0:
216,176,17855,1,0,0:0:0:0:
168,120,18036,1,8,0:0:0:0:
96,88,18218,1,0,0:0:0:0:
96,88,18309,1,0,0:0:0:0:
96,88,18400,6,0,B|16:168|80:272,1,190,2|8,0:0|0:0,0:0:0:0:
256,352,19127,2,0,B|336:272|272:168,1,190,2|8,0:0|0:0,0:0:0:0:
208,64,19855,37,2,0:0:0:0:
208,64,19945,1,0,0:0:0:0:
208,64,20036,1,0,0:0:0:0:
296,32,20218,1,8,0:0:0:0:
296,32,20309,1,0,0:0:0:0:
296,32,20400,1,0,0:0:0:0:
384,40,20582,2,0,B|488:64|472:200,1,190,2|8,0:0|0:0,0:0:0:0:
384,304,21309,5,2,0:0:0:0:
304,288,21491,1,0,0:0:0:0:
232,248,21673,2,0,B|312:168|232:56,1,190,8|2,0:0|0:0,0:0:0:0:
168,72,22218,1,0,0:0:0:0:
88,88,22400,1,8,0:0:0:0:
40,152,22582,1,0,0:0:0:0:
40,152,22673,1,0,0:0:0:0:
40,152,22764,22,0,B|0:256|112:328,1,190,2|8,0:0|0:0,0:0:0:0:
256,344,23491,1,2,0:0:0:0:
328,312,23673,1,0,0:0:0:0:
392,256,23855,1,8,0:0:0:0:
424,176,24036,1,0,0:0:0:0:
424,176,24127,1,0,0:0:0:0:
424,176,24218,6,0,B|472:72|344:16,1,190,2|8,0:0|0:0,0:0:0:0:
153,22,24945,2,0,B|40:72|88:176,1,190,2|8,0:0|0:0,0:0:0:0:
144,232,25491,1,0,0:0:0:0:
224,264,25673,1,2,0:0:0:0:
256,256,25764,1,0,0:0:0:0:
280,240,25855,1,0,0:0:0:0:
296,216,25945,1,0,0:0:0:0:
304,184,26036,1,8,0:0:0:0:
304,152,26127,1,0,0:0:0:0:
296,120,26218,1,0,0:0:0:0:
280,96,26309,1,0,0:0:0:0:
256,72,26400,1,2,0:0:0:0:
224,56,26491,5,0,0:0:0:0:
192,48,26582,1,0,0:0:0:0:
160,40,26673,1,0,0:0:0:0:
128,40,26764,1,8,0:0:0:0:
96,48,26855,1,0,0:0:0:0:
72,72,26945,1,0,0:0:0:0:
56,104,27036,1,0,0:0:0:0:
48,136,27127,6,0,B|32:192|64:240,1,95,0|0,0:0|0:0,0:0:0:0:
248,344,27491,2,0,B|256:288|224:240,1,95,8|0,0:0|0:0,0:0:0:0:
216,232,27764,1,0,0:0:0:0:
200,216,27855,1,8,0:0:0:0:
88,152,28036,5,0,0:0:0:0:
128,24,28218,1,0,0:0:0:0:
264,24,28400,1,0,0:0:0:0:
304,160,28582,2,0,B|280:208|312:256,1,95,0|0,0:0|0:0,0:0:0:0:
480,304,28945,2,0,B|496:256|448:208,1,95,8|0,0:0|0:0,0:0:0:0:
432,192,29218,1,0,0:0:0:0:
408,168,29309,1,8,0:0:0:0:
328,56,29491,1,0,0:0:0:0:
176,56,29673,1,0,0:0:0:0:
88,152,29855,1,0,0:0:0:0:
120,288,30036,6,0,B|160:320|224:320,1,95
368,256,30400,2,0,B|328:224|264:224,1,95,8|0,0:0|0:0,0:0:0:0:
256,224,30673,1,0,0:0:0:0:
232,224,30764,1,8,0:0:0:0:
136,192,30945,5,0,0:0:0:0:
72,128,31127,1,0,0:0:0:0:
80,80,31218,1,0,0:0:0:0:
104,40,31309,1,0,0:0:0:0:
152,24,31400,1,0,0:0:0:0:
200,24,31491,1,0,0:0:0:0:
296,48,31673,5,0,0:0:0:0:
184,144,31855,1,8,0:0:0:0:
344,112,32036,1,0,0:0:0:0:
248,240,32218,1,8,0:0:0:0:
392,176,32400,1,0,0:0:0:0:
352,296,32582,1,0,0:0:0:0:
472,264,32764,5,0,0:0:0:0:
472,264,32855,1,0,0:0:0:0:
472,264,32945,2,0,B|464:376|344:384,1,190,0|8,0:0|0:0,0:0:0:0:
40,264,33673,2,0,B|48:376|168:384,1,190,0|8,0:0|0:0,0:0:0:0:
448,96,34400,6,0,B|360:16|264:104,1,190,0|8,0:0|0:0,0:0:0:0:
64,288,35127,2,0,B|152:368|248:280,1,190,0|8,0:0|0:0,0:0:0:0:
376,128,35855,5,0,0:0:0:0:
136,128,36218,1,8,0:0:0:0:
256,320,36582,1,0,0:0:0:0:
256,192,37309,12,0,38764,0:0:0:0:
120,80,39127,2,0,B|72:176|144:264,1,190,8|2,0:0|0:0,0:0:0:0:
400,216,39855,2,0,B|432:120|352:32,1,190,8|2,0:0|0:0,0:0:0:0:
152,256,40582,2,0,B|216:328|328:320,1,190,8|2,0:0|0:0,0:0:0:0:
360,96,41309,1,8,0:0:0:0:
304,32,41491,1,0,0:0:0:0:
280,72,41582,1,8,0:0:0:0:
256,104,41673,6,0,B|216:136|168:112|168:112|144:160|80:160,1,190,2|8,0:0|0:0,0:0:0:0:
232,248,42400,2,0,B|240:296|288:320|288:320|328:288|336:240,1,190,2|8,0:0|0:0,0:0:0:0:
360,88,43127,2,0,B|400:80|432:40|432:40|472:72|464:136,1,190,2|8,0:0|0:0,0:0:0:0:
400,320,43855,2,0,B|352:296|328:248|328:248|296:224|288:160,1,190,2|8,0:0|0:0,0:0:0:0:
272,88,44400,1,0,0:0:0:0:
240,64,44491,1,8,0:0:0:0:
200,56,44582,6,0,B|176:96|120:96|120:96|144:144|120:192,1,190,6|8,0:0|0:0,0:0:0:0:
240,320,45309,2,0,B|296:240|408:232,1,190,2|8,0:0|0:0,0:0:0:0:
440,32,46036,2,0,B|456:80|408:120|408:120|352:96|352:40,1,190,2|8,0:0|0:0,0:0:0:0:
160,48,46764,2,0,B|96:120|96:120|144:160|136:200,1,190,2|8,0:0|0:0,0:0:0:0:
192,320,47309,1,0,0:0:0:0:
208,280,47400,1,8,0:0:0:0:
224,240,47491,6,0,B|288:56,1,190,2|8,0:0|0:0,0:0:0:0:
424,32,48218,2,8,B|360:216,1,190,2|8,0:0|0:0,0:0:0:0:
256,288,48945,5,2,0:0:0:0:
216,208,49127,1,0,0:0:0:0:
256,128,49309,1,8,0:0:0:0:
216,56,49491,1,0,0:0:0:0:
136,88,49673,1,2,0:0:0:0:
72,160,49855,1,8,0:0:0:0:
144,216,50036,1,10,0:0:0:0:
80,280,50218,1,8,0:0:0:0:
240,328,50400,22,0,B|336:328,1,95,2|0,0:0|0:0,0:0:0:0:
400,240,50764,1,8,0:0:0:0:
416,128,50945,1,0,0:0:0:0:
408,96,51036,2,0,B|392:48|344:16,1,95,2|0,0:0|0:0,0:0:0:0:
312,24,51309,2,0,B|272:64|232:72,1,95,2|10,0:0|0:0,0:0:0:0:
128,96,51673,1,0,0:0:0:0:
56,176,51855,6,0,B|56:272,1,95,2|0,0:0|0:0,0:0:0:0:
184,344,52218,2,0,B|224:304|232:264,1,95,8|0,0:0|0:0,0:0:0:0:
240,224,52491,2,0,B|248:176|288:136,1,95,2|0,0:0|0:0,0:0:0:0:
312,112,52764,1,2,0:0:0:0:
400,48,52945,2,0,B|440:80|448:128,1,95,10|0,0:0|0:0,0:0:0:0:
368,224,53309,6,0,B|352:272|352:320,1,95,2|0,0:0|0:0,0:0:0:0:
232,296,53673,1,8,0:0:0:0:
144,200,53855,1,0,0:0:0:0:
136,168,53945,1,2,0:0:0:0:
232,96,54127,1,0,0:0:0:0:
240,64,54218,1,2,0:0:0:0:
400,48,54400,2,0,B|376:96|328:112,1,95,10|0,0:0|0:0,0:0:0:0:
368,224,54764,22,0,B|456:192,2,95,2|0|8,0:0|0:0|0:0,0:0:0:0:
240,256,55309,2,2,B|184:232|120:280|48:248,1,190
64,112,55855,1,10,0:0:0:0:
192,64,56036,1,2,0:0:0:0:
216,56,56127,1,8,0:0:0:0:
240,48,56218,6,0,B|288:32|336:56,1,95,2|0,0:0|0:0,0:0:0:0:
432,112,56582,2,0,B|400:152|408:200,1,95,8|0,0:0|0:0,0:0:0:0:
416,232,56855,1,2,0:0:0:0:
304,296,57036,1,0,0:0:0:0:
272,312,57127,1,2,0:0:0:0:
152,168,57309,2,0,B|152:120|176:72,1,95,10|0,0:0|0:0,0:0:0:0:
304,104,57673,6,0,B|336:64|384:48,2,95,2|0|8,0:0|0:0|0:0,0:0:0:0:
280,208,58218,1,0,0:0:0:0:
272,240,58309,1,2,0:0:0:0:
168,264,58491,1,0,0:0:0:0:
144,288,58582,1,2,0:0:0:0:
48,216,58764,2,0,B|56:168|96:136,1,95,10|0,0:0|0:0,0:0:0:0:
152,48,59127,22,0,B|208:80|288:24|352:48,1,190,2|10,0:0|0:0,0:0:0:0:
432,104,59673,1,0,0:0:0:0:
448,136,59764,1,2,0:0:0:0:
456,168,59855,2,0,B|456:216|424:256,1,95,0|2,0:0|0:0,0:0:0:0:
304,320,60218,2,0,B|280:272|288:224,2,95,10|0|0,0:0|0:0|0:0,0:0:0:0:
192,344,60764,2,0,B|152:280|216:224|176:160,1,190,2|2,0:0|0:0,0:0:0:0:
256,40,61491,5,8,0:0:0:0:
288,48,61582,1,0,0:0:0:0:
320,72,61673,2,8,B|328:80|328:80|344:88|344:88|336:104|336:104|360:96|352:112|352:112|376:120,1,95,10|8,0:0|0:0,0:0:0:0:
448,120,62036,5,4,0:0:0:0:
328,384,62400,1,8,0:0:0:0:
64,264,62764,1,0,0:0:0:0:
184,0,63127,1,8,0:0:0:0:
340,228,63491,6,0,P|392:240|432:288,1,95,0|2,0:0|0:0,0:0:0:0:
172,156,63855,2,0,P|120:144|80:96,1,95,8|2,0:0|0:0,0:0:0:0:
421,267,64218,6,0,P|392:240|340:228,1,95,0|2,0:0|0:0,0:0:0:0:
90,116,64582,2,0,P|120:144|172:156,1,95,8|2,0:0|0:0,0:0:0:0:
292,108,64945,6,0,P|304:56|352:16,1,95,0|2,0:0|0:0,0:0:0:0:
220,276,65309,2,0,P|208:328|160:368,1,95,8|2,0:0|0:0,0:0:0:0:
256,192,65673,1,0,0:0:0:0:
91,116,66036,1,8,0:0:0:0:
91,116,66218,6,0,P|79:68|87:20,2,95,2|0|2,0:0|0:0|0:0,0:0:0:0:
136,281,66764,1,8,0:0:0:0:
416,88,67127,2,0,P|392:64|376:56,3,47.5,0|0|2|0,0:0|0:0|0:0|0:0,0:0:0:0:
460,88,67491,2,0,P|480:64|500:56,3,47.5,8|0|10|0,0:0|0:0|0:0|0:0,0:0:0:0:
436,124,67855,6,0,L|436:220,1,95,4|2,2:0|0:0,0:0:0:0:
264,219,68218,2,0,L|264:123,1,95,8|2,0:0|0:0,0:0:0:0:
436,219,68582,6,0,L|436:124,1,95,0|2,0:0|0:0,0:0:0:0:
264,124,68945,2,0,L|264:219,1,95,8|10,0:0|0:0,0:0:0:0:
120,312,69309,5,4,0:0:0:0:
120,312,69673,2,0,B|100:268|100:268|92:212,1,95,8|2,0:0|0:0,0:0:0:0:
93,221,70036,6,2,B|168:140|192:60|192:60|236:16|320:12|352:96,1,380,2|0,0:0|0:0,0:0:0:0:
348,88,70764,5,0,0:0:0:0:
348,373,71127,1,8,0:0:0:0:
440,220,71491,6,0,B|400:208|348:224|348:224|292:244|248:216,1,190,8|8,0:0|0:0,0:0:0:0:
56,56,72218,2,0,P|112:68|156:56,2,95,0|2|8,0:0|0:0|0:0,0:0:0:0:
56,56,72945,5,0,0:0:0:0:
68,84,73036,1,0,0:0:0:0:
80,108,73127,1,8,0:0:0:0:
68,132,73218,1,8,0:0:0:0:
56,156,73309,1,0,0:0:0:0:
24,264,73491,1,2,0:0:0:0:
100,352,73673,6,0,P|192:328|288:356,1,190,4|10,0:0|0:0,0:0:0:0:
448,196,74400,1,0,0:0:0:0:
281,352,74764,2,0,L|332:252,1,95,10|0,0:0|0:0,0:0:0:0:
212,280,75127,2,0,L|232:180,1,95,0|0,0:0|0:0,0:0:0:0:
128,236,75491,2,0,L|112:136,2,95,10|0|0,0:0|0:0|0:0,0:0:0:0:
24,188,76036,2,0,L|-12:72,1,95,0|10,0:0|0:0,0:0:0:0:
68,8,76400,2,0,L|164:20,1,95,2|2,0:0|0:0,0:0:0:0:
388,64,76945,6,0,P|464:48|484:32,2,95,8|2|0,0:0|0:0|0:0,0:0:0:0:
388,292,77673,2,0,P|464:308|484:324,2,95,8|2|0,0:0|0:0|0:0,0:0:0:0:
192,172,78400,1,8,0:0:0:0:
72,368,78764,5,0,0:0:0:0:
185,368,78945,1,2,0:0:0:0:
132,264,79127,1,0,0:0:0:0:
245,264,79308,1,2,0:0:0:0:
192,172,79491,1,0,0:0:0:0:
192,172,79855,6,0,P|280:144|336:60,1,190,10|0,0:0|0:0,0:0:0:0:
334,66,80582,2,0,P|380:112|408:112,1,95,10|0,0:0|0:0,0:0:0:0:
468,208,80945,1,2,0:0:0:0:
407,112,81127,1,0,0:0:0:0:
312,176,81309,1,8,0:0:0:0:
251,80,81491,1,0,0:0:0:0:
152,144,81673,2,0,B|112:60|112:60|56:64|20:36,1,190,2|10,0:0|0:0,0:0:0:0:
20,36,82400,6,0,L|20:160,1,95,12|8,0:0|0:0,0:0:0:0:
20,131,83127,6,0,L|20:36,1,95,12|8,0:0|0:0,0:0:0:0:
112,16,83673,6,0,B|160:27|207:15|207:15|251:25|320:16,1,190,12|0,0:0|0:0,0:0:0:0:
376,104,84218,1,0,0:0:0:0:
264,124,84400,1,0,0:0:0:0:
116,140,84945,5,2,0:0:0:0:
96,132,85036,1,0,0:0:0:0:
76,120,85127,1,0,0:0:0:0:
60,104,85218,1,0,0:0:0:0:
44,88,85309,6,0,B|28:132|52:204,1,95,4|0,0:0|0:0,0:0:0:0:
120,344,85673,2,0,B|144:299|120:251,1,95,8|0,0:0|0:0,0:0:0:0:
36,348,86036,2,0,B|17:303|37:255,1,95
128,84,86400,2,0,B|156:132|116:204,1,95,8|0,0:0|0:0,0:0:0:0:
204,168,86764,6,0,B|324:168,1,95,0|0,0:0|0:0,0:0:0:0:
440,248,87127,2,0,B|340:248,1,95,8|0,0:0|0:0,0:0:0:0:
200,320,87491,2,0,B|304:320,1,95
440,384,87855,2,0,B|328:384,1,95,8|0,0:0|0:0,0:0:0:0:
272,248,88400,6,0,B|192:184|220:56,1,190
140,92,88945,2,0,B|148:164|256:176|292:108,1,190,0|8,0:0|0:0,0:0:0:0:
286,116,89491,1,0,0:0:0:0:
352,160,89673,5,0,0:0:0:0:
408,336,89855,1,0,0:0:0:0:
252,228,90036,1,8,0:0:0:0:
448,228,90218,1,0,0:0:0:0:
292,336,90400,1,0,0:0:0:0:
448,228,90582,1,0,0:0:0:0:
252,228,90764,1,8,0:0:0:0:
352,160,90945,1,0,0:0:0:0:
296,104,91127,6,0,B|196:104,1,95,4|0,0:0|0:0,0:0:0:0:
32,104,91491,2,0,B|136:104,1,95,8|0,0:0|0:0,0:0:0:0:
299,32,91855,2,0,B|204:32,1,95
32,32,92218,2,0,B|127:32,1,95,8|0,0:0|0:0,0:0:0:0:
204,32,92582,6,0,B|224:80|200:136,1,95
184,292,92945,2,0,B|168:248|184:192,1,95,8|0,0:0|0:0,0:0:0:0:
299,32,93309,2,0,B|315:84|291:152,1,95
276,293,93673,2,0,B|260:248|276:200,1,95,8|0,0:0|0:0,0:0:0:0:
428,224,94218,5,0,0:0:0:0:
404,296,94400,1,8,0:0:0:0:
360,360,94582,2,0,B|320:384|264:376,1,95
200,348,94945,1,0,0:0:0:0:
144,296,95127,1,8,0:0:0:0:
120,228,95309,1,0,0:0:0:0:
116,84,95491,6,0,B|164:64|220:80,1,95,0|0,0:0|0:0,0:0:0:0:
392,264,95855,2,0,B|360:288|288:268,1,95,2|0,0:0|0:0,0:0:0:0:
112,56,96218,2,0,B|160:36|216:52,1,95
396,288,96582,2,0,B|356:312|292:292,1,95,2|0,0:0|0:0,0:0:0:0:
228,280,96945,5,4,0:0:0:0:
156,260,97127,1,0,0:0:0:0:
104,204,97309,1,8,0:0:0:0:
228,128,97491,1,0,0:0:0:0:
156,152,97673,1,0,0:0:0:0:
104,204,97855,1,0,0:0:0:0:
72,272,98036,2,0,B|76:340|136:352,1,95,8|0,0:0|0:0,0:0:0:0:
256,344,98400,5,0,0:0:0:0:
492,192,98764,1,2,0:0:0:0:
256,28,99127,1,0,0:0:0:0:
20,192,99491,2,0,B|124:192,1,95,2|0,0:0|0:0,0:0:0:0:
268,192,100036,6,0,B|320:224|336:296,1,95,0|8,0:0|0:0,0:0:0:0:
268,316,100400,1,0,0:0:0:0:
326,265,100582,1,0,0:0:0:0:
380,216,100764,1,0,0:0:0:0:
350,145,100945,2,0,B|304:152|266:193,1,95,8|0,0:0|0:0,0:0:0:0:
312,72,101309,5,0,0:0:0:0:
196,72,101491,1,0,0:0:0:0:
352,72,101673,1,8,0:0:0:0:
160,72,101855,1,0,0:0:0:0:
400,72,102036,1,0,0:0:0:0:
120,72,102218,1,0,0:0:0:0:
436,72,102400,1,8,0:0:0:0:
84,72,102582,1,0,0:0:0:0:
224,160,102764,6,0,B|200:200|136:232,1,95,2|0,0:0|0:0,0:0:0:0:
88,268,103127,1,8,0:0:0:0:
140,324,103309,2,0,B|188:356|236:344,1,95,0|2,0:0|0:0,0:0:0:0:
304,332,103673,1,0,0:0:0:0:
230,345,103855,1,8,0:0:0:0:
352,192,104218,5,0,0:0:0:0:
144,192,104582,1,2,0:0:0:0:
464,192,104945,1,0,0:0:0:0:
40,192,105309,1,2,0:0:0:0:
40,192,105491,1,0,0:0:0:0:
140,76,105855,6,0,B|188:56|252:68,1,95,0|8,0:0|0:0,0:0:0:0:
232,140,106218,1,0,0:0:0:0:
276,316,106400,1,0,0:0:0:0:
132,212,106582,1,0,0:0:0:0:
320,212,106764,1,8,0:0:0:0:
176,316,106945,1,0,0:0:0:0:
100,328,107127,6,0,B|44:296|40:228,1,95
80,72,107491,2,0,B|40:108|40:156,1,95,8|0,0:0|0:0,0:0:0:0:
40,154,107855,1,0,0:0:0:0:
116,144,108036,6,0,B|160:160|184:224,1,95,0|4,0:0|0:0,0:0:0:0:
256,304,114400,5,4,0:0:0:0:
328,264,114582,1,0,0:0:0:0:
408,264,114764,1,8,0:0:0:0:
408,184,114945,1,0,0:0:0:0:
384,112,115127,1,0,0:0:0:0:
320,64,115309,1,0,0:0:0:0:
240,72,115491,1,8,0:0:0:0:
176,120,115673,1,0,0:0:0:0:
160,192,115855,6,0,B|96:240|144:336|224:312,1,190,0|8,0:0|0:0,0:0:0:0:
216,240,116400,1,0,0:0:0:0:
280,288,116582,2,0,B|342:246|300:148|222:166,1,190,0|8,0:0|0:0,0:0:0:0:
464,64,117309,22,0,B|370:64|370:64|338:72|274:72,2,190,0|8|0,0:0|0:0|0:0,0:0:0:0:
440,136,118218,1,0,0:0:0:0:
464,208,118400,1,8,0:0:0:0:
400,256,118582,1,0,0:0:0:0:
336,208,118764,2,0,B|296:192|248:208|232:240,2,95,0|0|8,0:0|0:0|0:0,0:0:0:0:
328,280,119309,1,0,0:0:0:0:
336,208,119491,1,8,0:0:0:0:
328,128,119674,1,0,0:0:0:0:
328,128,119764,1,0,0:0:0:0:
328,128,119855,1,8,0:0:0:0:
32,304,120218,5,0,0:0:0:0:
488,304,120582,1,8,0:0:0:0:
32,160,120945,1,0,0:0:0:0:
80,216,121127,1,0,0:0:0:0:
128,160,121309,1,8,0:0:0:0:
176,216,121491,1,0,0:0:0:0:
240,184,121673,6,0,B|276:216|276:216|312:184,1,95
312,184,122036,2,0,B|344:148|344:148|312:112,1,95,8|0,0:0|0:0,0:0:0:0:
312,112,122400,2,0,B|276:80|276:80|240:112,1,95,0|0,0:0|0:0,0:0:0:0:
240,112,122764,2,0,B|208:148|208:148|240:184,1,95,8|0,0:0|0:0,0:0:0:0:
240,264,123127,5,0,0:0:0:0:
192,320,123309,1,0,0:0:0:0:
120,320,123491,1,8,0:0:0:0:
48,320,123673,1,0,0:0:0:0:
240,264,123855,5,0,0:0:0:0:
296,320,124037,1,0,0:0:0:0:
368,320,124219,1,8,0:0:0:0:
440,320,124400,1,0,0:0:0:0:
440,240,124582,5,0,0:0:0:0:
392,176,124764,1,0,0:0:0:0:
328,136,124945,1,0,0:0:0:0:
376,80,125127,1,0,0:0:0:0:
280,192,125309,1,2,0:0:0:0:
200,192,125491,1,2,0:0:0:0:
200,192,125582,1,2,0:0:0:0:
200,192,125673,1,10,0:0:0:0:
448,120,126036,22,0,B|401:37,2,95,4|0|8,0:0|0:0|0:0,0:0:0:0:
432,192,126582,1,0,0:0:0:0:
392,256,126764,1,0,0:0:0:0:
320,256,126945,1,0,0:0:0:0:
288,184,127127,2,0,B|240:208|240:256|240:256|240:368,2,190,8|0|8,0:0|0:0|0:0,0:0:0:0:
240,128,128036,1,0,0:0:0:0:
192,184,128218,2,0,B|240:208|240:256|240:256|240:368,2,190,0|8|0,0:0|0:0|0:0,0:0:0:0:
480,272,129309,6,0,B|464:232|480:184|480:184|376:184,1,190,8|0,0:0|0:0,0:0:0:0:
32,272,130036,2,0,B|48:232|32:184|32:184|136:184,1,190,8|0,0:0|0:0,0:0:0:0:
144,256,130582,1,0,0:0:0:0:
144,112,130764,1,8,0:0:0:0:
368,112,131127,1,0,0:0:0:0:
144,112,131491,1,8,0:0:0:0:
368,256,131855,22,0,B|368:244|368:244|356:244|356:244|356:233|356:233|345:233|345:233|345:222|345:222|334:222|334:222|334:210|334:210|322:210|322:210|322:199|322:199|311:199|311:199,1,95,4|0,0:0|0:0,0:0:0:0:
312,128,132218,2,0,B|240:56|240:56,2,95,8|0|0,0:0|0:0|0:0,0:0:0:0:
384,144,132764,1,0,0:0:0:0:
424,208,132945,1,8,0:0:0:0:
368,256,133127,1,0,0:0:0:0:
288,256,133309,2,0,B|240:288|200:256|200:256|104:256,1,190,0|8,0:0|0:0,0:0:0:0:
24,256,133855,2,0,B|24:160|24:160,4,95,0|0|0|8|0,0:0|0:0|0:0|0:0|0:0,0:0:0:0:
112,328,134764,5,0,0:0:0:0:
168,280,134945,1,0,0:0:0:0:
232,320,135127,1,8,0:0:0:0:
288,272,135309,1,0,0:0:0:0:
368,272,135491,2,0,B|408:256|440:232|448:200|448:200|448:168|448:136|448:136|440:104|408:72|352:48,1,285,0|0,0:0|0:0,0:0:0:0:
296,64,136218,1,0,0:0:0:0:
240,120,136400,1,0,0:0:0:0:
168,152,136582,1,8,0:0:0:0:
120,208,136764,1,0,0:0:0:0:
112,280,136945,1,0,0:0:0:0:
176,320,137127,6,0,B|248:384,1,95
256,272,137491,1,0,0:0:0:0:
200,192,137673,6,0,B|160:168|160:168|112:168,1,95,6|0,0:0|0:0,0:0:0:0:
312,192,138036,1,8,0:0:0:0:
256,272,138218,1,0,0:0:0:0:
256,136,138400,2,0,B|280:96|280:96|280:48,1,95,2|0,0:0|0:0,0:0:0:0:
416,192,138764,1,8,0:0:0:0:
368,272,138945,1,0,0:0:0:0:
472,352,139127,6,0,B|472:304|472:304|448:264,1,95,2|0,0:0|0:0,0:0:0:0:
368,136,139491,2,0,B|328:104|328:104|328:56,1,95,8|0,0:0|0:0,0:0:0:0:
184,60,139855,2,0,B|184:104|184:104|144:136,1,95,2|0,0:0|0:0,0:0:0:0:
64,264,140218,2,0,B|40:304|40:304|40:352,1,95,8|0,0:0|0:0,0:0:0:0:
168,264,140582,5,2,0:0:0:0:
256,224,140764,1,0,0:0:0:0:
256,128,140945,2,0,B|256:24,1,95,8|0,0:0|0:0,0:0:0:0:
256,224,141309,1,2,0:0:0:0:
344,264,141491,1,0,0:0:0:0:
336,168,141673,2,0,B|336:72,1,95,8|0,0:0|0:0,0:0:0:0:
176,73,142036,6,0,B|176:168,1,95,2|0,0:0|0:0,0:0:0:0:
176,264,142400,1,8,0:0:0:0:
256,312,142582,1,0,0:0:0:0:
344,264,142764,1,2,0:0:0:0:
256,56,143127,1,8,0:0:0:0:
216,56,143218,1,0,0:0:0:0:
176,56,143309,1,0,0:0:0:0:
136,56,143400,1,0,0:0:0:0:
96,56,143491,6,0,B|48:80|24:120,1,95,6|0,0:0|0:0,0:0:0:0:
72,304,143855,1,8,0:0:0:0:
72,208,144036,1,0,0:0:0:0:
168,104,144218,2,0,B|174:157|203:193,1,95,2|0,0:0|0:0,0:0:0:0:
352,304,144582,1,8,0:0:0:0:
296,232,144764,1,0,0:0:0:0:
336,144,144945,6,0,B|360:96|416:80,1,95,2|0,0:0|0:0,0:0:0:0:
256,200,145309,1,8,0:0:0:0:
256,104,145491,1,0,0:0:0:0:
176,240,145673,2,0,B|152:288|96:304,1,95,2|0,0:0|0:0,0:0:0:0:
256,200,146036,1,8,0:0:0:0:
256,296,146218,1,0,0:0:0:0:
184,160,146400,6,0,B|232:144|256:104|256:104|280:144|336:160,1,190,2|8,0:0|0:0,0:0:0:0:
256,344,147127,1,2,0:0:0:0:
256,248,147309,1,0,0:0:0:0:
256,152,147491,1,8,0:0:0:0:
256,56,147673,1,0,0:0:0:0:
160,56,147855,5,2,0:0:0:0:
408,192,148218,1,8,0:0:0:0:
160,344,148582,1,2,0:0:0:0:
120,256,148764,1,0,0:0:0:0:
48,192,148945,1,8,0:0:0:0:
72,160,149036,1,0,0:0:0:0:
112,144,149127,1,0,0:0:0:0:
152,160,149218,1,0,0:0:0:0:
176,192,149309,6,0,B|176:240|176:240|144:272|72:272|48:240,1,190,4|8,0:0|0:0,0:0:0:0:
48,144,149855,1,0,0:0:0:0:
48,144,150036,2,0,B|48:96|48:96|80:64|152:64|176:96,1,190,0|8,0:0|0:0,0:0:0:0:
256,136,150582,1,0,0:0:0:0:
432,136,150764,1,0,0:0:0:0:
296,40,150945,1,0,0:0:0:0:
344,208,151127,1,8,0:0:0:0:
392,40,151309,1,0,0:0:0:0:
344,128,151491,5,0,0:0:0:0:
344,288,151673,1,0,0:0:0:0:
344,96,151855,1,8,0:0:0:0:
344,320,152036,1,0,0:0:0:0:
256,280,152218,2,0,B|248:232|216:192|216:192|160:184|144:128,1,190,4|8,0:0|0:0,0:0:0:0:
232,96,152764,1,0,0:0:0:0:
232,96,152945,2,0,B|184:104|144:136|144:136|136:192|80:208,1,190,0|8,0:0|0:0,0:0:0:0:
48,120,153491,5,0,0:0:0:0:
48,120,153673,2,0,B|56:168|88:208|88:208|144:216|160:272,1,190,0|8,0:0|0:0,0:0:0:0:
72,304,154218,1,0,0:0:0:0:
72,304,154400,2,0,B|120:296|160:264|160:264|168:208|224:192,1,190,0|8,0:0|0:0,0:0:0:0:
256,280,154945,1,0,0:0:0:0:
256,280,155127,1,4,0:0:0:0:
256,90,155491,6,0,B|256:280,1,190,8|0,0:0|0:0,0:0:0:0:
176,88,156218,1,8,0:0:0:0:
256,16,156400,1,0,0:0:0:0:
336,88,156582,2,0,B|368:120|368:120|416:120,1,95
417,264,156945,2,0,B|368:264|368:264|336:296,1,95,8|0,0:0|0:0,0:0:0:0:
94,264,157309,2,0,B|144:264|144:264|176:296,1,95,0|0,0:0|0:0,0:0:0:0:
94,120,157673,2,0,B|144:120|144:120|176:88,1,95,8|0,0:0|0:0,0:0:0:0:
256,32,158036,5,4,0:0:0:0:
256,192,158218,1,0,0:0:0:0:
96,192,158764,5,4,0:0:0:0:
416,192,158945,1,0,0:0:0:0:
152,304,159309,6,0,B|200:296|216:264|216:264|160:232|176:152,1,190,4|0,0:0|0:0,0:0:0:0:
256,48,159855,1,8,0:0:0:0:
336,168,160036,1,4,0:0:0:0:
256,336,160582,5,8,0:0:0:0:
256,192,160764,1,0,0:0:0:0:
256,48,160945,1,0,0:0:0:0:
176,120,161127,1,0,0:0:0:0:
256,192,161309,2,0,B|336:112,1,95,8|0,0:0|0:0,0:0:0:0:
360,224,161673,1,0,0:0:0:0:
296,288,161855,1,0,0:0:0:0:
208,328,162036,6,0,B|120:272,1,95,8|0,0:0|0:0,0:0:0:0:
216,248,162400,2,0,B|128:192,1,95
224,168,162764,2,0,B|144:112,1,95,8|0,0:0|0:0,0:0:0:0:
240,88,163127,2,0,B|320:144,1,95
352,176,163400,1,0,0:0:0:0:
384,216,163491,2,0,B|376:272|320:296,2,95,8|0|0,0:0|0:0|0:0,0:0:0:0:
432,136,164036,5,0,0:0:0:0:
360,72,164218,1,8,0:0:0:0:
264,72,164400,2,0,B|232:32|168:32|176:32,1,95
72,192,164945,5,8,0:0:0:0:
192,272,165127,1,0,0:0:0:0:
312,192,165309,2,0,B|368:224|424:176,1,95
208,192,165673,2,0,B|152:152|88:216,1,95,8|0,0:0|0:0,0:0:0:0:
256,128,166036,2,0,B|216:80|256:16,1,95
256,232,166400,2,0,B|280:288|248:336,1,95,8|0,0:0|0:0,0:0:0:0:
256,128,166764,5,0,0:0:0:0:
196,200,166945,1,0,0:0:0:0:
120,144,167127,2,0,B|192:80,1,95,8|0,0:0|0:0,0:0:0:0:
288,84,167491,5,0,0:0:0:0:
372,128,167673,1,0,0:0:0:0:
336,216,167855,2,0,B|304:176|248:176,1,95,8|0,0:0|0:0,0:0:0:0:
312,248,168218,2,0,B|280:208|224:208,1,95
288,280,168582,2,0,B|256:240|200:240,1,95,8|0,0:0|0:0,0:0:0:0:
112,264,168945,1,0,0:0:0:0:
64,184,169127,1,0,0:0:0:0:
72,136,169218,1,0,0:0:0:0:
104,104,169309,2,0,B|208:104,1,95,8|0,0:0|0:0,0:0:0:0:
384,72,169855,6,0,B|416:120|384:168,1,95,0|8,0:0|0:0,0:0:0:0:
360,248,170218,1,0,0:0:0:0:
272,296,170400,1,0,0:0:0:0:
104,184,170764,5,8,0:0:0:0:
144,352,170945,1,0,0:0:0:0:
16,256,171127,1,2,0:0:0:0:
192,256,171309,1,0,0:0:0:0:
56,352,171491,1,10,0:0:0:0:
104,272,171673,1,0,0:0:0:0:
104,184,171855,2,0,B|88:120|128:80,1,95,2|0,0:0|0:0,0:0:0:0:
136,80,172127,1,0,0:0:0:0:
160,72,172218,2,0,B|256:64,1,95,8|0,0:0|0:0,0:0:0:0:
352,72,172582,6,0,B|352:176,1,95
256,168,172945,1,8,0:0:0:0:
160,168,173127,2,0,B|160:64,1,95
64,168,173491,1,0,0:0:0:0:
104,256,173673,6,0,B|128:376|272:344,2,190,8|0|8,0:0|0:0|0:0,0:0:0:0:
200,264,174582,1,0,0:0:0:0:
240,240,174673,1,0,0:0:0:0:
272,208,174764,1,0,0:0:0:0:
296,112,174945,6,0,B|360:120|392:192,1,95,0|10,0:0|0:0,0:0:0:0:
344,252,175309,1,0,0:0:0:0:
216,112,175673,2,0,B|164:88|116:112,1,95,0|8,0:0|0:0,0:0:0:0:
180,184,176036,2,0,B|224:208|284:176,1,95
432,84,176582,5,8,0:0:0:0:
376,160,176764,1,0,0:0:0:0:
292,112,176945,2,0,B|176:112,1,95
116,160,177309,2,0,B|220:160,1,95,8|0,0:0|0:0,0:0:0:0:
184,348,177673,6,0,B|288:348,1,95
360,300,178036,2,0,B|256:300,1,95,8|0,0:0|0:0,0:0:0:0:
284,208,178400,5,2,0:0:0:0:
92,208,178582,1,0,0:0:0:0:
184,208,178764,1,8,0:0:0:0:
152,120,178945,2,0,B|104:96|48:128,1,95,0|2,0:0|0:0,0:0:0:0:
92,208,179309,1,0,0:0:0:0:
88,304,179491,6,0,B|128:360|192:328|192:328|280:328,2,190,8|0|8,0:0|0:0|0:0,0:0:0:0:
160,240,180400,1,0,0:0:0:0:
184,232,180491,1,0,0:0:0:0:
204,220,180582,2,0,B|236:172|228:124,1,95
288,56,180945,1,8,0:0:0:0:
348,132,181127,1,2,0:0:0:0:
464,284,181491,6,0,B|360:284,1,95,0|8,0:0|0:0,0:0:0:0:
176,284,181855,2,0,B|288:284,1,95
324,204,182218,1,0,0:0:0:0:
324,204,182400,1,8,0:0:0:0:
228,200,182582,6,0,B|240:144|180:112,1,95
152,208,182945,2,0,B|140:264|200:296,1,95,0|8,0:0|0:0,0:0:0:0:
284,288,183309,1,0,0:0:0:0:
284,288,183491,1,0,0:0:0:0:
380,292,183673,2,0,B|436:300|476:256,1,95,0|8,0:0|0:0,0:0:0:0:
480,172,184036,2,0,B|468:60|320:36,1,190
184,64,195855,6,4,B|104:120,1,95,4|8,0:0|0:0,0:0:0:0:
104,264,196218,2,4,B|181:318,1,95,0|8,0:0|0:0,0:0:0:0:
336,320,196582,2,4,B|413:265,1,95,0|8,0:0|0:0,0:0:0:0:
416,120,196945,2,4,B|338:65,1,95,0|8,0:0|0:0,0:0:0:0:
256,184,197309,2,0,B|256:280,3,95,0|8|0|8,0:0|0:0|0:0|0:0,0:0:0:0:
160,328,198036,1,0,0:0:0:0:
256,368,198218,1,8,0:0:0:0:
352,328,198400,1,0,0:0:0:0:
120,80,198764,6,0,B|200:136,1,95,4|8,0:0|0:0,0:0:0:0:
392,80,199127,2,0,B|314:134,1,95,0|8,0:0|0:0,0:0:0:0:
120,304,199491,2,0,B|197:249,1,95,0|8,0:0|0:0,0:0:0:0:
392,304,199855,2,0,B|314:249,1,95,0|8,0:0|0:0,0:0:0:0:
384,160,200218,1,0,0:0:0:0:
312,80,200400,1,8,0:0:0:0:
200,80,200582,1,0,0:0:0:0:
128,160,200764,1,8,0:0:0:0:
216,232,200945,2,0,B|238:254|278:254|302:230,2,95,0|8|0,0:0|0:0|0:0,0:0:0:0:
216,64,201673,6,0,B|232:32|280:32|296:64,3,95,4|8|0|8,0:0|0:0|0:0|0:0,0:0:0:0:
384,120,202400,1,0,0:0:0:0:
304,176,202582,1,8,0:0:0:0:
208,176,202764,1,0,0:0:0:0:
136,120,202945,1,8,0:0:0:0:
120,216,203127,1,0,0:0:0:0:
208,264,203309,1,8,0:0:0:0:
304,264,203491,1,0,0:0:0:0:
384,208,203673,1,8,0:0:0:0:
344,112,203855,2,0,B|152:112,1,190
40,336,204582,5,4,0:0:0:0:
136,336,204764,1,8,0:0:0:0:
88,256,204945,1,0,0:0:0:0:
184,256,205127,1,8,0:0:0:0:
136,168,205309,1,0,0:0:0:0:
32,168,205491,1,8,0:0:0:0:
80,80,205673,1,0,0:0:0:0:
184,80,205855,1,8,0:0:0:0:
232,168,206036,2,0,B|328:168,1,95,0|8,0:0|0:0,0:0:0:0:
320,272,206400,2,0,B|224:272,1,95,0|8,0:0|0:0,0:0:0:0:
104,256,206764,2,0,B|80:240|80:184|112:176,1,95,0|8,0:0|0:0,0:0:0:0:
200,224,207127,1,4,0:0:0:0:
384,192,207491,5,4,0:0:0:0:
464,232,207673,2,0,B|488:208|488:160|456:144,1,95,8|0,0:0|0:0,0:0:0:0:
384,192,208036,1,8,0:0:0:0:
280,208,208218,2,0,B|272:264|328:280,1,95,0|8,0:0|0:0,0:0:0:0:
280,176,208582,2,0,B|272:120|328:104,1,95,0|8,0:0|0:0,0:0:0:0:
376,192,208945,1,0,0:0:0:0:
256,192,209127,1,8,0:0:0:0:
152,192,209309,1,0,0:0:0:0:
152,192,209491,1,8,0:0:0:0:
64,152,209673,2,0,B|32:160|32:216|56:232,1,95,0|8,0:0|0:0,0:0:0:0:
55,231,210036,1,0,0:0:0:0:
256,40,210400,5,4,0:0:0:0:
208,120,210582,2,0,B|168:120|200:192|160:192,1,95,8|0,0:0|0:0,0:0:0:0:
200,288,210945,1,8,0:0:0:0:
312,288,211127,1,0,0:0:0:0:
304,120,211309,2,0,B|344:120|312:192|352:192,1,95,8|0,0:0|0:0,0:0:0:0:
256,288,211673,1,8,0:0:0:0:
184,104,211855,2,0,B|184:200,3,95,0|8|0|8,0:0|0:0|0:0|0:0,0:0:0:0:
328,200,212582,2,0,B|328:104,2,95,0|8|0,0:0|0:0|0:0,0:0:0:0:
40,48,213309,5,4,0:0:0:0:
144,48,213491,1,8,0:0:0:0:
240,48,213673,1,0,0:0:0:0:
336,48,213855,1,8,0:0:0:0:
464,192,214036,5,0,0:0:0:0:
360,192,214218,1,8,0:0:0:0:
256,192,214400,1,0,0:0:0:0:
152,192,214582,1,8,0:0:0:0:
40,344,214764,5,0,0:0:0:0:
144,344,214946,1,8,0:0:0:0:
240,344,215128,1,0,0:0:0:0:
336,344,215310,1,8,0:0:0:0:
336,240,215491,2,0,B|256:192,1,95,0|8,0:0|0:0,0:0:0:0:
160,144,215855,1,0,0:0:0:0:
432,280,216218,6,0,B|368:352,3,95,4|12|0|8,0:0|0:0|0:0|0:0,0:0:0:0:
256,192,216945,1,0,0:0:0:0:
143,32,217127,2,0,B|80:104,2,95,8|0|8,0:0|0:0|0:0,0:0:0:0:
256,192,217673,1,0,0:0:0:0:
176,224,217855,2,0,B|176:280|240:280,1,95,8|0,0:0|0:0,0:0:0:0:
256,192,218218,1,8,0:0:0:0:
240,104,218400,2,0,B|312:88|368:152|344:224,1,190
256,192,219127,12,0,220218,0:0:0:0:
256,192,220582,12,0,221673,0:0:0:0:
256,192,222036,6,0,B|224:176|224:176|176:208|176:208|128:176|128:176|80:208|80:208|32:176|32:176|8:192,1,285
256,192,222764,2,0,B|288:176|288:176|336:208|336:208|384:176|384:176|432:208|432:208|480:176|480:176|504:192,1,285
256,192,223491,2,0,B|256:96,1,95
256,192,223855,2,0,B|256:288,1,95
176,192,224218,5,0,0:0:0:0:
336,192,224400,1,0,0:0:0:0:
256,144,224582,2,0,B|256:192,3,47.5
256,192,224945,5,4,0:0:0:0:
80,192,225673,6,0,B|72:256|72:256|104:256|80:304|128:312,1,142.5
160,312,226036,2,0,B|96:32,1,284.999991506338,2|4,0:0|0:0,0:0:0:0:
232,48,226582,5,0,0:0:0:0:
240,80,226673,1,0,0:0:0:0:
248,112,226764,1,8,0:0:0:0:
256,144,226855,1,0,0:0:0:0:
264,176,226945,1,0,0:0:0:0:
272,208,227036,1,0,0:0:0:0:
280,240,227127,2,0,B|320:280|376:272,2,95,0|0|8,0:0|0:0|0:0,0:0:0:0:
352,152,227673,1,0,0:0:0:0:
440,240,227855,6,0,B|440:296,3,47.5
400,288,228218,2,0,B|376:328,3,47.5,8|0|0|0,0:0|0:0|0:0|0:0,0:0:0:0:
344,304,228582,2,0,B|296:312,3,47.5
296,280,228945,2,0,B|248:264,3,47.5,8|0|0|0,0:0|0:0|0:0|0:0,0:0:0:0:
272,232,229309,6,0,B|272:160|208:104,1,142.5
200,64,229673,2,0,B|144:80|120:136,1,95,8|0,0:0|0:0,0:0:0:0:
80,216,230036,1,0,0:0:0:0:
96,240,230127,1,0,0:0:0:0:
128,264,230218,1,0,0:0:0:0:
160,272,230309,1,0,0:0:0:0:
192,272,230400,1,8,0:0:0:0:
224,264,230491,1,0,0:0:0:0:
248,240,230582,1,0,0:0:0:0:
264,208,230673,1,0,0:0:0:0:
272,176,230764,6,0,B|272:128|304:88,1,95
328,72,231036,1,0,0:0:0:0:
360,64,231127,2,0,B|408:72|440:120,2,95,8|0|0,0:0|0:0|0:0,0:0:0:0:
400,200,231673,1,0,0:0:0:0:
400,200,231855,2,0,B|384:248|336:264,1,95,8|0,0:0|0:0,0:0:0:0:
248,96,232218,6,0,B|144:80,1,95
40,112,232491,2,0,B|144:128,1,95,0|0,0:0|0:0,0:0:0:0:
168,168,232764,1,0,0:0:0:0:
80,264,232945,1,0,0:0:0:0:
88,296,233036,1,0,0:0:0:0:
112,320,233127,1,0,0:0:0:0:
144,336,233218,1,0,0:0:0:0:
176,336,233309,1,8,0:0:0:0:
208,320,233400,1,0,0:0:0:0:
224,288,233491,1,0,0:0:0:0:
224,256,233582,1,0,0:0:0:0:
256,208,233673,5,0,0:0:0:0:
288,200,233764,1,0,0:0:0:0:
320,184,233855,1,0,0:0:0:0:
352,160,233945,1,0,0:0:0:0:
376,136,234036,1,8,0:0:0:0:
392,104,234127,1,0,0:0:0:0:
392,72,234218,1,0,0:0:0:0:
392,32,234309,1,0,0:0:0:0:
336,32,234400,6,0,B|288:24,3,47.5
264,56,234764,1,8,0:0:0:0:
240,88,234855,1,0,0:0:0:0:
208,104,234945,1,0,0:0:0:0:
176,104,235036,1,0,0:0:0:0:
144,96,235127,6,0,B|80:112|64:168,1,95
72,184,235400,1,0,0:0:0:0:
56,216,235491,2,0,B|64:272|104:296,1,95,8|0,0:0|0:0,0:0:0:0:
264,288,235855,2,0,B|256:240|208:208,1,95
392,144,236218,2,0,B|400:208|448:232,1,95,8|0,0:0|0:0,0:0:0:0:
256,192,236582,12,4,238036,0:0:0:0:
64,72,238400,6,0,B|40:152|96:216,1,142.5,8|0,0:0|0:0,0:0:0:0:
160,232,238764,2,0,B|112:216|104:152,1,95
232,80,239127,2,0,B|280:80|320:112,1,95,8|0,0:0|0:0,0:0:0:0:
224,184,239491,1,0,0:0:0:0:
280,312,239673,1,0,0:0:0:0:
376,208,239855,2,0,B|368:160|384:112,1,95,8|0,0:0|0:0,0:0:0:0:
232,80,240218,2,0,B|192:24|160:8,2,95,0|0|8,0:0|0:0|0:0,0:0:0:0:
288,240,240764,1,0,0:0:0:0:
56,120,240945,6,0,B|48:176|48:176|96:208|48:232|40:240|48:248|72:256|112:280,1,190,0|8,0:0|0:0,0:0:0:0:
272,312,241491,2,0,B|232:256|232:256|192:256|160:224|200:200|168:176|160:144,1,190
216,48,242036,2,0,B|264:128,1,95,8|0,0:0|0:0,0:0:0:0:
392,256,242400,2,0,B|344:176,2,95,0|0|8,0:0|0:0|0:0,0:0:0:0:
480,176,242945,2,0,B|368:24,1,190
216,48,243491,2,0,B|160:48|128:80,1,95,8|0,0:0|0:0,0:0:0:0:
104,104,243764,1,0,0:0:0:0:
96,136,243855,1,4,0:0:0:0:
176,336,244218,6,0,B|224:320|256:264|256:224,1,142.5,8|0,0:0|0:0,0:0:0:0:
216,176,244582,2,0,B|216:224|184:264,1,95
360,40,244945,2,0,B|384:96|424:128,1,95,8|0,0:0|0:0,0:0:0:0:
336,344,245309,1,0,0:0:0:0:
368,168,245491,1,0,0:0:0:0:
440,336,245673,1,8,0:0:0:0:
288,256,245855,1,0,0:0:0:0:
464,232,246036,2,0,B|464:136,1,95
272,64,246400,2,0,B|272:160,1,95,8|0,0:0|0:0,0:0:0:0:
88,248,246764,5,4,0:0:0:0:
64,192,246945,1,0,0:0:0:0:
112,96,247491,5,0,0:0:0:0:
192,280,247673,1,0,0:0:0:0:
200,160,248036,6,0,B|224:104|224:104|240:144|240:144|256:120|272:128|272:128|280:120|352:88,1,190
432,32,248582,1,0,0:0:0:0:
432,168,248764,1,0,0:0:0:0:
256,48,249491,5,4,0:0:0:0:
168,320,249855,1,0,0:0:0:0:
304,176,250036,1,0,0:0:0:0:
96,168,250218,1,0,0:0:0:0:
48,48,251127,6,0,B|96:64|96:64|160:120|160:120|240:144,1,190,0|8,0:0|0:0,0:0:0:0:
464,48,251855,2,0,B|416:64|416:64|352:120|352:120|272:144,1,190,0|8,0:0|0:0,0:0:0:0:
32,344,252582,2,0,B|32:280|104:224|184:256,3,190,0|8|0|8,0:0|0:0|0:0|0:0,0:0:0:0:
264,312,253855,1,8,0:0:0:0:
24,48,254218,6,0,B|120:112|208:40,1,190
112,184,254764,1,0,0:0:0:0:
328,72,255127,2,0,B|384:88|400:136,2,95,8|0|0,0:0|0:0|0:0,0:0:0:0:
168,72,255673,1,0,0:0:0:0:
304,160,255855,1,8,0:0:0:0:
144,152,256036,1,0,0:0:0:0:
328,248,256218,2,0,B|280:272|232:248,2,95,0|8|8,0:0|0:0|0:0,0:0:0:0:
120,224,256764,1,0,0:0:0:0:
248,104,256945,5,0,0:0:0:0:
328,248,257127,1,0,0:0:0:0:
168,248,257309,1,8,0:0:0:0:
328,160,257491,1,0,0:0:0:0:
168,160,257673,1,0,0:0:0:0:
248,304,257855,1,8,0:0:0:0:
424,112,258036,6,0,B|376:8|256:32,2,190,8|0|8,0:0|0:0|0:0,0:0:0:0:
64,56,259127,1,0,0:0:0:0:
488,336,259491,1,8,0:0:0:0:
424,280,259673,1,8,0:0:0:0:
64,56,260036,5,0,0:0:0:0:
232,56,260218,1,8,0:0:0:0:
400,104,260400,2,0,B|400:152|400:152|432:232,1,95
88,296,260945,2,0,B|105:252|105:252|105:204,1,95,8|0,0:0|0:0,0:0:0:0:
232,88,261309,2,0,B|288:48|376:48|432:96,1,190,4|8,0:0|0:0,0:0:0:0:
88,296,262036,2,0,B|125:330|213:330|269:290,1,190,4|8,0:0|0:0,0:0:0:0:
448,312,262582,6,0,B|480:280|480:280|480:232,2,95
472,56,263127,2,0,B|440:88|440:88|440:137,2,95,8|0|0,0:0|0:0|0:0,0:0:0:0:
328,264,263673,2,0,B|360:232|360:232|360:184,2,95,8|8|0,0:0|0:0|0:0,0:0:0:0:
224,128,264218,2,0,B|176:80|96:80|48:128,2,190,0|8|0,0:0|0:0|0:0,0:0:0:0:
24,272,265309,1,8,0:0:0:0:
112,272,265491,1,8,0:0:0:0:
464,32,265855,6,0,B|432:72|432:72|360:72,1,95,0|8,0:0|0:0,0:0:0:0:
312,224,266218,1,0,0:0:0:0:
240,72,266400,1,0,0:0:0:0:
96,288,266764,5,8,0:0:0:0:
256,336,266946,1,0,0:0:0:0:
176,184,267127,2,0,B|176:120|224:104,2,95,0|0|8,0:0|0:0|0:0,0:0:0:0:
344,200,267673,2,0,B|386:214|386:278,2,95,0|0|8,0:0|0:0|0:0,0:0:0:0:
288,40,268218,2,0,B|288:104|330:118,1,95,8|0,0:0|0:0,0:0:0:0:
160,104,268582,5,0,0:0:0:0:
96,264,268764,1,0,0:0:0:0:
344,312,268945,2,0,B|392:264|368:192,1,95,8|0,0:0|0:0,0:0:0:0:
200,224,269309,1,0,0:0:0:0:
352,152,269491,1,8,0:0:0:0:
216,48,269673,2,0,B|128:40|104:64,1,95,8|0,0:0|0:0,0:0:0:0:
88,304,270036,2,0,B|184:336|296:304,2,190,0|8|0,0:0|0:0|0:0,0:0:0:0:
424,248,271127,2,0,B|376:248|376:248|336:272,1,95,8|8,0:0|0:0,0:0:0:0:
72,56,271673,6,0,B|152:64|176:104,1,95,0|8,0:0|0:0,0:0:0:0:
88,240,272036,1,0,0:0:0:0:
216,128,272218,2,0,B|280:160|296:208,1,95
176,320,272582,1,8,0:0:0:0:
328,248,272764,1,0,0:0:0:0:
416,104,272945,6,0,B|368:72|312:96,1,95
192,192,273309,2,0,B|240:224|282:204,1,95,8|0,0:0|0:0,0:0:0:0:
416,104,273673,1,0,0:0:0:0:
256,48,273855,2,0,B|136:56|88:152,1,190,8|0,0:0|0:0,0:0:0:0:
256,192,274309,12,4,275855,0:0:0:0:
