osu file format v14

[General]
AudioFilename: Jessie J, Ariana Grande, Nicki Minaj - Bang Bang.mp3
AudioLeadIn: 1000
PreviewTime: 143954
Countdown: 0
SampleSet: Soft
StackLeniency: 0.7
Mode: 0
LetterboxInBreaks: 0
WidescreenStoryboard: 1

[Editor]
DistanceSpacing: 1
BeatDivisor: 4
GridSize: 32
TimelineZoom: 1.3

[Metadata]
Title:Bang Bang
TitleUnicode:Bang Bang
Artist:Jessie J, Ariana Grande, Nicki Minaj
ArtistUnicode:Jessie J, Ariana Grande, Nicki Minaj
Creator:Euny
Version:Easy
Source:
Tags:Stefan Come[Back]Home Natsu thenutritiousguy tng cbh
BeatmapID:984529
BeatmapSetID:436523

[Difficulty]
HPDrainRate:2
CircleSize:2.8
OverallDifficulty:2
ApproachRate:3
SliderMultiplier:1
SliderTickRate:1

[Events]
//Background and Video events
0,0,"somi chung ha.jpg",0,0
//Break Periods
2,53249,57209
2,136449,141209
//Storyboard Layer 0 (Background)
//Storyboard Layer 1 (Fail)
//Storyboard Layer 2 (Pass)
//Storyboard Layer 3 (Foreground)
//Storyboard Sound Samples

[TimingPoints]
1849,400,4,2,77,50,1,0
4449,-100,4,2,77,35,0,0
5049,-100,4,2,77,50,0,0
14649,-100,4,2,77,50,0,0
17049,-100,4,2,77,50,0,0
17449,-100,4,2,77,50,0,0
17849,-100,4,2,77,50,0,0
20249,-100,4,2,77,50,0,0
20649,-100,4,2,77,50,0,0
21049,-100,4,2,77,50,0,0
27449,-100,4,2,77,65,0,1
33849,-100,4,2,88,50,0,0
34249,-100,4,2,77,50,0,0
40249,-100,4,2,77,65,0,1
46649,-100,4,2,88,50,0,0
47049,-100,4,2,77,50,0,0
58649,-100,4,2,77,50,0,0
65849,-100,4,2,77,50,0,0
68249,-100,4,2,77,50,0,0
69049,-100,4,2,77,50,0,0
71449,-100,4,2,77,50,0,0
71849,-100,4,2,77,50,0,0
72249,-100,4,2,77,50,0,0
78649,-100,4,2,77,65,0,1
85049,-100,4,2,88,50,0,0
85449,-100,4,2,77,50,0,0
91449,-100,4,2,77,65,0,1
97849,-100,4,2,88,50,0,0
98249,-100,4,2,77,50,0,0
102649,-100,4,2,77,50,0,0
104249,-100,4,2,77,40,0,0
104449,-100,4,2,77,20,0,0
104649,-100,4,2,77,21,0,0
104849,-100,4,2,77,22,0,0
105049,-100,4,2,77,23,0,0
105249,-100,4,2,77,24,0,0
105449,-100,4,2,77,25,0,0
117049,-100,4,2,77,40,0,0
122649,-100,4,2,77,50,0,0
123049,-100,4,2,77,50,0,0
123449,-100,4,2,77,50,0,0
129049,-100,4,2,77,50,0,0
129449,-100,4,2,77,50,0,0
129849,-100,4,2,77,50,0,0
133049,-100,4,2,77,50,0,0
135649,-100,4,2,77,50,0,0
136449,-100,4,2,78,30,0,0
139449,-100,4,2,78,50,0,0
140249,-100,4,2,77,50,0,0
144249,-100,4,2,77,65,0,1
150649,-100,4,2,88,50,0,0
151049,-100,4,2,77,50,0,0
157049,-100,4,2,77,65,0,1
163449,-100,4,2,88,50,0,0
163849,-100,4,2,77,50,0,0
169849,-100,4,2,77,65,0,1
176249,-100,4,2,88,50,0,0
176449,-100,4,2,77,50,0,0
179049,-100,4,2,77,50,0,0
179449,-100,4,2,77,50,0,0
182649,-100,4,2,77,65,0,1
189049,-100,4,2,88,30,0,0
189649,-100,4,2,77,50,0,0
190649,-100,4,2,78,50,0,0
191449,-100,4,2,77,50,0,0
192249,-100,4,2,77,50,0,0
193849,-100,4,2,77,50,0,0

[Colours]
Combo1 : 230,172,0
Combo2 : 82,174,214
Combo3 : 253,172,221
Combo4 : 255,26,78

[HitObjects]
94,312,1049,6,0,L|83:192,1,100,0|0,0:0|0:0,0:0:0:0:
87,112,1849,6,0,L|206:128,1,100,4|8,0:3|0:0,0:0:0:0:
260,192,2649,2,0,L|371:166,1,100,8|8,0:0|0:0,0:0:0:0:
453,196,3449,2,0,P|462:268|421:329,2,150,8|0|4,0:0|0:0|0:3,0:0:0:0:
413,103,5049,6,0,P|366:119|317:110,1,100,4|8,0:3|0:0,0:0:0:0:
234,55,5849,1,8,0:0:0:0:
155,116,6249,2,0,P|165:164|189:208,2,100,8|8|8,0:0|0:0|0:0,0:0:0:0:
55,116,7449,2,0,P|44:164|20:208,1,100,8|8,0:1|0:1,0:0:0:0:
54,301,8249,6,0,P|103:292|152:298,1,100,4|8,0:3|0:0,0:0:0:0:
227,364,9049,2,0,P|276:371|328:363,1,100,8|8,0:0|0:0,0:0:0:0:
376,277,9849,2,0,P|366:204|407:143,2,150,8|0|8,0:0|0:0|0:3,0:0:0:0:
422,364,11449,6,0,P|459:332|474:285,1,100,4|8,0:3|0:0,0:0:0:0:
497,188,12249,1,8,0:0:0:0:
411,136,12649,2,0,L|302:159,2,100,8|8|8,0:0|0:0|0:0,0:0:0:0:
351,55,13849,2,0,L|242:78,1,100,8|8,0:1|0:1,0:0:0:0:
152,80,14649,6,0,P|178:151|177:225,2,150,4|4|4,0:3|0:3|0:3,0:0:0:0:
248,50,16249,2,0,L|352:41,1,100,8|8,0:0|0:0,0:0:0:0:
431,95,17049,2,0,P|398:132|380:178,1,100,10|10,0:0|0:0,0:0:0:0:
366,278,17849,6,0,P|440:266|511:288,2,150,4|4|4,0:3|0:3|0:3,0:0:0:0:
283,332,19449,2,0,L|254:218,1,100,8|8,0:0|0:0,0:0:0:0:
177,175,20249,2,0,L|153:276,1,100,8|8,0:0|0:0,0:0:0:0:
60,307,21049,6,0,L|42:154,2,150,4|2|2,0:3|0:3|0:3,0:0:0:0:
148,354,22649,2,0,P|193:333|243:331,1,100,0|2,0:0|0:3,0:0:0:0:
335,369,23449,2,0,P|384:374|432:361,1,100,2|0,0:3|0:0,0:0:0:0:
468,268,24249,6,0,B|490:192|456:192|469:119,2,150,2|2|2,0:3|0:3|0:3,0:0:0:0:
366,264,25849,2,0,B|283:210|175:266|175:266|184:201|167:148,1,300,8|8,0:1|0:3,0:0:0:0:
171,67,27449,6,0,L|268:89,1,100,4|8,0:1|0:0,0:0:0:0:
359,131,28249,2,0,L|460:110,1,100,4|4,0:3|0:3,0:0:0:0:
501,199,29049,2,0,P|486:247|484:297,1,100,0|0,0:0|0:0,0:0:0:0:
405,358,29849,2,0,L|286:340,1,100,8|8,0:0|0:0,0:0:0:0:
206,352,30649,6,0,P|197:303|167:263,1,100,4|8,0:3|0:0,0:0:0:0:
69,247,31449,2,0,P|39:207|30:158,1,100,4|4,0:3|0:3,0:0:0:0:
73,67,32249,2,0,L|188:83,1,100,0|4,0:0|0:3,0:0:0:0:
266,115,33049,1,8,0:1:0:0:
362,88,33449,1,8,0:1:0:0:
456,121,33849,6,0,P|481:190|456:259,2,150,4|4|4,0:1|0:3|0:3,0:0:0:0:
372,189,35449,2,0,P|324:207|277:199,1,100,8|4,0:0|0:3,0:0:0:0:
185,157,36249,2,0,L|185:257,1,100,8|8,0:0|0:0,0:0:0:0:
199,355,37049,6,0,B|258:353|258:353|286:342|286:342|346:342,2,150,4|4|4,0:3|0:3|0:3,0:0:0:0:
99,355,38649,2,0,P|68:315|56:267,1,100,0|4,0:0|0:3,0:0:0:0:
113,184,39449,2,0,P|101:135|70:96,1,100,8|8,0:1|0:1,0:0:0:0:
137,21,40249,6,0,L|238:26,1,100,4|8,0:1|0:0,0:0:0:0:
336,35,41049,2,0,P|325:83|328:133,1,100,4|4,0:3|0:3,0:0:0:0:
426,153,41849,2,0,P|436:201|433:251,1,100,0|4,0:0|0:3,0:0:0:0:
399,345,42649,2,0,L|280:327,1,100,8|8,0:0|0:0,0:0:0:0:
199,325,43449,6,0,P|208:277|194:229,1,100,4|8,0:3|0:0,0:0:0:0:
157,136,44249,2,0,L|259:112,1,100,4|4,0:3|0:3,0:0:0:0:
353,104,45049,2,0,P|345:153|348:203,1,100,0|4,0:0|0:3,0:0:0:0:
448,211,45849,1,8,0:1:0:0:
509,132,46249,1,8,0:1:0:0:
476,37,46649,6,0,B|402:54|408:1|330:15,2,150,4|4|4,0:1|0:3|0:3,0:0:0:0:
509,132,48249,2,0,L|491:238,1,100,8|4,0:0|0:3,0:0:0:0:
401,272,49049,2,0,L|381:168,1,100,8|8,0:0|0:0,0:0:0:0:
312,101,49849,6,0,P|240:119|171:94,2,150,4|4|4,0:3|0:3|0:3,0:0:0:0:
409,77,51449,2,0,L|402:194,1,100,8|4,0:0|0:3,0:0:0:0:
379,274,52249,2,0,P|329:267|280:273,1,100,8|8,0:1|0:1,0:0:0:0:
187,310,53049,5,4,0:3:0:0:
186,310,58649,6,0,P|236:304|286:308,1,100,8|8,0:1|0:1,0:0:0:0:
383,330,59449,6,0,L|378:221,1,100,4|8,0:3|0:0,0:0:0:0:
373,130,60249,2,0,P|325:145|276:138,1,100,8|8,0:0|0:0,0:0:0:0:
198,75,61049,2,0,P|126:53|53:65,2,150,8|8|4,0:0|0:3|0:3,0:0:0:0:
179,173,62649,6,0,L|173:277,1,100,4|8,0:3|0:0,0:0:0:0:
219,361,63449,1,8,0:0:0:0:
315,336,63849,2,0,P|363:344|413:337,2,100,8|8|8,0:0|0:0|0:0,0:0:0:0:
265,249,65049,2,0,P|269:199|255:151,1,100,8|8,0:1|0:1,0:0:0:0:
165,108,65849,6,0,P|94:123|30:86,2,150,4|4|4,0:3|0:3|0:3,0:0:0:0:
233,31,67449,2,0,L|334:52,1,100,8|4,0:0|0:3,0:0:0:0:
431,54,68249,2,0,B|420:105|448:105|429:152,1,100,2|0,0:0|0:0,0:0:0:0:
384,240,69049,6,0,P|456:255|505:310,2,150,4|4|4,0:3|0:3|0:3,0:0:0:0:
296,290,70649,2,0,L|184:321,1,100,8|4,0:0|0:3,0:0:0:0:
100,332,71449,2,0,P|106:282|96:234,1,100,8|8,0:0|0:0,0:0:0:0:
115,135,72249,6,0,P|188:133|257:99,2,150,4|2|2,0:3|0:3|0:3,0:0:0:0:
55,54,73849,2,0,P|24:92|15:141,1,100,0|2,0:0|0:3,0:0:0:0:
69,225,74649,2,0,P|59:273|29:312,1,100,2|0,0:3|0:0,0:0:0:0:
117,360,75449,6,0,L|283:360,2,150,6|2|2,0:3|0:3|0:3,0:0:0:0:
29,312,77049,2,0,B|-11:219|30:118|30:118|91:138|107:184,1,300,0|0,0:0|0:0,0:0:0:0:
180,244,78649,6,0,P|230:248|280:244,1,100,4|8,0:1|0:0,0:0:0:0:
320,152,79449,2,0,P|369:147|419:151,1,100,4|4,0:3|0:3,0:0:0:0:
486,225,80249,2,0,P|471:273|469:323,1,100,0|4,0:0|0:3,0:0:0:0:
379,367,81049,2,0,L|260:349,1,100,8|8,0:0|0:0,0:0:0:0:
181,331,81849,6,0,L|68:363,1,100,4|8,0:3|0:0,0:0:0:0:
0,304,82649,2,0,P|12:255|16:205,1,100,4|4,0:3|0:3,0:0:0:0:
7,106,83449,2,0,L|108:85,1,100,0|4,0:0|0:3,0:0:0:0:
202,64,84249,1,8,0:1:0:0:
173,159,84649,1,8,0:1:0:0:
271,142,85049,6,0,P|304:77|289:5,2,150,4|4|4,0:1|0:3|0:3,0:0:0:0:
236,237,86649,2,0,L|341:253,1,100,8|4,0:0|0:3,0:0:0:0:
379,341,87449,2,0,L|274:365,1,100,8|8,0:0|0:0,0:0:0:0:
186,330,88249,6,0,P|134:278|132:204,2,150,4|4|4,0:3|0:3|0:3,0:0:0:0:
279,294,89849,2,0,L|391:307,1,100,0|4,0:0|0:3,0:0:0:0:
477,320,90649,2,0,P|487:272|477:223,1,100,8|8,0:1|0:1,0:0:0:0:
433,134,91449,6,0,L|334:151,1,100,4|8,0:1|0:0,0:0:0:0:
237,174,92249,2,0,P|240:124|229:75,1,100,4|4,0:3|0:3,0:0:0:0:
150,13,93049,2,0,L|47:25,1,100,0|4,0:0|0:3,0:0:0:0:
13,117,93849,2,0,P|20:166|14:215,1,100,8|8,0:1|0:1,0:0:0:0:
13,316,94649,6,0,P|61:307|110:317,1,100,4|8,0:3|0:0,0:0:0:0:
198,365,95449,2,0,P|246:373|295:363,1,100,4|4,0:3|0:3,0:0:0:0:
391,335,96249,2,0,P|387:285|395:235,1,100,0|4,0:0|0:3,0:0:0:0:
477,177,97049,1,8,0:1:0:0:
460,78,97449,1,8,0:1:0:0:
361,60,97849,6,0,B|287:77|293:24|215:38,2,150,4|4|4,0:1|0:3|0:3,0:0:0:0:
370,159,99449,2,0,P|372:208|398:250,1,100,8|4,0:0|0:3,0:0:0:0:
426,346,100249,2,0,L|326:346,1,100,8|8,0:0|0:0,0:0:0:0:
232,308,101049,6,0,P|242:234|208:168,2,150,4|4|4,0:3|0:3|0:3,0:0:0:0:
144,354,102649,2,0,P|94:357|46:343,1,100,8|0,0:0|0:0,0:0:0:0:
21,247,103449,2,0,L|31:133,1,100,8|8,0:1|0:1,0:0:0:0:
71,55,104249,6,0,B|130:76|189:36|189:36|240:66|240:66|297:34|351:55,1,300,4|8,0:3|0:0,0:0:0:0:
436,108,105849,2,0,L|432:219,1,100,8|8,0:0|0:0,0:0:0:0:
411,306,106649,2,0,P|366:329|318:342,1,100,8|8,0:0|0:0,0:0:0:0:
235,287,107449,6,0,P|142:211|150:329,1,300,4|8,0:3|0:0,0:0:0:0:
59,373,109049,2,0,P|28:333|19:283,1,100,8|8,0:0|0:0,0:0:0:0:
36,186,109849,2,0,P|47:137|37:89,1,100,8|8,0:1|0:1,0:0:0:0:
115,26,110649,6,0,B|264:123|264:-13|400:53,1,300,4|8,0:3|0:0,0:0:0:0:
470,124,112249,2,0,P|473:174|463:223,1,100,8|8,0:0|0:0,0:0:0:0:
411,308,113049,2,0,P|363:294|313:292,1,100,8|8,0:0|0:0,0:0:0:0:
236,228,113849,6,0,P|275:115|166:162,1,300,4|8,0:3|0:0,0:0:0:0:
96,92,115449,2,0,P|122:49|165:23,1,100,2|0,0:0|0:0,0:0:0:0:
263,13,116249,2,0,P|310:27|346:61,1,100,8|8,0:1|0:1,0:0:0:0:
352,161,117049,6,0,P|419:133|444:64,2,150,4|4|4,0:3|0:3|0:3,0:0:0:0:
265,108,118649,2,0,P|215:99|166:108,1,100,8|4,0:0|0:3,0:0:0:0:
82,162,119449,2,0,P|87:211|86:261,1,100,8|8,0:0|0:0,0:0:0:0:
112,358,120249,6,0,P|186:346|260:315,2,150,4|4|4,0:3|0:3|0:3,0:0:0:0:
13,337,121849,2,0,P|11:281|5:219,1,100,8|4,0:0|0:3,0:0:0:0:
7,135,122649,2,0,P|55:126|98:100,1,100,8|8,0:0|0:0,0:0:0:0:
195,73,123449,6,0,L|177:221,2,150,4|4|4,0:3|0:3|0:3,0:0:0:0:
290,102,125049,2,0,P|339:108|387:94,1,100,8|8,0:0|0:0,0:0:0:0:
487,92,125849,2,0,P|495:140|485:189,1,100,8|8,0:0|0:0,0:0:0:0:
408,253,126649,6,0,B|331:233|332:267|259:257,2,150,4|4|4,0:3|0:3|0:3,0:0:0:0:
389,351,128249,2,0,P|339:353|294:374,1,100,8|4,0:0|0:3,0:0:0:0:
194,382,129049,2,0,P|182:334|154:292,1,100,8|8,0:0|0:0,0:0:0:0:
60,258,129849,6,0,P|91:164|69:68,1,200,4|2,0:3|0:3,0:0:0:0:
165,42,131049,1,2,0:3:0:0:
208,132,131449,2,0,P|272:154|403:106,1,200,0|2,0:0|0:3,0:0:0:0:
468,49,132649,1,0,0:0:0:0:
502,142,133049,6,0,L|483:343,1,200,4|2,0:3|0:3,0:0:0:0:
383,353,134249,1,2,0:3:0:0:
288,316,134649,2,0,P|243:297|193:299,1,100,0|2,0:0|0:3,0:0:0:0:
94,318,135449,2,0,P|85:270|92:220,1,100,2|0,0:3|0:0,0:0:0:0:
161,147,136249,5,4,0:3:0:0:
161,146,142649,6,0,P|271:183|215:81,1,300,8|8,0:1|0:3,0:0:0:0:
114,63,144249,6,0,P|79:99|68:147,1,100,4|8,0:0|0:0,0:0:0:0:
98,242,145049,2,0,P|87:290|52:325,1,100,4|4,0:3|0:3,0:0:0:0:
140,373,145849,2,0,L|256:354,1,100,0|4,0:0|0:3,0:0:0:0:
327,311,146649,2,0,L|429:339,1,100,8|8,0:0|0:0,0:0:0:0:
505,280,147449,6,0,P|510:230|508:180,1,100,4|8,0:3|0:0,0:0:0:0:
467,88,148249,2,0,P|419:102|370:94,1,100,4|4,0:3|0:3,0:0:0:0:
295,29,149049,2,0,P|245:25|199:44,1,100,0|4,0:0|0:3,0:0:0:0:
124,110,149849,1,8,0:1:0:0:
164,201,150249,1,8,0:1:0:0:
137,297,150649,6,0,P|65:313|0:280,2,150,4|4|4,0:1|0:3|0:3,0:0:0:0:
234,273,152249,2,0,P|282:265|328:283,1,100,8|4,0:0|0:3,0:0:0:0:
428,288,153049,2,0,L|419:171,1,100,8|8,0:0|0:0,0:0:0:0:
406,88,153849,6,0,B|512:103|512:103|497:62,2,150,4|4|4,0:3|0:3|0:3,0:0:0:0:
315,45,155449,2,0,P|303:92|318:142,1,100,8|4,0:0|0:3,0:0:0:0:
331,239,156249,2,0,L|211:245,1,100,8|8,0:1|0:1,0:0:0:0:
157,311,157049,6,0,L|257:359,1,100,4|8,0:1|0:0,0:0:0:0:
346,343,157849,2,0,L|461:317,1,100,4|4,0:3|0:3,0:0:0:0:
510,246,158649,2,0,P|499:197|503:147,1,100,0|4,0:0|0:3,0:0:0:0:
504,47,159449,2,0,L|391:67,1,100,8|8,0:1|0:1,0:0:0:0:
325,124,160249,6,0,L|217:107,1,100,4|8,0:3|0:0,0:0:0:0:
127,125,161049,2,0,P|134:75|129:26,1,100,4|4,0:3|0:3,0:0:0:0:
28,30,161849,2,0,P|20:79|25:128,1,100,0|4,0:0|0:3,0:0:0:0:
76,214,162649,1,8,0:1:0:0:
175,213,163049,1,8,0:1:0:0:
188,312,163449,6,0,B|114:295|120:348|42:334,2,150,4|4|4,0:1|0:3|0:3,0:0:0:0:
275,359,165049,2,0,P|287:312|275:263,1,100,8|4,0:0|0:3,0:0:0:0:
264,164,165849,2,0,L|370:174,1,100,8|8,0:0|0:0,0:0:0:0:
463,177,166649,6,0,P|452:250|471:322,2,150,4|4|4,0:3|0:3|0:3,0:0:0:0:
417,87,168249,2,0,B|334:114|220:75|220:75|265:166,1,300,8|8,0:1|0:3,0:0:0:0:
326,242,169849,6,0,P|336:290|327:339,1,100,4|8,0:1|0:0,0:0:0:0:
226,338,170649,2,0,P|217:289|227:240,1,100,4|4,0:3|0:3,0:0:0:0:
221,139,171449,2,0,L|121:165,1,100,0|4,0:0|0:3,0:0:0:0:
36,117,172249,2,0,P|69:79|123:64,1,100,8|8,0:1|0:1,0:0:0:0:
215,42,173049,6,0,P|208:91|221:140,1,100,4|0,0:3|0:0,0:0:0:0:
320,138,173849,2,0,P|332:89|325:40,1,100,4|4,0:3|0:3,0:0:0:0:
419,6,174649,2,0,L|519:78,1,100,0|4,0:0|0:3,0:0:0:0:
501,164,175449,1,8,0:1:0:0:
448,249,175849,1,8,0:1:0:0:
351,221,176249,6,0,P|283:249|213:228,2,150,4|4|4,0:1|0:3|0:3,0:0:0:0:
447,249,177849,2,0,P|433:296|439:345,1,100,0|4,0:0|0:3,0:0:0:0:
341,363,178649,2,0,P|292:351|244:362,1,100,2|2,0:3|0:0,0:0:0:0:
144,370,179449,6,0,P|70:363|12:318,2,150,4|4|4,0:3|0:3|0:3,0:0:0:0:
192,282,181049,2,0,P|196:232|194:182,1,100,0|4,0:0|0:3,0:0:0:0:
178,83,181849,2,0,L|291:91,1,100,8|8,0:1|0:1,0:0:0:0:
335,171,182649,6,0,L|437:147,1,100,4|8,0:1|0:0,0:0:0:0:
512,211,183449,2,0,P|501:259|504:309,1,100,4|4,0:3|0:3,0:0:0:0:
419,362,184249,2,0,L|298:374,1,100,0|4,0:0|0:3,0:0:0:0:
221,353,185049,2,0,P|228:303|217:255,1,100,8|8,0:1|0:1,0:0:0:0:
137,194,185849,6,0,P|88:206|39:198,1,100,4|8,0:3|0:0,0:0:0:0:
38,98,186649,2,0,P|86:85|135:93,1,100,4|4,0:3|0:3,0:0:0:0:
227,133,187449,2,0,P|276:140|324:128,1,100,0|4,0:0|0:3,0:0:0:0:
411,78,188249,1,8,0:1:0:0:
492,136,188649,1,8,0:1:0:0:
453,228,189049,6,0,B|306:304|306:190|163:237,1,300,4|0,0:1|0:0,0:0:0:0:
76,286,190649,2,0,P|65:237|75:188,1,100,2|2,0:0|0:0,0:0:0:0:
111,95,191449,2,0,L|219:87,1,100,8|8,0:1|0:1,0:0:0:0:
296,35,192249,6,0,P|407:75|302:130,1,300,4|0,0:3|0:0,0:0:0:0:
256,192,193849,12,12,195449,0:3:0:0:
