osu file format v14

[General]
AudioFilename: Bang Bang - Jessie J Ariana Grande Nicki Minaj.mp3
AudioLeadIn: 1000
PreviewTime: 27648
Countdown: 0
SampleSet: Soft
StackLeniency: 0.7
Mode: 0
LetterboxInBreaks: 0
WidescreenStoryboard: 0

[Editor]
DistanceSpacing: 1
BeatDivisor: 4
GridSize: 4
TimelineZoom: 1

[Metadata]
Title:Bang Bang
TitleUnicode:Bang Bang
Artist:Jessie J, Ariana Grande & Nicki Minaj
ArtistUnicode:Jessie J, Ariana Grande & Nicki Minaj
Creator:jyu
Version:Normal
Source:
Tags:My Everything
BeatmapID:563490
BeatmapSetID:244429

[Difficulty]
HPDrainRate:4
CircleSize:3
OverallDifficulty:4
ApproachRate:5
SliderMultiplier:1
SliderTickRate:1

[Events]
//Background and Video events
0,0,"uhh.jpg",0,0
//Break Periods
2,21447,24848
2,53448,58448
2,72647,76048
2,104648,114448
2,136647,141648
2,189447,191248
//Storyboard Layer 0 (Background)
//Storyboard Layer 1 (Fail)
//Storyboard Layer 2 (Pass)
//Storyboard Layer 3 (Foreground)
//Storyboard Sound Samples

[TimingPoints]
448,400,4,2,1,60,1,0
27648,-100,4,2,1,70,0,1
40048,-100,4,2,1,70,0,0
40448,-100,4,2,1,70,0,1
53248,-100,4,2,1,70,0,0
59648,-100,4,2,1,60,0,0
78848,-100,4,2,1,70,0,1
91248,-100,4,2,1,70,0,0
91648,-100,4,2,1,70,0,1
104448,-100,4,2,1,70,0,0
117248,-100,4,2,2,80,0,0
118448,-100,4,2,2,50,0,0
130048,-100,4,2,1,70,0,0
144448,-100,4,2,1,80,0,1
157048,-100,4,2,1,80,0,0
157248,-100,4,2,1,80,0,1
168448,-100,4,2,1,80,0,0
170048,-100,4,2,2,80,0,1
176348,-100,4,2,1,80,0,0
176448,-100,4,2,1,80,0,1
176548,-100,4,2,1,80,0,0
182848,-100,4,2,2,80,0,1
189248,-100,4,2,2,80,0,0

[Colours]
Combo1 : 128,0,128
Combo2 : 255,0,0
Combo3 : 255,255,0
Combo4 : 0,255,0
Combo5 : 0,0,255

[HitObjects]
224,88,1248,6,0,B|273:96|273:96|324:60,2,100,0|0|8,0:0|0:0|0:0,0:0:0:0:
132,48,2448,6,0,P|96:88|80:144,1,100,8|8,0:0|0:0,0:0:0:0:
112,228,3248,2,0,P|160:236|224:220,1,100,8|8,0:0|0:0,0:0:0:0:
304,192,4048,2,0,P|352:182|401:190,2,100,8|8|8,0:0|0:0|0:0,0:0:0:0:
244,272,5248,6,0,L|140:268,1,100,8|8,0:0|0:0,0:0:0:0:
120,172,6048,2,0,L|220:156,1,100,8|8,0:0|0:0,0:0:0:0:
308,112,6848,1,8,0:0:0:0:
376,184,7248,1,8,0:0:0:0:
468,140,7648,2,0,B|488:96|455:79|476:24,2,100,8|8|8,0:0|0:0|0:0,0:0:0:0:
456,240,8848,6,0,P|432:284|384:316,1,100,8|8,0:0|0:0,0:0:0:0:
292,312,9648,2,0,P|251:282|228:239,1,100,8|8,0:0|0:0,0:0:0:0:
300,168,10448,2,0,P|349:155|397:165,1,100,8|8,0:0|0:0,0:0:0:0:
456,240,11248,1,8,0:0:0:0:
380,308,11648,6,0,P|352:332|284:352,2,100,8|8|8,0:0|0:0|0:0,0:0:0:0:
456,240,12848,1,8,0:0:0:0:
392,164,13248,2,0,P|340:164|297:187,2,100,8|8|8,0:0|0:0|0:0,0:0:0:0:
364,264,14448,1,8,0:0:0:0:
268,288,14848,5,4,0:3:0:0:
460,340,15648,1,8,0:0:0:0:
460,240,16048,2,0,P|452:172|348:76,1,200,4|8,0:3|0:0,0:0:0:0:
264,72,17248,2,0,P|220:80|160:68,1,100,8|8,0:0|0:0,0:0:0:0:
68,56,18048,5,4,0:3:0:0:
88,256,18848,1,8,0:0:0:0:
188,264,19248,2,0,B|224:236|224:236|304:296|304:296|352:264,1,200,4|8,0:3|0:0,0:0:0:0:
412,188,20448,2,0,B|408:156|408:156|388:120|388:120|384:76,2,100,8|8|4,0:0|0:0|0:3,0:0:0:0:
256,192,26048,12,4,27648,0:0:0:0:
92,84,28848,6,0,P|120:136|260:168,1,200,4|4,0:3|0:3,0:0:0:0:
344,148,30048,2,0,P|372:144|440:168,1,100,8|8,0:0|0:0,0:0:0:0:
432,268,30848,6,0,B|384:308|316:276|316:276|240:336,1,200,4|8,0:3|0:0,0:0:0:0:
164,280,32048,2,0,L|320:156,1,200,4|4,0:3|0:3,0:0:0:0:
352,60,33248,1,8,0:0:0:0:
256,28,33648,1,8,0:0:0:0:
164,68,34048,6,0,B|124:112|56:84|56:84|16:152|44:172,1,200,4|8,0:0|0:0,0:0:0:0:
72,252,35248,2,0,P|116:276|256:220,1,200,4|4,0:3|0:3,0:0:0:0:
276,136,36448,2,0,P|359:86|452:115,1,200,8|4,0:0|0:3,0:0:0:0:
464,216,37648,6,0,P|380:265|287:236,1,200,8|8,0:0|0:0,0:0:0:0:
252,144,38848,2,0,B|200:108|107:115|107:115|44:188|44:260,1,300,8|2,0:0|0:0,0:0:0:0:
68,344,40448,6,0,B|132:336|156:244|156:244|232:236,1,200,4|8,0:0|0:0,0:0:0:0:
312,240,41648,2,0,B|369:246|369:246|393:338|457:346,1,200,4|4,0:3|0:3,0:0:0:0:
476,248,42848,2,0,L|464:136,1,100,8|8,0:0|0:0,0:0:0:0:
396,80,43648,6,0,P|344:56|284:56,2,100,4|8|8,0:3|0:0|0:0,0:0:0:0:
408,180,44848,2,4,P|351:259|256:282,1,200,4|4,0:3|0:3,0:0:0:0:
160,252,46048,1,8,0:0:0:0:
80,192,46448,1,8,0:0:0:0:
176,160,46848,6,0,B|276:155|276:155|357:97,1,200,4|8,0:0|0:0,0:0:0:0:
420,20,48048,2,0,P|448:56|456:112,2,100,4|8|4,0:3|0:0|0:3,0:0:0:0:
324,48,49248,2,0,L|220:72,1,100,8|0,0:0|0:0,0:0:0:0:
128,92,50048,5,4,0:3:0:0:
52,160,50448,2,0,P|48:212|128:340,1,200,8|8,0:0|0:0,0:0:0:0:
256,192,51648,12,4,53248,0:3:0:0:
44,92,59648,6,0,B|164:148|164:148|228:108,1,200,8|8,0:0|0:0,0:0:0:0:
312,72,60848,1,8,0:0:0:0:
400,120,61248,2,0,B|435:177|435:177|379:297,1,200,8|8,0:0|0:0,0:0:0:0:
284,328,62448,1,8,0:0:0:0:
200,272,62848,6,0,P|144:280|84:264,1,100,4|8,0:3|0:0,0:0:0:0:
100,172,63648,2,0,P|156:164|216:180,1,100,8|8,0:0|0:0,0:0:0:0:
296,164,64448,2,0,P|304:128|300:56,2,100,8|8|8,0:0|0:0|0:0,0:0:0:0:
280,264,65648,1,8,0:0:0:0:
380,280,66048,5,4,0:3:0:0:
392,80,66848,2,0,P|344:76|280:48,1,100,8|8,0:0|0:0,0:0:0:0:
100,92,68048,1,8,0:0:0:0:
72,188,68448,2,0,P|76:228|224:272,1,200,2|4,0:0|0:3,0:0:0:0:
372,172,70048,5,8,0:0:0:0:
372,272,70448,1,8,0:0:0:0:
224,136,71248,1,8,0:0:0:0:
132,100,71648,2,0,B|80:96|80:96|48:136,2,100,8|8|4,0:0|0:0|0:3,0:0:0:0:
256,192,77248,12,4,78848,0:0:0:0:
164,76,80048,6,0,P|216:64|348:132,1,200,4|4,0:3|0:3,0:0:0:0:
312,220,81248,2,0,L|216:272,1,100,8|8,0:0|0:0,0:0:0:0:
144,324,82048,6,0,B|112:264|156:216|124:124,1,200,4|8,0:3|0:0,0:0:0:0:
24,132,83248,2,0,P|32:88|180:40,1,200,4|4,0:3|0:3,0:0:0:0:
244,84,84448,2,0,P|308:92|348:84,2,100,8|8|4,0:0|0:0|0:0,0:0:0:0:
180,160,85648,6,0,L|168:224,2,50,8|4|8,0:0|0:3|0:0,0:0:0:0:
276,180,86448,1,4,0:3:0:0:
376,176,86848,2,0,P|412:148|428:88,2,100,8|4|8,0:0|0:3|0:0,0:0:0:0:
204,284,88448,5,4,0:3:0:0:
104,284,88848,2,0,P|64:264|56:240,2,50,8|4|8,0:0|0:3|0:0,0:0:0:0:
156,196,89648,1,4,0:3:0:0:
148,96,90048,6,0,B|200:36|264:56|264:56|284:112|352:144|432:136|480:48,1,400,0|4,0:0|0:0,0:0:0:0:
416,244,92448,5,8,0:0:0:0:
328,288,92848,2,0,P|292:296|140:236,1,200,4|4,0:3|0:3,0:0:0:0:
72,172,94048,2,0,L|60:68,1,100,8|8,0:0|0:0,0:0:0:0:
160,64,94848,6,0,P|220:80|272:72,1,100,4|8,0:3|0:0,0:0:0:0:
356,60,95648,1,8,0:0:0:0:
416,140,96048,2,0,B|444:188|444:188|444:248|352:296,1,200,4|4,0:3|0:3,0:0:0:0:
256,308,97248,2,0,P|204:308|152:324,2,100,8|8|4,0:0|0:0|0:0,0:0:0:0:
308,224,98448,6,0,L|296:160,2,50,8|4|8,0:0|0:3|0:0,0:0:0:0:
400,184,99248,1,4,0:3:0:0:
376,88,99648,2,0,B|332:64|332:64|264:72,1,100,8|4,0:0|0:3,0:0:0:0:
182,70,100448,2,0,B|132:64|132:64|88:88,1,100,8|0,0:0|0:0,0:0:0:0:
64,184,101248,5,4,0:3:0:0:
112,272,101648,2,0,L|92:324,2,50,8|4|8,0:0|0:3|0:0,0:0:0:0:
212,256,102448,1,4,0:3:0:0:
256,192,102848,12,4,104448,0:3:0:0:
256,192,115648,12,4,117248,0:3:0:0:
64,288,118448,6,0,P|80:248|220:224,1,200,4|4,0:3|0:3,0:0:0:0:
316,252,119648,2,0,P|364:244|408:216,1,100,8|8,0:0|0:0,0:0:0:0:
332,152,120448,6,0,B|304:80|304:80|176:80,1,200,4|8,0:3|0:0,0:0:0:0:
92,124,121648,2,0,B|56:256|56:256|76:320,1,200,4|4,0:3|0:3,0:0:0:0:
164,272,122848,1,8,0:0:0:0:
260,300,123248,1,8,0:0:0:0:
352,264,123648,6,0,P|368:212|372:160,2,100,4|8|8,0:3|0:0|0:0,0:0:0:0:
268,212,124848,2,0,P|240:192|76:144,1,200,4|4,0:3|0:3,0:0:0:0:
132,56,126048,1,8,0:0:0:0:
232,68,126448,1,8,0:0:0:0:
332,76,126848,6,0,B|396:64|396:64|428:44,2,100,4|8|8,0:3|0:0|0:0,0:0:0:0:
272,156,128048,2,0,B|208:168|208:168|176:188,2,100,4|8|4,0:3|0:0|0:3,0:0:0:0:
368,184,129248,1,8,0:0:0:0:
404,276,129648,1,8,0:0:0:0:
352,364,130048,5,4,0:3:0:0:
152,348,130848,1,2,0:0:0:0:
148,148,131648,2,0,L|220:68,1,100,0|2,0:0|0:0,0:0:0:0:
288,140,132448,2,0,L|400:132,1,100,0|2,0:0|0:0,0:0:0:0:
488,128,133248,5,2,0:0:0:0:
396,304,134048,1,2,0:0:0:0:
196,300,134848,2,0,P|136:304|88:328,2,100,0|2|0,0:0|0:0|0:0,0:0:0:0:
244,292,135848,2,0,P|272:232|272:136,1,150,2|2,0:0|0:0,0:0:0:0:
256,192,142848,12,4,144448,0:0:0:0:
224,136,145648,6,0,P|232:112|276:184,1,200,4|4,0:3|0:3,0:0:0:0:
200,232,146848,1,8,0:0:0:0:
132,304,147248,1,8,0:0:0:0:
232,324,147648,6,0,P|272:328|400:236,1,200,4|8,0:3|0:0,0:0:0:0:
388,144,148848,2,0,L|312:72,1,100,4|0,0:3|0:0,0:0:0:0:
224,116,149648,2,0,L|296:184,2,100,4|8|8,0:3|0:0|0:0,0:0:0:0:
144,56,150848,5,4,0:0:0:0:
72,124,151248,2,0,L|44:180,2,50,8|4|8,0:0|0:3|0:0,0:0:0:0:
152,184,152048,2,0,P|156:232|180:292,1,100,4|8,0:3|0:0,0:0:0:0:
272,252,152848,1,4,0:3:0:0:
364,292,153248,1,8,0:0:0:0:
416,208,153648,6,0,B|428:144|428:144|420:108,1,100,8|4,0:0|0:3,0:0:0:0:
328,76,154448,2,0,L|272:64,2,50,8|4|8,0:0|0:3|0:0,0:0:0:0:
420,109,155248,1,8,0:0:0:0:
348,180,155648,6,0,P|216:280|192:104,1,400,0|4,0:0|0:0,0:0:0:0:
256,48,157648,5,8,0:0:0:0:
352,68,158048,2,0,B|404:84|404:84|396:108|416:124,1,100,8|4,0:0|0:3,0:0:0:0:
456,216,158848,1,8,0:0:0:0:
372,268,159248,2,0,P|324:288|256:288,2,100,4|8|8,0:3|0:0|0:0,0:0:0:0:
348,172,160448,6,0,L|304:72,1,100,4|8,0:3|0:0,0:0:0:0:
216,40,161248,1,8,0:0:0:0:
204,140,161648,1,4,0:3:0:0:
104,128,162048,1,8,0:0:0:0:
56,216,162448,2,0,P|68:280|108:312,1,100,4|8,0:3|0:0,0:0:0:0:
172,244,163248,1,8,0:0:0:0:
248,308,163648,6,0,B|304:320|332:269|332:269|388:272|420:212,1,200,4|8,0:0|0:0,0:0:0:0:
432,124,164848,2,0,P|416:84|368:48,2,100,4|8|4,0:3|0:0|0:3,0:0:0:0:
332,144,166048,1,8,0:0:0:0:
408,212,166448,6,0,B|448:264|448:264|444:304,1,100,0|4,0:0|0:3,0:0:0:0:
344,300,167248,1,8,0:0:0:0:
256,252,167648,1,8,0:0:0:0:
160,276,168048,1,8,0:0:0:0:
80,212,168448,2,0,B|112:176|76:112|76:112|80:72|124:64|124:64|188:124|248:96,1,300
328,84,170048,6,0,P|358:67|422:90,1,100,6|8,0:0|0:0,0:0:0:0:
473,168,170848,2,0,P|442:184|378:161,1,100,2|10,0:0|0:0,0:0:0:0:
328,84,171648,1,8,0:0:0:0:
236,128,172048,1,10,0:0:0:0:
136,112,172448,1,8,0:0:0:0:
72,188,172848,1,8,0:0:0:0:
140,260,173248,6,0,B|204:296|204:296|240:272,1,100,2|8,0:0|0:0,0:0:0:0:
328,280,174048,2,0,B|350:294|350:294|414:258,2,100,2|10|0,0:0|0:0|0:0,0:0:0:0:
256,212,175248,1,10,0:0:0:0:
292,120,175648,1,8,0:0:0:0:
240,36,176048,1,8,0:0:0:0:
340,44,176448,6,0,B|412:40|412:40|388:116|464:160,2,200,4|8|8,0:0|0:0|0:0,0:0:0:0:
240,40,178448,2,0,L|140:48,1,100,8|8,0:0|0:0,0:0:0:0:
48,84,179248,1,0,0:0:0:0:
56,184,179648,6,0,P|64:208|220:244,2,200,4|8|8,0:3|0:0|0:0,0:0:0:0:
132,124,181648,1,8,0:0:0:0:
224,160,182048,1,8,0:0:0:0:
316,124,182448,1,0,0:0:0:0:
412,152,182848,6,0,L|436:252,2,100,6|8|2,0:0|0:0|0:0,0:0:0:0:
364,64,184048,2,0,P|340:44|272:68,1,100,10|0,0:0|0:0,0:0:0:0:
188,104,184848,2,0,P|144:120|152:184,1,100,10|2,0:0|0:0,0:0:0:0:
188,256,185648,1,8,0:0:0:0:
288,272,186048,6,0,B|324:276|336:288|336:288|348:272|384:264,2,100,2|8|2,0:0|0:0|0:0,0:0:0:0:
188,256,187248,2,0,L|88:244,1,100,10|0,0:0|0:0,0:0:0:0:
32,164,188048,1,10,0:0:0:0:
128,140,188448,2,0,P|164:132|192:68,2,100,2|8|4,0:0|0:0|0:0,0:0:0:0:
256,192,192448,5,4,0:3:0:0:
256,192,194048,12,4,195648,0:0:0:0:
