osu file format v14

[General]
AudioFilename: Bang Bang - Jessie J Ariana Grande Nicki Minaj.mp3
AudioLeadIn: 1000
PreviewTime: 27648
Countdown: 0
SampleSet: Soft
StackLeniency: 0.7
Mode: 0
LetterboxInBreaks: 0
WidescreenStoryboard: 0

[Editor]
Bookmarks: 95648,96448,126848
DistanceSpacing: 1.4
BeatDivisor: 4
GridSize: 4
TimelineZoom: 1

[Metadata]
Title:Bang Bang
TitleUnicode:Bang Bang
Artist:Jessie J, Ariana Grande & Nicki Minaj
ArtistUnicode:Jessie J, Ariana Grande & Nicki Minaj
Creator:jyu
Version:Hard
Source:
Tags:My Everything
BeatmapID:563488
BeatmapSetID:244429

[Difficulty]
HPDrainRate:6
CircleSize:3.8
OverallDifficulty:6
ApproachRate:7.5
SliderMultiplier:1.2
SliderTickRate:1

[Events]
//Background and Video events
0,0,"uhh.jpg",0,0
//Break Periods
2,21462,25223
2,53462,58823
2,72662,76423
2,104648,106823
2,107862,109223
2,111062,113223
2,136661,140423
//Storyboard Layer 0 (Background)
//Storyboard Layer 1 (Fail)
//Storyboard Layer 2 (Pass)
//Storyboard Layer 3 (Foreground)
//Storyboard Sound Samples

[TimingPoints]
448,400,4,2,1,60,1,0
26848,-100,4,2,3,80,0,0
27648,-100,4,2,1,70,0,1
40048,-100,4,2,1,70,0,0
40448,-100,4,2,1,70,0,1
53248,-100,4,2,1,60,0,0
69148,-100,4,2,1,30,0,0
69248,-100,4,2,1,60,0,0
78048,-100,4,2,3,80,0,0
78848,-100,4,2,1,70,0,1
91248,-100,4,2,1,70,0,0
91648,-100,4,2,1,70,0,1
104448,-100,4,2,2,60,0,0
117848,-100,4,2,2,50,0,0
142648,-100,4,2,1,60,0,0
144448,-80,4,2,1,80,0,1
157048,-80,4,2,1,80,0,0
157248,-80,4,2,1,80,0,1
169248,-80,4,2,3,80,0,0
170048,-80,4,2,2,80,0,1
176348,-80,4,2,1,80,0,0
176448,-80,4,2,1,80,0,1
176548,-80,4,2,1,80,0,0
182848,-80,4,2,2,80,0,1
189248,-80,4,2,1,80,0,0

[Colours]
Combo1 : 128,0,128
Combo2 : 255,0,0
Combo3 : 255,255,0
Combo4 : 0,255,0
Combo5 : 0,0,255

[HitObjects]
243,179,1248,6,0,L|254:121,1,60
344,44,1648,2,0,L|335:103,1,60
368,184,2048,5,8,0:0:0:0:
404,272,2448,1,8,0:0:0:0:
328,332,2848,1,8,0:0:0:0:
252,272,3248,1,8,0:0:0:0:
176,328,3648,1,8,0:0:0:0:
100,268,4048,1,8,0:0:0:0:
68,184,4248,6,0,P|56:136|64:108,1,60
144,100,4648,2,0,P|180:124|204:128,2,60,2|2|2,0:0|0:0|0:0,0:0:0:0:
256,40,5248,5,8,0:0:0:0:
344,80,5648,1,8,0:0:0:0:
352,176,6048,1,8,0:0:0:0:
316,264,6448,1,8,0:0:0:0:
220,264,6848,1,8,0:0:0:0:
136,220,7248,1,8,0:0:0:0:
116,52,7648,6,0,P|145:52|174:59,1,60,8|0,0:0|0:0,0:0:0:0:
228,124,8048,2,0,P|257:131|286:131,1,60,8|0,0:0|0:0,0:0:0:0:
360,92,8448,5,8,0:0:0:0:
400,180,8848,1,8,0:0:0:0:
344,256,9248,1,8,0:0:0:0:
264,308,9648,1,8,0:0:0:0:
180,260,10048,1,8,0:0:0:0:
96,304,10448,1,8,0:0:0:0:
48,228,10648,6,0,L|28:164,1,60
120,172,11048,2,0,L|100:108,2,60,2|2|2,0:0|0:0|0:0,0:0:0:0:
180,240,11648,6,0,P|216:212|240:132,1,120,8|8,0:0|0:0,0:0:0:0:
408,120,12448,2,0,P|436:156|516:180,1,120,8|8,0:0|0:0,0:0:0:0:
424,328,13248,2,0,P|378:320|304:357,1,120,8|8,0:0|0:0,0:0:0:0:
192,232,14048,6,0,L|120:220,1,60,8|0,0:0|0:0,0:0:0:0:
176,148,14448,2,0,L|248:136,1,60,8|0,0:0|0:0,0:0:0:0:
304,92,14848,5,4,0:3:0:0:
396,328,15448,1,4,0:3:0:0:
396,328,15648,2,0,P|332:316|260:328,1,120,8|4,0:0|0:3,0:0:0:0:
152,212,16448,1,8,0:0:0:0:
152,212,16648,1,4,0:3:0:0:
152,212,16848,2,0,P|216:200|288:212,1,120,4|8,0:3|0:0,0:0:0:0:
444,248,17648,1,8,0:0:0:0:
444,248,18048,6,0,P|436:184|412:112,1,120,4|8,0:3|0:0,0:0:0:0:
332,136,18648,1,4,0:3:0:0:
332,136,18848,2,0,L|212:200,1,120,8|4,0:0|0:3,0:0:0:0:
224,360,19648,1,8,0:0:0:0:
224,360,19848,1,4,0:3:0:0:
224,360,20048,2,0,L|344:296,1,120,4|8,0:3|0:0,0:0:0:0:
352,224,20648,6,0,P|340:180|340:152,1,60,0|8,0:0|0:0,0:0:0:0:
336,44,21048,1,0,0:0:0:0:
232,160,21248,1,4,0:3:0:0:
360,84,26048,6,0,L|388:116,3,30,0|0|0|0,1:0|1:0|1:0|1:0,1:0:0:0:
300,140,26448,2,0,L|308:184,3,30,0|0|0|0,1:0|1:0|1:0|1:0,1:0:0:0:
220,140,26848,2,0,L|212:184,3,30,0|0|0|0,0:0|0:0|0:0|0:0,0:0:0:0:
160,84,27248,2,0,L|132:116,3,30,0|0|0|0,0:0|0:0|0:0|0:0,0:0:0:0:
108,136,27648,6,0,P|88:196|104:268,1,120,4|8,0:0|0:0,0:0:0:0:
180,256,28248,1,4,0:3:0:0:
252,292,28448,2,0,P|304:296|368:236,1,120,8|4,0:0|0:3,0:0:0:0:
304,88,29248,2,0,L|232:84,2,60,8|4|4,0:0|0:3|0:3,0:0:0:0:
428,220,30048,1,8,0:0:0:0:
276,324,30448,1,8,0:0:0:0:
192,288,30648,1,0,0:0:0:0:
136,216,30848,6,0,P|116:168|128:96,1,120,4|8,0:3|0:0,0:0:0:0:
200,48,31448,1,4,0:3:0:0:
288,60,31648,2,0,L|424:76,1,120,8|4,0:0|0:3,0:0:0:0:
432,252,32448,1,8,0:0:0:0:
412,296,32648,1,4,0:3:0:0:
372,324,32848,1,4,0:3:0:0:
196,292,33248,2,0,P|144:292|116:280,1,60,8|0,0:0|0:0,0:0:0:0:
176,208,33648,2,0,P|228:208|256:220,1,60,8|0,0:0|0:0,0:0:0:0:
324,212,34048,5,4,0:0:0:0:
324,212,34248,2,0,P|344:164|316:92,1,120,8|4,0:0|0:3,0:0:0:0:
236,88,34848,2,0,P|180:88|100:56,1,120,8|4,0:0|0:3,0:0:0:0:
148,248,35648,1,8,0:0:0:0:
188,276,35848,1,4,0:3:0:0:
224,304,36048,1,4,0:3:0:0:
320,152,36448,1,8,0:0:0:0:
488,220,36848,1,8,0:0:0:0:
428,52,37248,5,4,0:3:0:0:
428,52,37448,2,0,P|380:56|296:44,1,120,8|4,0:0|0:3,0:0:0:0:
220,48,38048,2,0,L|148:80,1,60,8|0,0:0|0:0,0:0:0:0:
224,140,38448,2,0,L|292:160,1,60,4|0,0:3|0:0,0:0:0:0:
256,192,38848,12,0,40048,0:0:0:0:
96,80,40448,6,0,P|165:110|234:108,1,120,4|8,0:0|0:0,0:0:0:0:
300,108,41048,1,4,0:3:0:0:
380,68,41248,2,0,L|424:136,1,60,8|0,0:0|0:0,0:0:0:0:
412,208,41648,1,4,0:3:0:0:
264,308,42048,2,0,L|203:349,2,60,8|4|4,0:0|0:3|0:3,0:0:0:0:
444,324,42848,1,8,0:0:0:0:
292,224,43248,1,8,0:0:0:0:
116,188,43648,6,0,P|164:148|188:84,1,120,4|8,0:3|0:0,0:0:0:0:
264,52,44248,1,4,0:3:0:0:
344,80,44448,2,0,P|396:88|424:84,2,60,8|0|4,0:0|0:0|0:3,0:0:0:0:
404,296,45248,2,0,L|440:352,2,60,8|4|4,0:0|0:3|0:3,0:0:0:0:
324,252,45848,1,0,0:0:0:0:
244,296,46048,2,0,P|192:300|168:296,1,60,8|0,0:0|0:0,0:0:0:0:
84,224,46448,2,0,P|113:228|143:227,1,60,8|0,0:0|0:0,0:0:0:0:
196,156,46848,5,4,0:0:0:0:
252,84,47048,2,0,P|296:64|388:88,1,120,8|4,0:0|0:3,0:0:0:0:
376,184,47648,2,0,P|332:204|240:180,2,120,8|4|8,0:0|0:3|0:0,0:0:0:0:
440,124,48648,1,4,0:3:0:0:
440,124,48848,1,4,0:3:0:0:
272,64,49248,1,8,0:0:0:0:
96,108,49648,1,8,0:0:0:0:
64,284,50048,5,4,0:3:0:0:
148,320,50248,2,0,P|196:328|280:300,1,120,8|4,0:0|0:3,0:0:0:0:
332,252,50848,2,0,P|388:228|460:240,1,120,8|4,0:0|0:3,0:0:0:0:
476,320,51448,1,8,0:0:0:0:
256,192,51648,12,4,53248,0:3:0:0:
168,64,59648,6,0,B|248:88|248:88|296:72,1,120,8|8,0:0|0:0,0:0:0:0:
400,180,60448,2,0,B|320:156|320:156|272:172,1,120,8|8,0:0|0:0,0:0:0:0:
204,300,61248,2,0,B|244:328|280:324|280:324|334:300|376:328,2,180,8|8|8,0:0|0:0|0:0,0:0:0:0:
72,220,62848,5,8,0:0:0:0:
136,148,63248,1,8,0:0:0:0:
228,124,63648,2,0,P|292:152|352:136,1,120,8|8,0:0|0:0,0:0:0:0:
316,260,64448,2,0,P|252:232|192:248,2,120,8|8|8,0:0|0:0|0:0,0:0:0:0:
412,124,65648,1,8,0:0:0:0:
256,36,66048,5,4,0:3:0:0:
32,148,66648,1,4,0:3:0:0:
32,148,66848,2,0,P|32:204|60:280,1,120,8|4,0:0|0:3,0:0:0:0:
220,264,67648,2,0,L|272:216,1,60,8|4,0:0|0:3,0:0:0:0:
324,164,68048,1,4,0:3:0:0:
324,164,68448,6,0,B|276:88|188:200|144:120,1,180,2|0,0:0|0:0,0:0:0:0:
88,84,69248,5,4,0:3:0:0:
176,340,69848,2,0,L|248:348,1,60,4|8,0:3|0:0,0:0:0:0:
396,300,70448,1,4,0:3:0:0:
380,132,70848,1,8,0:0:0:0:
380,132,71048,1,4,0:3:0:0:
380,132,71248,2,0,P|324:152|264:140,1,120,4|8,0:3|0:0,0:0:0:0:
200,92,71848,2,0,L|125:98,2,60,0|8|0,0:0|0:0|0:0,0:0:0:0:
316,48,72448,5,4,0:3:0:0:
356,72,77248,6,0,L|392:72,3,30,0|0|0|0,1:0|1:0|1:0|1:0,1:0:0:0:
392,156,77648,2,0,L|428:156,3,30,0|0|0|0,1:0|1:0|1:0|1:0,1:0:0:0:
360,236,78048,2,0,L|324:236,3,30,0|0|0|0,0:0|0:0|0:0|0:0,0:0:0:0:
324,320,78448,2,0,L|288:320,3,30,0|0|0|0,0:0|0:0|0:0|0:0,0:0:0:0:
248,320,78848,6,0,B|172:320|172:320|124:280,1,120,4|8,0:0|0:0,0:0:0:0:
76,224,79448,1,0,0:0:0:0:
132,152,79648,2,0,P|162:106|171:26,2,120,8|4|8,0:0|0:3|0:0,0:0:0:0:
76,224,80648,2,0,L|136:280,1,60,4|4,0:3|0:3,0:0:0:0:
252,144,81248,1,8,0:0:0:0:
412,224,81648,1,8,0:0:0:0:
256,316,82048,6,0,P|180:316|128:288,1,120,4|8,0:3|0:0,0:0:0:0:
176,216,82648,1,4,0:3:0:0:
176,216,82848,2,0,P|228:208|284:164,1,120,8|4,0:0|0:3,0:0:0:0:
428,64,83648,1,8,0:0:0:0:
436,112,83848,1,4,0:3:0:0:
436,160,84048,2,0,P|436:204|412:296,1,120,4|8,0:3|0:0,0:0:0:0:
332,304,84648,2,0,P|356:344|388:360,2,60,0|8|0,0:0|0:0|0:0,0:0:0:0:
248,276,85248,5,4,0:0:0:0:
248,276,85448,2,0,B|220:184|220:184|220:152,1,120,8|4,0:0|0:3,0:0:0:0:
152,100,86048,2,0,P|240:100|264:76,1,120,8|4,0:0|0:3,0:0:0:0:
440,100,86848,2,0,P|382:111|332:81,1,120,8|4,0:0|0:3,0:0:0:0:
296,256,87648,2,0,L|296:124,2,120,8|8|4,0:0|0:0|0:3,0:0:0:0:
352,328,88648,6,0,P|412:268|424:212,1,120,8|4,0:0|0:3,0:0:0:0:
400,148,89248,1,8,0:0:0:0:
324,100,89448,1,0,0:0:0:0:
236,116,89648,2,0,P|188:128|156:124,1,60,4|0,0:3|0:0,0:0:0:0:
256,192,90048,12,0,91248,0:0:0:0:
208,68,91648,6,0,P|272:76|328:128,1,120,4|8,0:0|0:0,0:0:0:0:
280,192,92248,1,0,0:0:0:0:
208,244,92448,2,0,P|164:252|124:244,2,60,8|0|4,0:0|0:0|0:3,0:0:0:0:
364,152,93248,2,0,P|408:176|428:200,2,60,8|4|4,0:0|0:3|0:3,0:0:0:0:
276,128,93848,1,0,0:0:0:0:
188,108,94048,2,0,L|112:100,1,60,8|0,0:0|0:0,0:0:0:0:
76,176,94448,2,0,L|135:182,1,60,8|0,0:0|0:0,0:0:0:0:
216,224,94848,6,0,P|272:248|352:240,1,120,4|8,0:3|0:0,0:0:0:0:
400,188,95448,1,4,0:3:0:0:
480,228,95648,2,0,L|484:296,1,60,8|0,0:0|0:0,0:0:0:0:
464,124,96048,1,4,0:3:0:0:
272,36,96448,1,8,0:0:0:0:
256,40,96648,1,4,0:3:0:0:
240,44,96848,2,0,P|188:64|132:120,1,120,4|8,0:3|0:0,0:0:0:0:
100,192,97448,1,0,0:0:0:0:
156,264,97648,2,0,P|180:288|216:304,1,60,8|0,0:0|0:0,0:0:0:0:
300,308,98048,5,4,0:0:0:0:
300,308,98248,2,0,P|232:316|176:360,1,120,8|4,0:0|0:3,0:0:0:0:
132,276,98848,2,0,P|144:192|176:152,1,120,8|4,0:0|0:3,0:0:0:0:
228,104,99448,1,0,0:0:0:0:
312,136,99648,2,0,B|356:132|368:144|368:144|384:124|440:124,2,120,8|4|8,0:0|0:3|0:0,0:0:0:0:
228,104,100648,1,0,0:0:0:0:
140,108,100848,2,0,P|120:140|164:216,1,120,0|4,0:0|0:3,0:0:0:0:
224,264,101448,6,0,P|276:240|340:252,1,120,8|4,0:0|0:3,0:0:0:0:
420,220,102048,1,8,0:0:0:0:
356,156,102248,1,0,0:0:0:0:
284,100,102448,2,0,P|268:72|268:40,1,60,4|0,0:3|0:0,0:0:0:0:
256,192,102848,12,4,104448,0:3:0:0:
256,192,107648,5,4,0:3:0:0:
176,152,110048,6,0,P|196:116|224:96,1,60
302,103,110448,2,0,P|323:124|336:152,1,60
256,192,110848,1,4,0:3:0:0:
256,192,114048,5,4,0:3:0:0:
256,192,115648,12,4,117248,0:3:0:0:
212,80,117848,5,0,0:0:0:0:
212,80,118048,2,0,P|260:96|336:80,1,120,8|4,0:0|0:3,0:0:0:0:
412,228,118848,2,0,L|440:292,2,60,8|4|4,0:0|0:3|0:3,0:0:0:0:
256,284,119648,1,8,0:0:0:0:
96,232,120048,1,8,0:0:0:0:
96,232,120448,6,0,B|68:160|68:160|88:96,1,120,4|8,0:3|0:0,0:0:0:0:
140,60,121048,1,4,0:3:0:0:
220,84,121248,2,0,L|360:100,2,120,8|4|8,0:0|0:3|0:0,0:0:0:0:
156,136,122248,1,4,0:3:0:0:
156,136,122448,1,4,0:3:0:0:
96,292,122848,6,0,L|160:264,1,60,8|0,0:0|0:0,0:0:0:0:
188,344,123248,2,0,L|252:352,1,60,8|0,0:0|0:0,0:0:0:0:
264,268,123648,6,0,P|308:252|364:176,1,120,4|8,0:3|0:0,0:0:0:0:
440,188,124248,1,4,0:3:0:0:
408,112,124448,1,8,0:0:0:0:
408,112,124848,2,0,P|364:112|288:80,1,120,4|8,0:3|0:0,0:0:0:0:
236,148,125448,1,4,0:3:0:0:
180,84,125648,1,4,0:3:0:0:
52,192,126048,1,8,0:0:0:0:
172,312,126448,1,0,0:0:0:0:
336,272,126848,6,0,B|376:264|376:264|396:248|412:192,2,120,4|8|0,0:3|0:0|0:0,0:0:0:0:
176,272,128048,2,0,B|136:264|136:264|116:248|100:192,2,120,4|8|4,0:3|0:0|0:3,0:0:0:0:
216,108,129248,2,0,L|212:172,1,60,8|0,0:0|0:0,0:0:0:0:
296,108,129648,2,0,L|300:172,1,60,8|0,0:0|0:0,0:0:0:0:
256,40,130048,5,4,0:3:0:0:
80,328,130848,1,0,0:0:0:0:
332,320,131448,2,0,L|332:268,2,30,2|0|0,0:0|0:0|0:0,0:0:0:0:
416,256,131848,2,0,L|416:204,2,30,2|0|0,0:0|0:0|0:0,0:0:0:0:
332,200,132248,2,0,L|332:148,2,30,2|0|0,0:0|0:0|0:0,0:0:0:0:
256,236,132648,1,2,0:0:0:0:
256,236,132848,2,2,P|200:244|128:228,1,120,2|6,0:0|0:3,0:0:0:0:
424,56,134048,5,0,0:0:0:0:
172,60,134648,2,0,L|172:112,2,30
88,124,135048,2,0,L|88:176,2,30,0|0|0,0:0|0:0|0:0,0:0:0:0:
172,180,135448,2,0,L|172:232,2,30,0|0|0,0:0|0:0|0:0,0:0:0:0:
240,128,135848,6,0,B|304:104|368:148|432:120,1,180,0|4,0:0|0:3,0:0:0:0:
256,192,141248,12,0,142648,0:0:0:0:
256,192,142848,12,0,144048,0:0:0:0:
316,56,144448,6,0,P|360:80|412:168,1,150,4|8,0:0|0:0,0:0:0:0:
380,264,145048,1,4,0:3:0:0:
280,300,145248,2,0,L|176:316,1,75,8|0,0:0|0:0,0:0:0:0:
124,200,145648,2,0,L|228:216,1,75,4|0,0:3|0:0,0:0:0:0:
248,88,146048,5,8,0:0:0:0:
332,152,146248,1,4,0:3:0:0:
404,76,146448,1,4,0:3:0:0:
332,152,146648,1,0,0:0:0:0:
396,236,146848,2,0,P|400:288|384:320,1,75,8|0,0:0|0:0,0:0:0:0:
296,268,147248,2,0,P|245:283|213:283,1,75,8|0,0:0|0:0,0:0:0:0:
140,216,147648,6,0,P|124:88|132:48,1,150,4|8,0:3|0:0,0:0:0:0:
224,24,148248,1,4,0:3:0:0:
300,96,148448,1,8,0:0:0:0:
396,52,148648,1,0,0:0:0:0:
396,52,148848,6,0,L|432:140,1,75,4|0,0:3|0:0,0:0:0:0:
360,240,149248,2,0,L|324:152,1,75,8|4,0:0|0:3,0:0:0:0:
184,148,149648,2,0,P|136:180|88:192,1,75,4|0,0:3|0:0,0:0:0:0:
204,60,150048,2,0,P|256:88|284:120,1,75,8|0,0:0|0:0,0:0:0:0:
404,160,150448,2,0,P|436:128|444:92,1,75,8|0,0:0|0:0,0:0:0:0:
320,160,150848,5,4,0:0:0:0:
320,160,151048,2,0,P|280:208|280:304,1,150,8|4,0:0|0:3,0:0:0:0:
376,252,151648,1,8,0:0:0:0:
480,232,151848,1,0,0:0:0:0:
484,128,152048,1,4,0:3:0:0:
392,76,152248,1,0,0:0:0:0:
392,76,152448,2,0,P|320:60|224:68,1,150,8|4,0:0|0:3,0:0:0:0:
116,228,153248,2,0,P|188:244|284:236,2,150,8|0|4,0:0|0:0|0:3,0:0:0:0:
48,148,154248,6,0,B|80:116|72:76|72:76|112:92|160:64,1,150,8|4,0:0|0:3,0:0:0:0:
244,56,154848,1,8,0:0:0:0:
340,100,155048,1,0,0:0:0:0:
408,180,155248,2,0,L|432:256,1,75,4|0,0:3|0:3,0:0:0:0:
256,192,155648,12,0,156848,0:0:0:0:
136,72,157248,6,0,B|152:136|100:200|136:252,2,150,4|8|8,0:0|0:0|0:0,0:0:0:0:
240,92,158248,1,0,0:0:0:0:
336,136,158448,1,4,0:3:0:0:
392,47,158648,2,0,P|432:95|360:239,1,225,0|4,0:0|0:3,0:0:0:0:
276,240,159448,1,0,0:0:0:0:
184,288,159648,1,8,0:0:0:0:
88,244,159848,2,0,P|48:208|40:180,2,75
184,200,160448,6,0,P|232:148|320:152,2,150,4|8|8,0:3|0:0|0:0,0:0:0:0:
248,284,161448,1,0,0:0:0:0:
348,312,161648,1,4,0:3:0:0:
424,240,161848,2,0,B|432:144|404:95|404:95|360:88|320:40,1,225,0|4,0:0|0:3,0:0:0:0:
232,68,162648,1,0,0:0:0:0:
140,116,162848,1,8,0:0:0:0:
44,72,163048,1,0,0:0:0:0:
36,176,163248,2,0,P|48:220|68:256,1,75,0|0,0:0|0:0,0:0:0:0:
152,304,163648,5,4,0:3:0:0:
152,304,163848,2,0,P|184:264|304:272,1,150,8|4,0:0|0:3,0:0:0:0:
404,212,164448,2,0,P|372:172|252:180,1,150,8|4,0:0|0:3,0:0:0:0:
188,112,165048,1,0,0:0:0:0:
188,112,165248,2,0,B|144:144|80:144|60:192|76:232,1,150,8|4,0:0|0:3,0:0:0:0:
324,112,166048,2,0,B|368:144|432:144|452:192|436:232,2,150,8|0|4,0:0|0:0|0:3,0:0:0:0:
220,92,167048,6,0,B|176:200|176:200|180:240,1,150,8|4,0:0|0:3,0:0:0:0:
280,256,167648,2,0,L|312:172,1,75,8|0,0:0|0:0,0:0:0:0:
384,280,168048,2,0,L|428:352,1,75,4|0,0:3|0:3,0:0:0:0:
464,220,168448,6,0,L|448:168,3,37.5,0|0|0|0,1:0|1:0|1:0|1:0,1:0:0:0:
400,184,168848,2,0,L|384:120,3,37.5,0|0|0|0,1:0|1:0|1:0|1:0,1:0:0:0:
340,152,169248,2,0,L|324:88,3,37.5
280,120,169648,2,0,L|264:56,3,37.5
232,120,170048,6,0,B|152:144|152:144|124:188|124:240,1,150,6|8,0:0|0:0,0:0:0:0:
164,304,170648,1,2,0:0:0:0:
256,252,170848,2,0,L|344:240,1,75,10|0,0:0|0:0,0:0:0:0:
360,344,171248,2,0,L|448:332,1,75,10|0,0:0|0:0,0:0:0:0:
424,228,171648,1,8,0:0:0:0:
412,124,171848,1,2,0:0:0:0:
344,44,172048,1,10,0:0:0:0:
260,108,172248,1,0,0:0:0:0:
168,156,172448,2,0,P|124:176|84:184,1,75,8|0,0:0|0:0,0:0:0:0:
190,82,172848,2,0,P|226:91|259:108,1,75,8|0,0:0|0:0,0:0:0:0:
356,148,173248,6,0,P|396:96|396:72,1,75,2|0,0:0|0:0,0:0:0:0:
260,192,173648,2,0,P|220:244|220:268,1,75,8|2,0:0|0:0,0:0:0:0:
280,336,174048,1,10,0:0:0:0:
356,264,174248,1,0,0:0:0:0:
456,300,174448,1,10,0:0:0:0:
448,196,174648,2,0,P|436:136|396:48,1,150,0|2,0:0|0:0,0:0:0:0:
296,68,175248,2,0,P|248:72|216:60,1,75,10|0,0:0|0:0,0:0:0:0:
116,64,175648,5,8,0:0:0:0:
56,152,175848,1,0,0:0:0:0:
116,64,176048,1,8,0:0:0:0:
180,148,176248,1,0,0:0:0:0:
252,224,176448,6,0,P|280:256|368:212,2,150,4|8|8,0:0|0:0|0:0,0:0:0:0:
148,224,177448,1,0,0:0:0:0:
116,324,177648,1,4,0:3:0:0:
40,252,177848,2,0,P|28:168|32:96,1,150,8|4,0:0|0:3,0:0:0:0:
132,76,178448,2,0,P|172:64|204:32,1,75,4|0,0:3|0:0,0:0:0:0:
300,44,178848,2,0,P|360:68|392:156,1,150,8|0,0:0|0:0,0:0:0:0:
232,276,179648,6,0,B|180:276|180:276|144:296|144:296|76:296,2,150,4|8|8,0:3|0:0|0:0,0:0:0:0:
336,292,180648,1,0,0:0:0:0:
436,320,180848,1,4,0:3:0:0:
412,220,181048,2,0,P|368:180|336:92,1,150,8|4,0:0|0:3,0:0:0:0:
232,96,181648,2,0,P|209:167|157:220,2,150,4|8|8,0:3|0:0|0:0,0:0:0:0:
304,20,182648,1,0,0:0:0:0:
388,92,182848,6,0,L|452:148,1,75,6|0,0:0|0:0,0:0:0:0:
380,236,183248,2,0,L|324:187,1,75,8|2,0:0|0:0,0:0:0:0:
212,176,183648,1,2,0:0:0:0:
248,276,183848,1,0,0:0:0:0:
148,304,184048,1,10,0:0:0:0:
57,253,184248,2,0,P|89:217|117:205,1,75
212,176,184648,2,0,P|244:158|267:129,2,75,2|10|0,0:0|0:0|0:0,0:0:0:0:
168,80,185248,5,2,0:0:0:0:
264,36,185448,1,0,0:0:0:0:
356,88,185648,1,8,0:0:0:0:
456,56,185848,1,0,0:0:0:0:
468,160,186048,6,0,L|444:252,1,75,2|0,0:0|0:0,0:0:0:0:
364,296,186448,1,8,0:0:0:0:
272,244,186648,1,2,0:0:0:0:
180,296,186848,2,0,P|120:304|84:296,1,75,2|0,0:0|0:0,0:0:0:0:
40,220,187248,1,10,0:0:0:0:
84,124,187448,2,0,L|152:80,1,75
252,80,187848,2,0,P|324:92|336:88,2,75,2|10|0,0:0|0:0|0:0,0:0:0:0:
200,172,188448,5,2,0:0:0:0:
316,284,188648,1,0,0:0:0:0:
200,284,188848,1,0,0:0:0:0:
316,172,189048,1,0,0:0:0:0:
260,228,189248,5,4,0:0:0:0:
144,228,191648,6,0,P|167:257|200:274,1,75
312,272,192048,2,0,P|344:254|367:225,1,75
256,156,192448,1,4,0:3:0:0:
256,192,194048,12,4,195648,0:0:0:0:
