osu file format v14

[General]
AudioFilename: Jessie J - Flashlight (From Pitch Perfect 2).mp3
AudioLeadIn: 1000
PreviewTime: 39080
Countdown: 0
SampleSet: Soft
StackLeniency: 0.7
Mode: 0
LetterboxInBreaks: 0
WidescreenStoryboard: 0

[Editor]
DistanceSpacing: 1
BeatDivisor: 1
GridSize: 4
TimelineZoom: 1

[Metadata]
Title:Flashlight
TitleUnicode:Flashlight
Artist:Jessie J
ArtistUnicode:Jessie J
Creator:ihewmatt
Version:Normal
Source:Pitch Perfect 2
Tags:CutVersion MaterialMusic CrimmiSkye
BeatmapID:711922
BeatmapSetID:319889

[Difficulty]
HPDrainRate:4
CircleSize:3
OverallDifficulty:4
ApproachRate:5
SliderMultiplier:1.19999990463257
SliderTickRate:1

[Events]
//Background and Video events
0,0,"jj.png",0,0
//Break Periods
//Storyboard Layer 0 (Background)
//Storyboard Layer 1 (Fail)
//Storyboard Layer 2 (Pass)
//Storyboard Layer 3 (Foreground)
//Storyboard Sound Samples

[TimingPoints]
162,405.405405405405,4,2,1,40,1,0
39486,-100,4,2,1,40,0,1
64621,-100,4,2,1,40,0,0

[Colours]
Combo1 : 109,103,137
Combo2 : 255,0,0
Combo3 : 128,128,255
Combo4 : 128,128,128

[HitObjects]
100,60,162,6,0,P|56:108|60:168,1,119.999990463257,2|0,0:0|0:0,0:0:0:0:
176,144,972,2,0,P|204:200|184:264,2,119.999990463257,2|0|2,0:0|0:0|0:0,0:0:0:0:
236,40,2189,6,0,L|380:40,2,119.999990463257,0|2|0,0:0|0:0|0:0,0:0:0:0:
176,144,3405,2,8,P|184:208|228:248,1,119.999990463257,2|0,0:0|0:0,0:0:0:0:
312,164,4216,6,0,P|360:204|368:260,1,119.999990463257,2|0,0:0|0:0,0:0:0:0:
248,268,5026,2,0,P|200:304|140:308,2,119.999990463257,2|0|2,0:0|0:0|0:0,0:0:0:0:
312,164,6243,5,0,0:0:0:0:
432,172,6648,2,0,P|468:128|472:60,1,119.999990463257,2|0,0:0|0:0,0:0:0:0:
356,44,7459,6,0,P|296:40|240:60,1,119.999990463257,2|0,0:0|0:0,0:0:0:0:
148,136,8270,2,0,L|148:276,2,119.999990463257,2|0|2,0:0|0:0|0:0,0:0:0:0:
256,192,9891,12,2,12324,0:0:0:0:
256,192,13134,5,2,0:0:0:0:
148,136,13540,1,0,0:0:0:0:
248,68,13945,2,8,P|364:52|464:116,1,239.999980926514,2|2,0:0|0:0,0:0:0:0:
448,236,15161,5,0,0:0:0:0:
328,244,15567,2,0,L|200:244,1,119.999990463257,2|0,0:0|0:0,0:0:0:0:
228,124,16378,2,0,P|112:100|12:172,1,239.999980926514,2|2,0:0|0:0,0:0:0:0:
28,284,17594,5,0,0:0:0:0:
144,316,17999,2,8,P|204:332|260:304,1,119.999990463257,2|0,0:0|0:0,0:0:0:0:
332,216,18810,2,8,P|444:192|480:76,1,239.999980926514,2|2,0:0|0:0,0:0:0:0:
364,108,20026,5,0,0:0:0:0:
272,28,20432,1,2,0:0:0:0:
248,145,20837,1,0,0:0:0:0:
364,108,21243,2,8,P|392:220|324:324,1,239.999980926514,2|2,0:0|0:0,0:0:0:0:
212,344,22459,5,0,0:0:0:0:
96,316,22864,2,0,L|96:64,1,239.999980926514,2|2,0:0|0:0,0:0:0:0:
212,44,24080,1,0,0:0:0:0:
332,44,24486,2,0,P|436:104|484:232,1,239.999980926514,2|2,0:0|0:0,0:0:0:0:
368,240,25702,2,8,B|348:286|400:296|376:368,1,119.999990463257,0|10,0:0|0:0,0:0:0:0:
260,340,26513,5,0,0:0:0:0:
264,220,26918,2,0,L|20:220,1,239.999980926514,10|10,0:0|0:0,0:0:0:0:
32,100,28134,1,0,0:0:0:0:
144,56,28540,2,8,P|260:28|376:68,1,239.999980926514,10|10,0:0|0:0,0:0:0:0:
440,164,29756,5,0,0:0:0:0:
368,260,30162,2,8,P|256:300|140:256,1,239.999980926514,10|10,0:0|0:0,0:0:0:0:
79,161,31378,1,0,0:0:0:0:
200,164,31783,2,8,L|440:164,1,239.999980926514,10|10,0:0|0:0,0:0:0:0:
428,284,32999,5,0,0:0:0:0:
308,280,33405,2,8,B|256:276|256:328|191:310,1,119.999990463257,10|0,0:0|0:0,0:0:0:0:
76,320,34216,6,8,P|92:204|56:84,1,239.999980926514,10|10,0:0|0:0,0:0:0:0:
172,48,35432,1,0,0:0:0:0:
292,44,35837,2,8,P|408:56|484:156,1,239.999980926514,10|10,0:0|0:0,0:0:0:0:
440,260,37053,5,0,0:0:0:0:
320,264,37459,2,8,L|76:264,1,239.999980926514,10|10,0:0|0:0,0:0:0:0:
72,144,38675,2,12,P|116:108|184:100,1,119.999990463257,0|12,0:0|0:0,0:0:0:0:
296,112,39486,5,0,0:0:0:0:
343,222,39891,2,8,P|335:286|363:338,1,119.999990463257,8|0,0:0|0:0,0:0:0:0:
458,266,40702,5,10,0:0:0:0:
397,161,41107,2,0,P|352:120|296:112,1,119.999990463257,0|8,0:0|0:0,0:0:0:0:
228,212,41918,2,0,P|172:188|132:132,1,119.999990463257,0|12,0:0|0:0,0:0:0:0:
200,40,42729,5,0,0:0:0:0:
320,40,43134,1,8,0:0:0:0:
440,40,43540,1,0,0:0:0:0:
444,160,43945,6,0,L|444:288,1,119.999990463257,10|0,0:0|0:0,0:0:0:0:
340,340,44756,2,0,L|340:220,1,119.999990463257,8|0,0:0|0:0,0:0:0:0:
340,100,45567,1,12,0:0:0:0:
220,100,45972,1,0,0:0:0:0:
112,156,46378,6,0,P|95:212|107:271,1,119.999990463257,8|0,0:0|0:0,0:0:0:0:
212,212,47189,2,8,P|276:208|324:244,1,119.999990463257,10|0,0:0|0:0,0:0:0:0:
432,284,47999,1,8,0:0:0:0:
320,328,48405,2,12,P|272:376|216:376,1,119.999990463257,0|10,0:0|0:0,0:0:0:0:
120,316,49216,6,0,L|68:264,2,59.9999952316285,0|0|8,0:0|0:0|0:0,0:0:0:0:
208,232,50026,1,0,0:0:0:0:
304,160,50432,2,0,L|441:160,1,119.999990463257,10|0,0:0|0:0,0:0:0:0:
468,48,51243,1,8,0:0:0:0:
348,40,51648,6,0,P|284:28|220:40,1,119.999990463257,0|12,0:0|0:0,0:0:0:0:
120,84,52459,1,0,0:0:0:0:
44,176,52864,1,8,0:0:0:0:
104,280,53270,6,0,P|140:324|204:332,1,119.999990463257,0|10,0:0|0:0,0:0:0:0:
224,216,54080,2,0,P|280:236|312:288,1,119.999990463257,0|8,0:0|0:0,0:0:0:0:
432,288,54891,6,0,P|476:249|485:191,1,119.999990463257,0|10,0:0|0:0,0:0:0:0:
448,76,55702,1,0,0:0:0:0:
328,84,56107,6,12,P|220:36|92:48,1,239.999980926514,8|14,0:0|0:0,0:0:0:0:
136,160,57324,2,0,L|60:160,2,59.9999952316285,0|0|8,0:0|0:0|0:0,0:0:0:0:
188,268,58134,2,0,P|236:228|252:168,1,119.999990463257,0|12,0:0|0:0,0:0:0:0:
331,84,58945,5,0,0:0:0:0:
429,154,59351,2,8,P|470:198|470:255,1,119.999990463257,8|0,0:0|0:0,0:0:0:0:
420,364,60161,2,4,L|292:364,1,119.999990463257,10|0,0:0|0:0,0:0:0:0:
180,364,60972,1,8,0:0:0:0:
60,364,61378,5,0,0:0:0:0:
56,244,61783,2,8,P|40:192|68:136,1,119.999990463257,10|0,0:0|0:0,0:0:0:0:
164,204,62594,6,0,L|224:204,2,59.9999952316285,8|0|0,0:0|0:0|0:0,0:0:0:0:
168,84,63405,2,0,L|94:85,2,59.9999952316285,12|0|0,0:0|0:0|0:0,0:0:0:0:
164,204,64216,2,8,P|200:240|272:248,1,119.999990463257,8|0,0:0|0:0,0:0:0:0:
256,192,65026,12,2,66648,0:0:0:0:
380,128,67459,5,2,0:0:0:0:
280,60,67864,2,0,P|216:52|152:68,1,119.999990463257,0|2,0:0|0:0,0:0:0:0:
96,164,68675,1,0,0:0:0:0:
192,236,69080,2,0,B|220:284|164:300|204:360,1,119.999990463257,2|0,0:0|0:0,0:0:0:0:
316,324,69891,2,0,B|368:308|368:352|444:328,1,119.999990463257,2|0,0:0|0:0,0:0:0:0:
256,192,70702,12,2,73135,0:0:0:0:
424,320,73945,6,0,P|448:264|432:196,1,119.999990463257,2|2,0:0|0:0,0:0:0:0:
376,104,74756,2,0,P|328:108|260:64,1,119.999990463257,2|0,0:0|0:0,0:0:0:0:
148,48,75567,2,0,P|92:36|32:48,1,119.999990463257,2|0,0:0|0:0,0:0:0:0:
92,152,76378,2,8,L|92:280,1,119.999990463257,2|0,0:0|0:0,0:0:0:0:
