osu file format v14

[General]
AudioFilename: Jessie J - Flashlight (From Pitch Perfect 2).mp3
AudioLeadIn: 1000
PreviewTime: 39080
Countdown: 0
SampleSet: Soft
StackLeniency: 0.7
Mode: 0
LetterboxInBreaks: 0
WidescreenStoryboard: 0

[Editor]
DistanceSpacing: 1
BeatDivisor: 4
GridSize: 4
TimelineZoom: 1

[Metadata]
Title:Flashlight
TitleUnicode:Flashlight
Artist:Jessie J
ArtistUnicode:Jessie J
Creator:ihewmatt
Version:Hard
Source:Pitch Perfect 2
Tags:CutVersion MaterialMusic CrimmiSkye
BeatmapID:712043
BeatmapSetID:319889

[Difficulty]
HPDrainRate:5
CircleSize:4
OverallDifficulty:5
ApproachRate:7
SliderMultiplier:1.39999990463257
SliderTickRate:2

[Events]
//Background and Video events
0,0,"jj.png",0,0
//Break Periods
//Storyboard Layer 0 (Background)
//Storyboard Layer 1 (Fail)
//Storyboard Layer 2 (Pass)
//Storyboard Layer 3 (Foreground)
//Storyboard Sound Samples

[TimingPoints]
162,405.405405405405,4,2,0,40,1,0
162,-100,4,2,1,40,0,0
39486,-100,4,2,1,40,0,1
65837,-100,4,2,1,40,0,0

[HitObjects]
230,273,162,6,0,P|190:261|162:237,1,69.9999952316285,2|0,0:0|0:0,0:0:0:0:
134,169,567,2,8,P|161:109|224:60,1,139.999990463257,0|2,0:0|0:0,0:0:0:0:
300,56,1175,1,0,0:0:0:0:
383,57,1378,2,8,P|441:98|474:160,1,139.999990463257,0|2,0:0|0:0,0:0:0:0:
468,240,1986,5,0,0:0:0:0:
412,300,2189,2,0,P|376:328|340:328,1,69.9999952316285
296,272,2594,1,2,0:0:0:0:
364,152,2797,1,0,0:0:0:0:
468,240,2999,2,8,P|424:184|364:152,1,139.999990463257,0|2,0:0|0:0,0:0:0:0:
284,156,3607,5,0,0:0:0:0:
204,168,3810,2,0,P|164:156|136:156,1,69.9999952316285
144,236,4216,2,8,P|80:216|52:152,1,139.999990463257,2|0,0:0|0:0,0:0:0:0:
204,168,4824,1,0,0:0:0:0:
204,168,5026,2,8,P|200:100|256:48,1,139.999990463257,2|0,0:0|0:0,0:0:0:0:
328,36,5634,5,0,0:0:0:0:
408,56,5837,2,0,P|448:112|432:180,1,139.999990463257,2|0,0:0|0:0,0:0:0:0:
364,224,6445,1,0,0:0:0:0:
276,104,6648,1,2,0:0:0:0:
196,88,6851,1,0,0:0:0:0:
276,104,7053,6,8,P|264:176|288:248,1,139.999990463257,0|2,0:0|0:0,0:0:0:0:
364,224,7661,1,0,0:0:0:0:
419,286,7864,2,0,P|380:306|353:305,1,69.9999952316285
364,224,8270,2,0,P|317:233|298:248,1,69.9999952316285,2|0,0:0|0:0,0:0:0:0:
222,270,8675,2,8,P|153:259|102:210,1,139.999990463257,0|2,0:0|0:0,0:0:0:0:
140,138,9283,5,0,0:0:0:0:
220,125,9486,2,8,P|180:71|111:63,1,139.999990463257,0|2,0:0|0:0,0:0:0:0:
32,86,10094,1,0,0:0:0:0:
140,138,10297,2,0,L|141:215,1,69.9999952316285
145,289,10702,1,2,0:0:0:0:
221,259,10905,5,0,0:0:0:0:
220,125,11107,2,8,P|237:197|219:264,1,139.999990463257,0|2,0:0|0:0,0:0:0:0:
145,289,11716,1,0,0:0:0:0:
221,259,11918,2,8,P|243:327|302:363,1,139.999990463257,0|2,0:0|0:0,0:0:0:0:
302,280,12526,1,0,0:0:0:0:
365,226,12729,6,0,L|419:174,2,69.9999952316285,0|0|2,0:0|0:0|0:0,0:0:0:0:
302,280,13337,1,0,0:0:0:0:
221,259,13540,2,8,P|185:263|153:282,1,69.9999952316285,0|0,0:0|0:0,0:0:0:0:
80,249,13945,2,8,P|30:200|28:129,1,139.999990463257,2|0,0:0|0:0,0:0:0:0:
101,168,14553,5,0,0:0:0:0:
174,130,14756,1,2,0:0:0:0:
194,277,14959,1,0,0:0:0:0:
218,200,15161,2,0,P|256:224|272:256,1,69.9999952316285
332,296,15567,2,0,P|394:339|460:328,1,139.999990463257,2|0,0:0|0:0,0:0:0:0:
409,261,16175,5,0,0:0:0:0:
427,182,16378,2,0,L|428:98,1,69.9999952316285,2|0,0:0|0:0,0:0:0:0:
376,49,16783,2,0,P|340:44|301:51,1,69.9999952316285
225,52,17189,2,8,P|156:59|117:116,1,139.999990463257,2|0,0:0|0:0,0:0:0:0:
198,130,17797,2,0,L|239:188,2,69.9999952316285,0|2|0,0:0|0:0|0:0,0:0:0:0:
117,113,18405,6,0,P|82:123|50:138,1,69.9999952316285
34,218,18810,2,0,P|26:288|43:357,1,139.999990463257,2|0,0:0|0:0,0:0:0:0:
125,360,19418,1,0,0:0:0:0:
205,341,19621,2,0,L|272:312,2,69.9999952316285,2|0|0,0:0|0:0|0:0,0:0:0:0:
125,360,20229,1,0,0:0:0:0:
123,278,20432,6,8,P|130:209|157:137,1,139.999990463257,2|0,0:0|0:0,0:0:0:0:
292,95,21040,1,0,0:0:0:0:
373,112,21243,2,0,P|357:47|292:16,1,139.999990463257,2|0,0:0|0:0,0:0:0:0:
221,52,21851,1,0,0:0:0:0:
292,95,22053,2,0,P|237:134|169:113,1,139.999990463257,2|0,0:0|0:0,0:0:0:0:
94,89,22661,5,0,0:0:0:0:
94,171,22864,2,0,P|94:212|109:245,2,69.9999952316285,2|0|0,0:0|0:0|0:0,0:0:0:0:
172,195,23472,1,0,0:0:0:0:
94,89,23675,2,0,P|160:49|228:55,1,139.999990463257,2|0,0:0|0:0,0:0:0:0:
292,95,24283,1,0,0:0:0:0:
369,125,24486,6,0,P|364:58|306:15,1,139.999990463257,2|0,0:0|0:0,0:0:0:0:
292,95,25094,1,0,0:0:0:0:
210,96,25297,2,0,L|126:96,2,69.9999952316285,2|0|0,0:0|0:0|0:0,0:0:0:0:
292,95,25905,1,0,0:0:0:0:
369,125,26107,1,10,0:0:0:0:
398,202,26310,5,0,0:0:0:0:
295,257,26513,2,0,P|365:257|397:193,1,139.999990463257,0|8,0:0|0:0,0:0:0:0:
369,125,27121,1,0,0:0:0:0:
292,95,27324,2,0,L|213:95,2,69.9999952316285,0|0|10,0:0|0:0|0:0,0:0:0:0:
216,213,27932,1,0,0:0:0:0:
161,153,28134,6,0,P|134:218|164:280,1,139.999990463257,0|10,0:0|0:0,0:0:0:0:
216,213,28743,1,0,0:0:0:0:
298,216,28945,2,0,L|438:216,1,139.999990463257,0|10,0:0|0:0,0:0:0:0:
460,137,29553,1,0,0:0:0:0:
460,137,29756,2,0,P|441:102|408:89,2,69.9999952316285,0|0|10,0:0|0:0|0:0,0:0:0:0:
438,216,30364,5,0,0:0:0:0:
480,286,30567,2,0,P|412:289|360:240,1,139.999990463257,0|10,0:0|0:0,0:0:0:0:
288,205,31175,1,0,0:0:0:0:
225,152,31378,2,0,L|144:152,1,69.9999952316285
94,96,31783,2,0,P|69:161|100:219,2,139.999990463257,10|0|10,0:0|0:0|0:0,0:0:0:0:
155,152,32797,5,0,0:0:0:0:
180,229,32999,2,0,P|208:293|282:309,2,139.999990463257,0|10|0,0:0|0:0|0:0,0:0:0:0:
261,233,34013,1,0,0:0:0:0:
155,152,34216,2,0,P|114:98|47:70,2,139.999990463257,10|0|10,0:0|0:0|0:0,0:0:0:0:
180,229,35229,1,0,0:0:0:0:
261,233,35432,6,0,L|339:233,2,69.9999952316285,0|0|10,0:0|0:0|0:0,0:0:0:0:
180,229,36040,1,0,0:0:0:0:
109,190,36243,2,0,P|81:169|64:137,1,69.9999952316285
145,118,36648,2,0,P|211:95|283:104,1,139.999990463257,10|0,0:0|0:0,0:0:0:0:
341,157,37256,1,0,0:0:0:0:
421,179,37459,6,0,P|406:209|372:233,1,69.9999952316285,10|0,0:0|0:0,0:0:0:0:
334,22,37864,2,0,B|365:86|306:95|341:157,1,139.999990463257,0|10,0:0|0:0,0:0:0:0:
421,179,38472,1,0,0:0:0:0:
336,293,38675,2,0,B|368:233|304:217|352:133,1,139.999990463257,0|12,0:0|0:0,0:0:0:0:
260,148,39283,1,0,0:0:0:0:
188,112,39486,6,0,P|205:69|196:18,3,69.9999952316285,0|0|8|0,0:0|0:0|0:0|0:0,0:0:0:0:
284,36,40297,2,0,L|424:36,1,139.999990463257,0|10,0:0|0:0,0:0:0:0:
471,103,40905,1,0,0:0:0:0:
404,148,41107,2,0,L|354:214,1,69.9999952316285
284,176,41513,2,0,L|284:36,1,139.999990463257,8|0,0:0|0:0,0:0:0:0:
203,42,42121,5,0,0:0:0:0:
130,79,42324,2,0,L|76:13,1,69.9999952316285,10|0,0:0|0:0,0:0:0:0:
137,160,42729,2,0,L|181:214,1,69.9999952316285
134,281,43134,2,0,P|200:297|256:252,2,139.999990463257,8|0|12,0:0|0:0|0:0,0:0:0:0:
65,236,44148,1,0,0:0:0:0:
111,169,44351,6,0,L|161:120,1,69.9999952316285
236,86,44756,2,0,L|306:86,2,69.9999952316285,8|0|0,0:0|0:0|0:0,0:0:0:0:
110,169,45364,1,0,0:0:0:0:
65,236,45567,2,0,P|63:279|76:311,2,69.9999952316285,12|0|0,0:0|0:0|0:0,0:0:0:0:
143,260,46175,1,0,0:0:0:0:
110,169,46378,6,0,L|108:92,1,69.9999952316285,8|0,0:0|0:0,0:0:0:0:
224,148,46783,2,8,B|167:200|193:229|138:261,1,139.999990463257,0|10,0:0|0:0,0:0:0:0:
160,340,47391,1,0,0:0:0:0:
244,340,47594,2,0,L|324:340,2,69.9999952316285,0|0|8,0:0|0:0|0:0,0:0:0:0:
244,256,48202,1,0,0:0:0:0:
104,256,48405,6,0,L|248:256,1,139.999990463257,0|12,0:0|0:0,0:0:0:0:
307,201,49013,1,0,0:0:0:0:
368,145,49216,2,0,L|417:91,1,69.9999952316285
443,171,49621,2,0,P|480:229|456:296,1,139.999990463257,8|0,0:0|0:0,0:0:0:0:
396,240,50229,1,0,0:0:0:0:
368,145,50432,6,0,L|368:60,2,69.9999952316285,12|0|0,0:0|0:0|0:0,0:0:0:0:
396,240,51040,2,4,L|326:240,1,69.9999952316285,0|8,0:0|0:0,0:0:0:0:
455,303,51445,1,0,0:0:0:0:
455,303,51648,2,0,P|489:244|459:178,1,139.999990463257,0|12,0:0|0:0,0:0:0:0:
412,118,52256,1,2,0:0:0:0:
412,118,52357,1,2,0:0:0:0:
412,118,52459,1,2,0:0:0:0:
256,172,52864,6,0,L|329:172,1,69.9999952316285,8|0,0:0|0:0,0:0:0:0:
200,77,53270,2,0,B|217:125|148:135|183:215,1,139.999990463257,0|10,0:0|0:0,0:0:0:0:
246,259,53878,1,0,0:0:0:0:
179,305,54080,2,0,L|99:305,2,69.9999952316285,0|0|8,0:0|0:0|0:0,0:0:0:0:
246,259,54689,1,0,0:0:0:0:
180,209,54891,6,0,P|145:203|98:213,1,69.9999952316285
81,131,55297,1,12,0:0:0:0:
141,75,55499,1,0,0:0:0:0:
203,20,55702,2,0,P|222:84|185:142,1,139.999990463257,0|8,0:0|0:0,0:0:0:0:
129,202,56310,1,0,0:0:0:0:
84,270,56513,6,0,P|93:337|157:369,1,139.999990463257,0|12,0:0|0:0,0:0:0:0:
161,288,57121,1,0,0:0:0:0:
129,202,57324,2,0,L|129:120,1,69.9999952316285
142,50,57729,2,2,L|194:50,2,34.9999976158143,14|2|2,0:0|0:0|0:0,0:0:0:0:
252,54,58134,2,0,L|252:124,1,69.9999952316285
316,177,58540,6,0,P|385:197|456:192,1,139.999990463257,10|0,0:0|0:0,0:0:0:0:
476,272,59148,1,0,0:0:0:0:
454,352,59351,2,0,P|422:337|401:304,1,69.9999952316285,8|0,0:0|0:0,0:0:0:0:
340,255,59756,2,0,P|292:211|297:140,1,139.999990463257,0|10,0:0|0:0,0:0:0:0:
368,180,60364,1,0,0:0:0:0:
376,100,60567,6,0,L|376:24,2,69.9999952316285,0|0|8,0:0|0:0|0:0,0:0:0:0:
368,180,61175,1,0,0:0:0:0:
340,255,61378,2,0,P|292:315|232:339,1,139.999990463257,0|12,0:0|0:0,0:0:0:0:
160,308,61986,1,0,0:0:0:0:
136,232,62189,2,0,L|64:232,1,69.9999952316285
140,152,62594,6,0,L|224:152,2,69.9999952316285,8|0|0,0:0|0:0|0:0,0:0:0:0:
136,232,63202,1,0,0:0:0:0:
159,307,63405,2,0,P|226:316|279:273,1,139.999990463257,12|0,0:0|0:0,0:0:0:0:
328,212,64013,1,0,0:0:0:0:
308,136,64216,2,0,P|372:64|412:64,2,139.999990463257,8|0|12,0:0|0:0|0:0,0:0:0:0:
328,212,65229,5,2,0:0:0:0:
328,212,65330,1,2,0:0:0:0:
328,212,65432,1,2,0:0:0:0:
376,276,65634,1,0,0:0:0:0:
300,304,65837,2,0,B|248:272|216:316|168:272,2,139.999990463257,2|0|2,0:0|0:0|0:0,0:0:0:0:
376,276,66851,5,0,0:0:0:0:
404,200,67053,2,0,B|420:148|464:168|456:64,1,139.999990463257,0|2,0:0|0:0,0:0:0:0:
378,96,67661,1,0,0:0:0:0:
298,77,67864,2,0,P|235:45|169:63,2,139.999990463257,0|2|0,0:0|0:0|0:0,0:0:0:0:
228,122,68878,1,0,0:0:0:0:
299,222,69080,6,0,P|232:173|231:111,2,139.999990463257,2|0|2,0:0|0:0|0:0,0:0:0:0:
305,139,70094,1,0,0:0:0:0:
368,84,70297,2,0,P|402:79|440:85,2,69.9999952316285,0|0|2,0:0|0:0|0:0,0:0:0:0:
305,139,70905,1,0,0:0:0:0:
299,222,71107,2,0,P|327:282|397:298,1,139.999990463257,0|2,0:0|0:0,0:0:0:0:
380,216,71716,5,0,0:0:0:0:
368,84,71918,1,0,0:0:0:0:
305,139,72121,1,0,0:0:0:0:
299,222,72324,2,0,B|243:198|211:254|155:202,1,139.999990463257,2|0,0:0|0:0,0:0:0:0:
96,160,72932,1,0,0:0:0:0:
136,88,73134,6,0,L|224:88,2,69.9999952316285,2|0|0,0:0|0:0|0:0,0:0:0:0:
96,160,73743,1,0,0:0:0:0:
152,220,73945,2,0,L|222:220,1,69.9999952316285,2|0,0:0|0:0,0:0:0:0:
276,156,74351,2,0,P|340:136|412:144,1,139.999990463257,0|2,0:0|0:0,0:0:0:0:
460,212,74959,1,0,0:0:0:0:
428,288,75161,6,0,P|356:312|288:300,1,139.999990463257,0|2,0:0|0:0,0:0:0:0:
244,236,75770,1,0,0:0:0:0:
276,156,75972,2,0,P|224:112|152:104,2,139.999990463257,0|2|0,0:0|0:0|0:0,0:0:0:0:
