osu file format v14

[General]
AudioFilename: 04 - Jessica Lange - The Name Game.mp3
AudioLeadIn: 0
PreviewTime: 47245
Countdown: 0
SampleSet: Soft
StackLeniency: 0.7
Mode: 0
LetterboxInBreaks: 0
WidescreenStoryboard: 0

[Editor]
Bookmarks: 7972,69063,98154,112336
DistanceSpacing: 1.1
BeatDivisor: 4
GridSize: 4
TimelineZoom: 1

[Metadata]
Title:The Name Game
TitleUnicode:The Name Game
Artist:Jessica Lange
ArtistUnicode:Jessica Lange
Creator:Sister Jude
Version:Easy
Source:American Horror Story: Asylum
Tags:sniqht cancel lana banana shirley ellis ryan murphy judy fx
BeatmapID:711339
BeatmapSetID:316809

[Difficulty]
HPDrainRate:2
CircleSize:3
OverallDifficulty:1.5
ApproachRate:2.5
SliderMultiplier:0.7
SliderTickRate:2

[Events]
//Background and Video events
0,0,"american-horror-story-asylum-27970-1920x1200-1280x768.jpg",0,0
Video,1221,"namegame.avi"
//Break Periods
2,98360,111206
//Storyboard Layer 0 (Background)
//Storyboard Layer 1 (Fail)
//Storyboard Layer 2 (Pass)
//Storyboard Layer 3 (Foreground)
//Storyboard Sound Samples

[TimingPoints]
706,363.636363636364,4,2,0,80,1,0
48706,-100,4,2,0,80,0,1
48796,-100,4,2,0,80,0,0

[Colours]
Combo1 : 128,255,255
Combo2 : 192,192,192
Combo3 : 29,46,44

[HitObjects]
256,296,7251,5,4,0:0:0:0:
88,312,7978,6,0,L|92:160,1,140,0|8,1:0|0:0,0:0:0:0:
128,96,9069,1,0,0:0:0:0:
196,48,9433,2,0,B|296:-4|292:92|408:40,1,210,0|8,1:0|0:0,0:0:0:0:
480,68,10887,6,0,B|496:116|496:116|484:204,2,140,0|8|0,1:0|0:0|1:0,0:0:0:0:
368,128,12887,1,0,0:0:0:0:
164,168,13796,2,0,P|168:212|212:264,1,105,0|0,1:0|0:0,0:0:0:0:
348,104,15251,2,0,P|344:60|300:8,1,105,0|0,1:0|0:0,0:0:0:0:
112,104,16706,6,0,B|80:188|100:236|100:236|136:216|176:208,1,210,0|8,1:0|0:0,0:0:0:0:
248,180,18160,2,0,B|281:173|317:153|317:153|337:201|305:285,1,210,0|8,1:0|0:0,0:0:0:0:
244,344,19615,2,0,P|176:340|132:272,2,140,0|8|0,1:0|0:0|1:0,0:0:0:0:
368,320,21615,1,0,0:0:0:0:
468,136,22524,2,0,P|436:92|376:72,1,105,0|0,1:0|0:0,0:0:0:0:
184,112,23978,2,0,B|176:168|176:168|188:216,1,105,0|0,1:0|0:0,0:0:0:0:
368,320,25433,6,0,P|440:328|452:212,1,210,0|8,1:0|0:0,0:0:0:0:
396,156,26887,2,0,L|404:36,2,105,0|0|8,1:0|0:0|0:0,0:0:0:0:
356,232,28342,2,0,B|250:279|254:183|154:235,1,210,0|8,1:0|0:0,0:0:0:0:
84,280,29796,1,0,1:0:0:0:
24,168,30342,1,0,0:0:0:0:
200,48,31251,6,0,L|352:44,1,140,0|8,1:0|0:0,0:0:0:0:
420,72,32342,1,0,0:0:0:0:
492,120,32706,2,0,P|508:168|488:232,2,105,0|0|8,1:0|0:0|0:0,0:0:0:0:
424,172,34160,6,0,B|368:180|352:248|352:248|304:268|244:240,1,210,0|8,1:0|0:0,0:0:0:0:
184,200,35615,2,0,L|180:88,2,105,0|0|8,1:0|0:0|0:0,0:0:0:0:
235,269,37069,2,0,B|129:316|133:220|33:272,1,210,0|8,1:0|0:0,0:0:0:0:
87,338,38524,1,0,1:0:0:0:
212,356,39069,1,0,0:0:0:0:
344,280,39978,6,0,L|348:128,1,140,0|8,1:0|0:0,0:0:0:0:
316,64,41069,1,0,0:0:0:0:
244,20,41433,2,0,P|192:8|136:24,2,105,0|0|8,1:0|0:0|0:0,0:0:0:0:
194,92,42887,1,0,1:0:0:0:
116,240,43615,1,8,0:0:0:0:
284,220,44342,2,0,P|336:236|392:208,2,105,0|8|0,1:0|0:0|0:0,0:0:0:0:
332,152,45796,2,0,L|336:8,2,140,0|8|0,1:0|0:0|1:0,0:0:0:0:
56,176,48706,6,0,P|44:232|112:284,1,140,0|8,1:0|0:0,0:0:0:0:
188,296,49796,1,0,0:0:0:0:
275,284,50160,2,0,B|351:280|351:280|419:284,2,140,0|8|0,1:0|0:0|1:0,0:0:0:0:
188,296,51978,1,0,0:0:0:0:
104,276,52342,2,0,P|76:248|64:216,1,70,8|0,0:0|0:0,0:0:0:0:
40,140,53069,2,0,L|48:28,1,105,0|8,1:0|0:0,0:0:0:0:
160,92,54160,1,0,0:0:0:0:
240,120,54524,6,0,P|300:136|384:112,1,140,0|8,1:0|0:0,0:0:0:0:
460,128,55615,1,0,0:0:0:0:
512,196,55978,2,0,P|528:268|512:348,2,140,0|8|0,1:0|0:0|1:0,0:0:0:0:
444,144,57796,1,0,0:0:0:0:
364,116,58160,2,0,L|288:112,1,70,8|0,0:0|0:0,0:0:0:0:
226,60,58887,2,0,B|179:166|275:162|223:262,1,210,0|8,1:0|0:0,0:0:0:0:
156,312,60342,6,0,L|72:316,2,70,0|0|8,1:0|0:0|0:0,0:0:0:0:
240,320,61433,1,0,0:0:0:0:
324,328,61796,2,0,P|392:312|420:252,1,140,0|8,1:0|0:0,0:0:0:0:
412,168,62887,1,0,0:0:0:0:
356,104,63251,2,0,L|360:28,2,70,0|0|8,1:0|0:0|0:0,0:0:0:0:
292,160,64342,1,0,0:0:0:0:
240,228,64706,2,0,B|216:280|228:336|228:336|136:300|136:368|60:324,1,280,0|0,1:0|1:0,0:0:0:0:
0,216,66706,5,0,0:0:0:0:
180,100,67615,2,0,P|232:92|296:104,1,105,0|0,1:0|0:0,0:0:0:0:
480,184,69069,6,0,L|480:256,2,70,0|0|0,1:0|0:0|0:0,0:0:0:0:
412,132,70160,1,8,0:0:0:0:
336,168,70524,2,0,L|264:168,2,70,0|0|0,1:0|0:0|0:0,0:0:0:0:
392,232,71615,1,8,0:0:0:0:
348,304,71978,2,0,P|288:332|216:289,1,140,0|0,1:0|0:0,0:0:0:0:
167,242,73069,1,8,0:0:0:0:
100,296,73433,2,0,B|48:196|144:200|92:84,1,210,0|8,1:0|0:0,0:0:0:0:
16,68,74887,2,0,P|84:12|180:80,1,210,0|8,1:0|0:0,0:0:0:0:
200,152,76342,2,0,L|204:228,1,70,0|0,1:0|0:0,0:0:0:0:
288,208,77069,2,0,L|292:284,1,70,8|0,0:0|0:0,0:0:0:0:
368,316,77796,5,0,1:0:0:0:
448,348,78160,1,8,0:0:0:0:
504,284,78524,2,0,P|524:220|492:148,1,140,0|0,0:0|1:0,0:0:0:0:
424,112,79615,1,8,0:0:0:0:
340,96,79978,2,8,L|192:92,1,140,0|0,0:0|1:0,0:0:0:0:
116,108,81069,1,8,0:0:0:0:
44,152,81433,1,0,0:0:0:0:
20,232,81796,1,8,0:0:0:0:
48,316,82160,2,0,B|148:368|144:272|260:324,1,210,0|8,1:0|0:0,0:0:0:0:
335,339,83615,5,0,1:0:0:0:
404,288,83978,2,0,L|408:144,1,140,8|8,0:0|0:0,0:0:0:0:
348,88,85069,1,0,1:0:0:0:
264,100,85433,1,8,0:0:0:0:
180,88,85796,2,0,P|148:84|100:92,1,70,0|8,0:0|0:0,0:0:0:0:
40,136,86524,2,0,P|24:204|48:280,1,140,0|0,1:0|0:0,0:0:0:0:
112,320,87615,1,8,0:0:0:0:
196,332,87978,2,0,L|336:332,1,140,0|0,1:0|0:0,0:0:0:0:
420,320,89069,1,8,0:0:0:0:
480,260,89433,6,0,B|488:232|488:232|484:204|484:204|528:128|472:52,1,210,0|8,1:0|0:0,0:0:0:0:
404,20,90887,1,0,0:0:0:0:
324,52,91251,1,0,1:0:0:0:
244,20,91615,1,8,1:0:0:0:
88,88,92342,6,0,B|80:132|64:156|64:156|80:176|80:176|64:236|120:280,1,210,0|8,1:0|0:0,0:0:0:0:
196,304,93796,2,0,L|340:308,1,140,0|0,1:0|0:0,0:0:0:0:
420,296,94887,1,8,0:0:0:0:
484,240,95251,6,0,P|516:144|472:44,1,210,0|8,1:0|0:0,0:0:0:0:
392,24,96706,1,0,1:0:0:0:
284,152,97433,1,0,1:0:0:0:
204,184,97796,1,4,0:0:0:0:
124,152,98160,1,4,1:0:0:0:
196,200,112706,6,0,B|292:200|365:235|365:235|384:304|384:304|340:361|340:361|260:360|160:328,1,490,0|8,1:0|0:0,0:0:0:0:
88,312,115615,6,0,L|92:100,1,210,0|8,1:0|0:0,0:0:0:0:
144,36,117069,2,0,B|208:16|280:32|280:32|312:20|356:36,1,210,0|8,1:0|0:0,0:0:0:0:
428,72,118524,2,0,L|424:284,1,210,0|8,1:0|0:0,0:0:0:0:
372,348,119978,2,0,B|308:368|236:352|236:352|204:364|160:348,1,210,0|8,1:0|0:0,0:0:0:0:
205,274,121433,1,0,1:0:0:0:
416,24,122887,6,0,B|463:129|367:125|419:225,1,210,0|8,1:0|0:0,0:0:0:0:
256,192,124342,12,0,128706,1:0:0:0:
100,272,130160,6,0,P|80:212|112:136,1,140,0|8,1:0|0:0,0:0:0:0:
176,96,131251,1,0,0:0:0:0:
260,80,131615,2,0,L|400:80,1,140,0|4,1:0|0:0,0:0:0:0:
484,80,132706,1,0,0:0:0:0:
256,192,133069,12,0,135887,0:0:0:0:
