osu file format v5

[General]
AudioFilename: how do you sleep.mp3
AudioLeadIn: 0
PreviewTime: -1
Countdown: 1
SampleSet: Normal
StackLeniency: 0.7
Mode: 0
LetterboxInBreaks: 1

[Metadata]
Title:How Do You Sleep
Artist:Jesse McCartney
Creator:Cariita
Version:Normal
Source:
Tags:

[Difficulty]
HPDrainRate:5
CircleSize:5
OverallDifficulty:5
SliderMultiplier:1.1
SliderTickRate:1

[Events]
//Background and Video events
0,0,"jessemccartney1by1rm0.jpg"
//Break Periods
2,35215,40143
//Storyboard Layer 0 (Background)
//Storyboard Layer 1 (Failing)
//Storyboard Layer 2 (Passing)
//Storyboard Layer 3 (Foreground)
//Storyboard Sound Samples
//Background Colour Transformations
3,100,210,252,114

[TimingPoints]
0,375,4,1,0,100,1,0

[Colours]
Combo1 : 53,180,202
Combo2 : 255,255,255
Combo3 : 0,128,255
Combo4 : 192,192,192

[HitObjects]
128,288,17343,1,0
224,192,17484,1,0
320,288,17671,1,0
224,288,18093,5,0
128,224,19453,1,0
320,224,20015,1,0
224,96,20906,1,0
224,256,21750,1,0
224,192,22359,1,0
224,128,22687,1,0
224,192,23062,1,0
160,224,23906,5,0
160,192,24234,1,0
160,160,24515,1,0
256,160,25031,1,0
256,192,25359,1,0
256,224,25640,1,0
288,256,25968,1,0
192,256,28218,1,0
192,224,28546,1,0
192,128,29109,1,0
128,160,30515,5,0
160,160,30796,1,0
192,160,31031,1,0
288,160,31546,1,0
352,160,32062,1,0
224,192,33000,1,0
224,224,33281,1,0
224,256,33562,1,0
288,256,34171,1,0
288,224,34406,1,0
288,192,34734,1,0
320,160,35015,1,0
128,96,41343,6,0,B|384:96,1,247.5
128,256,42843,2,0,B|384:256,1,247.5
224,320,44390,2,0,B|224:64,1,247.5
160,256,45937,5,0
160,224,46218,1,0
160,192,46453,1,0
160,128,48187,1,0
224,128,48515,1,0
288,128,48843,1,0
288,256,50671,1,8
256,224,51140,1,8
224,192,51750,1,8
192,160,52359,1,8
160,128,52921,1,8
128,96,53484,1,8
128,224,54234,2,0,B|224:224,2,82.5
192,288,55406,2,0,B|288:288,2,82.5
192,288,56625,1,0
320,96,57843,2,0,B|192:96,1,123.75
128,160,58359,2,0,B|256:160,2,123.75
224,256,60140,2,0,B|224:128,2,123.75
224,256,61312,1,0
128,256,62390,5,0
160,192,62859,1,0
192,160,63046,1,0
224,128,63281,1,0
288,128,63703,1,0
224,288,64781,1,0
224,224,65343,1,0
224,160,66000,1,0
320,192,66937,1,0
384,192,67546,1,0
448,192,68203,1,0
160,288,69328,1,0
160,256,69562,1,0
160,224,69843,1,0
256,288,70453,1,0
256,256,70734,1,0
256,224,70968,1,0
288,192,71296,1,2
192,256,72140,5,0
192,192,72703,1,0
192,128,73218,1,0
288,128,73828,1,0
288,192,74390,1,0
288,256,75000,1,0
96,288,76031,1,0
160,288,76593,1,0
224,288,77296,1,0
160,192,78234,1,0
160,160,78562,1,0
160,128,78937,1,0
256,160,79453,1,0
256,192,79734,1,0
256,224,80062,1,0
288,256,80343,1,2
256,192,80765,12,0,81468
256,192,82640,12,0,83484
256,192,84750,12,0,85687
192,160,87234,6,0,B|320:160,2,123.75
192,256,88500,2,0,B|320:256,1,123.75
320,256,89203,1,0
192,192,89671,2,0,B|320:192,2,123.75
352,320,91546,2,0,B|352:128,1,178.75
192,320,93328,2,0,B|192:128,1,178.75
64,192,94968,2,0,B|320:192,1,247.5
64,288,96421,2,0,B|224:288,1,151.25
224,288,97593,2,0,B|352:288,1,123.75
352,288,98203,1,0
64,160,98812,2,0,B|384:160,1,316.25
