osu file format v9

[General]
AudioFilename: 1858 Si Te Vas.mp3
AudioLeadIn: 1996
PreviewTime: 67402
Countdown: 0
SampleSet: Normal
StackLeniency: 0.7
Mode: 1
LetterboxInBreaks: 0

[Editor]
DistanceSpacing: 0
BeatDivisor: 4
GridSize: 4

[Metadata]
Title:Si Te Vas
Artist:Jesse & Joy
Creator:Krisom
Version:Taiko Oni
Source:
Tags:Electricidad

[Difficulty]
HPDrainRate:5
CircleSize:5
OverallDifficulty:5
ApproachRate:5
SliderMultiplier:1.4
SliderTickRate:2

[Events]
//Background and Video events
0,0,"BG.jpg"
//Break Periods
//Storyboard Layer 0 (Background)
Sprite,Background,Centre,"SB\Black.jpg",320,240 M,0,26284,,310,98 S,0,26284,,0.8156798 F,0,26284,27974,0,1 F,0,27974,231065,1,0.9923077 F,0,231065,232755,0.9923077,0
//Storyboard Layer 1 (Fail)
//Storyboard Layer 2 (Pass)
//Storyboard Layer 3 (Foreground)
Sprite,Foreground,Centre,"SB\Que desquiciante es vivir.png",320,240 S,0,27974,,0.8668801 F,0,27974,28393,0,1 M,0,27974,33848,325,54,334,53 F,0,28393,33008,1,0.9785203 F,0,33008,33848,0.9785203,0
Sprite,Foreground,Centre,"SB\Con la razon de tu lado.png",320,240 S,0,29652,,0.92832 F,0,29652,30071,0,1 M,0,29652,33848,386,90,358,90 F,0,30071,33008,1 F,0,33008,33848,1,0
Sprite,Foreground,Centre,"SB\Esa manera de hablar.png",320,240 S,0,34687,,0.8668801 F,0,34687,35106,0,1 M,0,34687,40561,334,62,297,63 F,0,35106,39722,1,0.9952267 F,0,39722,40561,0.9952267,0
Sprite,Foreground,Centre,"SB\con semejante bocado.png",320,240 S,0,36365,,0.8975999 F,0,36365,36785,0,1 M,0,36365,40561,395,103,364,104 F,0,36785,39722,1,0.9714286 F,0,39722,40561,0.9714286,0
Sprite,Foreground,Centre,"SB\que me anticipes el fin.png",320,240 S,0,41400,,0.9488 F,0,41400,41820,0,1 M,0,41400,47274,335,57,362,59 F,0,41820,46435,1,0.9833333 F,0,46435,47274,0.9833333,0
Sprite,Foreground,Centre,"SB\de algo que no ha comenzado.png",320,240 S,0,43078,,0.9385599 F,0,43078,43498,0,1 M,0,43078,47274,390,104,347,105 F,0,43498,46435,1,0.9833333 F,0,46435,47274,0.9833333,0
Sprite,Foreground,Centre,"SB\que te platique mi dia.png",320,240 S,0,48113,,0.9488 F,0,48113,48533,0,1 M,0,48113,53987,357,56,305,54 F,0,48533,53148,1,0.9833333 F,0,53148,53987,0.9833333,0
Sprite,Foreground,Centre,"SB\y que te gane el cansancio.png",320,240 S,0,49792,,0.93856 F,0,49792,50211,0,1 M,0,49792,53987,391,95,338,95 F,0,50211,53148,1,0.9832935 F,0,53148,53987,0.9832935,0
Sprite,Foreground,Centre,"SB\Pero me he imaginado.png",320,240 M,0,54827,,320,79 F,0,54827,55246,0,1 S,0,54827,60701,0.8771201,0.98976 F,0,55246,59862,1,0.9904535 F,0,59862,60701,0.9904535,0
Sprite,Foreground,Centre,"SB\la cama vacia en tu lado.png",320,240 M,0,61120,,326,105 F,0,61120,61540,0,1 S,0,61120,66155,0.8566402,0.95904 F,0,61540,65736,1 F,0,65736,66155,1,0
Sprite,Foreground,Centre,"SB\Y no!.png",320,240 F,0,66155,66365,0,1 M,0,66365,,334,98 F,0,66365,67204,1,0
Sprite,Foreground,Centre,"SB\Y no!.png",320,240 M,0,66365,,334,98 F,0,66365,66785,1,0 S,0,66365,66785,1,1.22528
Sprite,Foreground,Centre,"SB\Si te vas mi vida que sera.png",320,240 S,0,67414,,0.8054399 F,0,67414,67834,0,1 M,0,67414,70788,373,47,370,77 F,0,67834,70365,1 F,0,70365,70788,1,0
Sprite,Foreground,Centre,"SB\Si no estas mi alma extranara.png",320,240 S,0,70788,,0.7542402 F,0,70788,71210,0,1 M,0,70788,74168,368,40,370,72 F,0,71210,73745,1 F,0,73745,74168,1,0
Sprite,Foreground,Centre,"SB\Tu imperfecta personalidad.png",320,240 S,0,74168,,0.7952 F,0,74168,74591,0,1 M,0,74168,77548,381,51,379,63 F,0,74591,77126,1,0.9979733 F,0,77126,77548,0.9979733,0
Sprite,Foreground,Centre,"SB\que me desespera y quiero mas.png",320,240 M,0,77548,,349,79 F,0,77548,77971,0,1 S,0,77548,80929,0.66208,0.7542401 F,0,77971,80506,1 F,0,80506,80929,1,0
Sprite,Foreground,Centre,"SB\Si te vas mi vida que sera.png",320,240 S,0,80929,,0.7337599 F,0,80929,81351,0,1 M,0,80929,84309,353,117,349,90 F,0,81351,83886,1 F,0,83886,84309,1,0
Sprite,Foreground,Centre,"SB\Si no estas mi alma extranara.png",320,240 S,0,84309,,0.7542397 F,0,84309,84731,0,1 M,0,84309,87689,369,126,357,99 F,0,84731,87267,1 F,0,87267,87689,1,0
Sprite,Foreground,Centre,"SB\que me desespera y quiero mas y mas.png",320,240 M,0,91069,,380,60 F,0,91069,91492,0,1 S,0,91069,94027,0.6723202,0.7644804 F,0,91492,93605,1 F,0,93605,94027,1,0
Sprite,Foreground,Centre,"SB\que me desespera y quiero mas.png",320,240
Sprite,Foreground,Centre,"SB\que me desespera y quiero mas y mas.png",320,240 M,0,93605,,380,60 F,0,93605,94027,0.9984,0 S,0,93605,94027,0.75424,0.7952 F,0,94027,,0
Sprite,Foreground,Centre,"SB\Tu imperfecta personalidad.png",320,240 S,0,87689,,0.77472 F,0,87689,88112,0,1 M,0,87689,91069,365,130,364,95 F,0,88112,90647,1 F,0,90647,91069,1,0
Sprite,Foreground,Centre,"SB\Esa mania que tienes.png",320,240 S,0,108816,,0.8361601 F,0,108816,109235,0,1 M,0,108816,114690,313,59,341,62 F,0,109235,113850,1,0.9880669 F,0,113850,114690,0.9880669,0
Sprite,Foreground,Centre,"SB\de tronarte los dedos.png",320,240 S,0,110494,,0.8976 F,0,110494,110913,0,1 M,0,110494,114690,394,104,368,104 F,0,110913,113850,1,0.9952267 F,0,113850,114690,0.9952267,0
Sprite,Foreground,Centre,"SB\que si te muerdes las unas.png",320,240 S,0,115529,,0.8976 F,0,115529,115948,0,1 M,0,115529,121403,351,60,388,60 F,0,115948,120564,1 F,0,120564,121403,1,0
Sprite,Foreground,Centre,"SB\o te agarras el pelo.png",320,240 S,0,117207,,0.93856 F,0,117207,117627,0,1 M,0,117207,121403,427,103,387,105 F,0,117627,120564,1,0.9857143 F,0,120564,121403,0.9857143,0
Sprite,Foreground,Centre,"SB\que no te quejes de mi.png",320,240 S,0,122242,,0.93856 F,0,122242,122662,0,1 M,0,122242,128116,400,57,360,58 F,0,122662,127277,1 F,0,127277,128116,1,0
Sprite,Foreground,Centre,"SB\como yo siempre me quejo.png",320,240 S,0,123920,,0.8976 F,0,123920,124340,0,1 M,0,123920,128116,360,98,380,98 F,0,124340,127277,1,0.9190476 F,0,127277,128116,0.9190476,0
Sprite,Foreground,Centre,"SB\Que amas todo de mi.png",320,240 S,0,128955,,0.9488 F,0,128955,129375,0,1 M,0,128955,134829,348,79,309,79 F,0,129375,133990,1 F,0,133990,134829,1,0
Sprite,Foreground,Centre,"SB\como te adoro mi cielo.png",320,240 S,0,130634,,0.9385602 F,0,130634,131053,0,1 M,0,130634,134829,297,123,321,123 F,0,131053,133990,1,0.9904535 F,0,133990,134829,0.9904535,0
Sprite,Foreground,Centre,"SB\como vivir sin defectos.png",320,240 M,0,135669,,318,87 F,0,135669,136088,0,1 S,0,135669,140704,0.7963201,0.8873601 F,0,136088,140284,1 F,0,140284,140704,1,0
Sprite,Foreground,Centre,"SB\y como vivir sin lo nuestro.png",320,240 M,0,141962,,316,104 F,0,141962,142382,0,1 S,0,141962,147207,0.8156799,0.86688 F,0,142382,146788,1 F,0,146788,147207,1,0
Sprite,Foreground,Centre,"SB\no.png",320,240 M,0,147207,,319,95 F,0,147207,148256,1,0.004761934 S,0,147207,148256,1,1.2048
Sprite,Foreground,Centre,"SB\Si te vas mi vida que sera.png",320,240 M,0,148256,,361,89 F,0,148256,148676,0,1 S,0,148256,151630,0.72352,0.8259199 F,0,148676,151207,1,0.9904762 F,0,151207,151630,0.9904762,0
Sprite,Foreground,Centre,"SB\Si no estas mi alma extranara.png",320,240 M,0,151630,,351,90 F,0,151630,152052,0,1 S,0,151630,155010,0.7030398,0.7849598 F,0,152052,154587,1 F,0,154587,155010,1,0
Sprite,Foreground,Centre,"SB\Tu imperfecta personalidad.png",320,240 M,0,155010,,350,92 F,0,155010,155433,0,1 S,0,155010,158390,0.7542402,0.8156801 F,0,155433,157968,1,0.9858156 F,0,157968,158390,0.9858156,0
Sprite,Foreground,Centre,"SB\que me desespera y quiero mas.png",320,240 F,0,158390,158813,0,1 M,0,158390,161771,363,91,367,78 S,0,158390,161771,0.7951999,0.8361599 F,0,158813,161348,1,0.9929078 F,0,161348,161771,0.9929078,0
Sprite,Foreground,Centre,"SB\Si te vas mi vida que sera.png",320,240 M,0,161771,,356,77 F,0,161771,162193,0,1 S,0,161771,165151,0.8361599,0.8054401 F,0,162193,164728,1,0.9905213 F,0,164728,165151,0.9905213,0
Sprite,Foreground,Centre,"SB\Si no estas mi alma extranara.png",320,240 M,0,165151,,356,77 F,0,165151,165573,0,1 S,0,165151,168531,0.7644801,0.7337601 F,0,165573,168109,1,0.9976304 F,0,168109,168531,0.9976304,0
Sprite,Foreground,Centre,"SB\Tu imperfecta personalidad.png",320,240 M,0,168531,,363,77 F,0,168531,168954,0,1 S,0,168531,171911,0.8361602,0.8054399 F,0,168954,171489,1 F,0,171489,171911,1,0
Sprite,Foreground,Centre,"SB\que me desespera y quiero mas y mas.png",320,240 F,0,171911,172334,0,1 M,0,171911,176137,380,78,383,98 S,0,171911,176137,0.7235202,0.7030402 F,0,172334,175714,1,0.9858156 F,0,175714,176137,0.9858156,0
Sprite,Foreground,Centre,"SB\Si te vas mi vida que sera.png",320,240 S,0,190080,,0.7849601 F,0,190080,190503,0,1 M,0,190080,193460,322,91,339,105 R,0,190080,193460,-0.04096008,-0.02048004 F,0,190503,193037,1 F,0,193037,193460,1,0
Sprite,Foreground,Centre,"SB\Si no estas mi alma extranara.png",320,240 S,0,193460,,0.82592 F,0,193460,193882,0,1 M,0,193460,196840,356,55,347,61 R,0,193460,196840,0.06144043,0.02048041 F,0,193882,196417,1 F,0,196417,196840,1,0
Sprite,Foreground,Centre,"SB\Tu imperfecta personalidad.png",320,240 S,0,196840,,0.8464 F,0,196840,197263,0,1 M,0,196840,200220,332,53,325,62 R,0,196840,200220,-0.04096001,-7.599592E-08 F,0,197263,199798,1 F,0,199798,200220,1,0
Sprite,Foreground,Centre,"SB\que me desespera y quiero mas.png",320,240 M,0,200220,,352,93 F,0,200220,200643,0,1 S,0,200220,203601,0.70416,0.7644799 R,0,200220,203601,-0.04096008,0.02047958 F,0,200643,203178,1 F,0,203178,203601,1,0
Sprite,Foreground,Centre,"SB\si te vas.png",320,240 S,0,203601,,1 F,0,203601,204023,0,1 M,0,203601,210361,265,53,315,53 F,0,204023,209939,1 F,0,209939,210361,1,0
Sprite,Foreground,Centre,"SB\si no estas.png",320,240 F,0,206981,207403,0,1 M,0,206981,210361,347,92,376,92 F,0,207403,209939,1,0.9976304 F,0,209939,210361,0.9976304,0
Sprite,Foreground,Centre,"SB\Tu imperfecta personalidad.png",320,240 S,0,210361,,0.83616 F,0,210361,210784,0,1 M,0,210361,213741,339,56,337,65 R,0,210361,213741,0.02047997,-0.04095985 F,0,210784,213319,1 F,0,213319,213741,1,0
Sprite,Foreground,Centre,"SB\que me desespera y quiero mas y mas.png",320,240 F,0,213741,214164,0,1 M,0,213741,218389,374,56,371,80 S,0,213741,218389,0.7337601,0.7235202 R,0,213741,218389,0.04096023,-0.04095998 F,0,214164,217967,1,0.9763594 F,0,217967,218389,0.9763594,0
//Storyboard Sound Samples
//Background Colour Transformations

[TimingPoints]
932,422.535211267606,4,1,0,100,1,0
27974,419.58041958042,4,1,0,100,1,0
68253,422.535211267606,4,1,0,100,1,1
95295,-100,4,1,0,100,0,0
108816,419.58041958042,4,1,0,100,1,0
149095,422.535211267606,4,1,0,100,1,1
176137,-100,4,1,0,100,0,0
190925,422.535211267606,4,1,0,100,1,1
217967,-100,4,1,0,100,0,0

[Colours]
Combo1 : 115,193,240
Combo2 : 6,210,190
SliderBorder : 91,185,202
SliderTrackOverride : 0,0,0

[HitObjects]
256,192,932,1,4
256,192,1143,1,0
256,192,1354,1,8
256,192,1565,1,0
256,192,1988,1,0
256,192,2199,1,8
256,192,2410,1,0
256,192,2622,1,0
256,192,2833,1,0
256,192,3044,1,8
256,192,3255,1,8
256,192,3467,1,0
256,192,3572,1,8
256,192,3678,1,0
256,192,3889,1,8
256,192,4312,1,0
256,192,4523,1,0
256,192,4734,1,8
256,192,4946,1,0
256,192,5368,1,0
256,192,5579,1,8
256,192,5791,1,8
256,192,6002,1,0
256,192,6213,1,0
256,192,6424,1,8
256,192,6636,1,0
256,192,6847,1,0
256,192,6953,1,8
256,192,7164,1,0
256,192,7270,1,8
256,192,7481,1,8
256,192,7692,1,4
256,192,7903,1,0
256,192,8115,1,8
256,192,8326,1,0
256,192,8748,1,0
256,192,8960,1,8
256,192,9171,1,0
256,192,9382,1,0
256,192,9593,1,0
256,192,9805,1,8
256,192,10016,1,8
256,192,10227,1,0
256,192,10333,1,8
256,192,10439,1,0
256,192,10650,1,8
256,192,10861,1,0
256,192,11072,1,0
256,192,11284,1,0
256,192,11495,1,8
256,192,11706,1,0
256,192,11917,1,0
256,192,12129,1,8
256,192,12340,1,8
256,192,12551,1,0
256,192,12762,1,0
256,192,12868,1,8
256,192,13079,1,0
256,192,13185,1,8
256,192,13396,1,8
256,192,13608,1,0
256,192,13713,1,8
256,192,13924,1,0
256,192,14030,1,8
256,192,14241,1,8
256,192,14453,1,12
256,192,14664,1,0
256,192,14875,1,0
256,192,15086,1,8
256,192,15509,1,8
256,192,15720,1,0
256,192,15931,1,0
256,192,16143,1,8
256,192,16354,1,8
256,192,16777,1,8
256,192,16988,1,0
256,192,17199,1,8
256,192,17410,1,0
256,192,17622,1,8
256,192,17833,1,0
256,192,18044,1,0
256,192,18255,1,8
256,192,18467,1,8
256,192,18889,1,8
256,192,19101,1,0
256,192,19312,1,8
256,192,19523,1,0
256,192,19734,1,0
256,192,20157,1,8
256,192,20368,1,0
256,192,20579,1,8
256,192,20791,1,0
256,192,21002,1,8
256,192,21108,1,8
256,192,21213,1,0
256,192,21424,1,0
256,192,21636,1,8
256,192,21847,1,8
256,192,22270,1,8
256,192,22481,1,0
256,192,22692,1,0
256,192,22903,1,8
256,192,23115,1,8
256,192,23537,1,8
256,192,23748,1,0
256,192,23960,1,8
256,192,24171,1,0
256,192,24382,1,8
256,192,24593,1,0
256,192,24805,1,0
256,192,25016,1,8
256,192,25227,1,8
256,192,25650,1,8
256,192,25861,1,0
256,192,26072,1,8
256,192,26284,1,0
256,192,26495,1,8
256,192,26706,1,0
256,192,26917,1,0
256,192,27129,1,0
256,192,27340,1,8
256,192,27446,1,8
256,192,27551,1,0
256,192,27657,1,0
256,192,27762,1,0
256,192,27974,1,4
256,192,28393,1,8
256,192,28603,1,8
256,192,28813,1,0
256,192,29022,1,0
256,192,29232,1,8
256,192,29442,1,0
256,192,29862,1,0
256,192,30071,1,8
256,192,30281,1,0
256,192,30491,1,0
256,192,30701,1,0
256,192,30911,1,8
256,192,31120,1,0
256,192,31540,1,0
256,192,31750,1,8
256,192,31960,1,8
256,192,32169,1,0
256,192,32379,1,8
256,192,32589,1,8
256,192,32799,1,0
256,192,33008,1,0
256,192,33113,1,8
256,192,33323,1,0
256,192,33428,1,8
256,192,33638,1,8
256,192,33848,1,0
256,192,33953,1,8
256,192,34057,1,0
256,192,34267,1,8
256,192,34477,1,8
256,192,34582,1,8
256,192,34687,1,0
256,192,34897,1,0
256,192,35106,1,8
256,192,35316,1,8
256,192,35526,1,0
256,192,35736,1,0
256,192,35946,1,8
256,192,36155,1,8
256,192,36575,1,0
256,192,36680,1,0
256,192,36785,1,8
256,192,36994,1,8
256,192,37204,1,0
256,192,37414,1,0
256,192,37624,1,8
256,192,37834,1,8
256,192,38253,1,8
256,192,38463,1,0
256,192,38673,1,0
256,192,38883,1,8
256,192,39092,1,0
256,192,39302,1,0
256,192,39512,1,0
256,192,39722,1,0
256,192,39932,1,8
256,192,40141,1,0
256,192,40351,1,8
256,192,40456,1,8
256,192,40561,1,8
256,192,40771,1,8
256,192,40980,1,0
256,192,41190,1,0
256,192,41610,1,0
256,192,41820,1,8
256,192,42029,1,8
256,192,42239,1,0
256,192,42449,1,0
256,192,42659,1,8
256,192,42869,1,8
256,192,43288,1,8
256,192,43393,1,8
256,192,43498,1,8
256,192,43708,1,0
256,192,43918,1,8
256,192,44127,1,0
256,192,44337,1,0
256,192,44547,1,8
256,192,44967,1,0
256,192,45176,1,8
256,192,45386,1,8
256,192,45596,1,0
256,192,45806,1,8
256,192,46015,1,8
256,192,46225,1,0
256,192,46435,1,0
256,192,46750,1,8
256,192,46855,1,0
256,192,47064,1,8
256,192,47274,1,0
256,192,47589,1,8
256,192,47694,1,0
256,192,47904,1,8
256,192,48113,1,0
256,192,48323,1,0
256,192,48533,1,8
256,192,48743,1,0
256,192,48953,1,0
256,192,49162,1,8
256,192,49372,1,0
256,192,49582,1,8
256,192,50001,1,0
256,192,50106,1,0
256,192,50211,1,0
256,192,50421,1,8
256,192,50631,1,0
256,192,50841,1,0
256,192,51050,1,0
256,192,51260,1,8
256,192,51680,1,8
256,192,51890,1,0
256,192,52099,1,0
256,192,52309,1,8
256,192,52519,1,8
256,192,52729,1,0
256,192,52939,1,0
256,192,53148,1,8
256,192,53568,1,8
256,192,53987,1,8
256,192,54407,1,8
256,192,54827,1,12
256,192,55246,1,8
256,192,55456,1,0
256,192,55666,1,12
256,192,56085,1,8
256,192,56295,1,0
256,192,56505,1,12
256,192,56925,1,8
256,192,57134,1,0
256,192,57344,1,8
256,192,57554,1,8
256,192,57764,1,0
256,192,57974,1,0
256,192,58183,1,12
256,192,58603,1,0
256,192,58813,1,0
256,192,59022,1,12
256,192,59442,1,0
256,192,59652,1,0
256,192,59862,1,12
256,192,60281,1,0
256,192,60491,1,0
256,192,60701,1,8
256,192,60911,1,8
256,192,61120,1,0
256,192,61225,1,0
256,192,61330,1,0
256,192,61540,1,12
256,192,61960,1,8
256,192,62169,1,0
256,192,62379,1,12
256,192,62799,1,8
256,192,63008,1,0
256,192,63218,1,12
256,192,63638,1,8
256,192,63848,1,0
256,192,64057,1,8
256,192,64267,1,8
256,192,64477,1,0
256,192,64687,1,0
256,192,64897,1,12
256,192,65316,1,8
256,192,65526,1,0
256,192,65736,1,8
256,192,66155,1,8
256,192,66365,1,4
256,192,67834,1,0
256,192,67939,1,0
256,192,68043,1,0
256,192,68148,1,0
256,192,68253,1,0
256,192,68464,1,0
256,192,68675,1,8
256,192,68886,1,8
256,192,69098,1,0
256,192,69203,1,8
256,192,69309,1,0
256,192,69520,1,8
256,192,69731,1,8
256,192,69943,1,0
256,192,70154,1,0
256,192,70365,1,8
256,192,70576,1,8
256,192,70788,1,0
256,192,70893,1,0
256,192,70999,1,0
256,192,71210,1,8
256,192,71422,1,0
256,192,71633,1,0
256,192,71844,1,0
256,192,72055,1,8
256,192,72267,1,8
256,192,72478,1,0
256,192,72583,1,0
256,192,72689,1,0
256,192,72900,1,8
256,192,73112,1,8
256,192,73323,1,0
256,192,73534,1,0
256,192,73745,1,8
256,192,73957,1,0
256,192,74168,1,0
256,192,74274,1,8
256,192,74379,1,0
256,192,74591,1,8
256,192,74802,1,8
256,192,74907,1,8
256,192,75013,1,0
256,192,75224,1,0
256,192,75436,1,8
256,192,75647,1,0
256,192,75858,1,0
256,192,75964,1,8
256,192,76069,1,0
256,192,76281,1,8
256,192,76492,1,0
256,192,76703,1,0
256,192,76914,1,0
256,192,77126,1,8
256,192,77337,1,0
256,192,77548,1,0
256,192,77654,1,8
256,192,77865,1,0
256,192,77971,1,8
256,192,78182,1,0
256,192,78393,1,0
256,192,78605,1,8
256,192,78816,1,0
256,192,79027,1,8
256,192,79133,1,8
256,192,79238,1,0
256,192,79450,1,8
256,192,79661,1,0
256,192,79872,1,8
256,192,79978,1,8
256,192,80083,1,0
256,192,80295,1,8
256,192,80506,1,0
256,192,80717,1,8
256,192,80929,1,0
256,192,81140,1,8
256,192,81245,1,8
256,192,81351,1,0
256,192,81457,1,0
256,192,81562,1,0
256,192,81668,1,0
256,192,81774,1,0
256,192,81985,1,0
256,192,82196,1,8
256,192,82407,1,8
256,192,82619,1,0
256,192,82724,1,8
256,192,82830,1,0
256,192,83041,1,8
256,192,83252,1,8
256,192,83464,1,0
256,192,83675,1,0
256,192,83886,1,8
256,192,84098,1,8
256,192,84309,1,0
256,192,84414,1,0
256,192,84520,1,0
256,192,84731,1,8
256,192,84943,1,0
256,192,85154,1,0
256,192,85365,1,0
256,192,85576,1,8
256,192,85788,1,8
256,192,85999,1,0
256,192,86105,1,0
256,192,86210,1,0
256,192,86422,1,8
256,192,86633,1,8
256,192,86844,1,0
256,192,87055,1,0
256,192,87267,1,8
256,192,87478,1,0
256,192,87689,1,0
256,192,87795,1,8
256,192,87900,1,0
256,192,88112,1,8
256,192,88323,1,8
256,192,88429,1,8
256,192,88534,1,0
256,192,88745,1,0
256,192,88957,1,8
256,192,89168,1,0
256,192,89379,1,0
256,192,89485,1,8
256,192,89591,1,0
256,192,89802,1,8
256,192,90013,1,0
256,192,90224,1,0
256,192,90436,1,0
256,192,90647,1,8
256,192,90858,1,0
256,192,91069,1,0
256,192,91175,1,8
256,192,91386,1,0
256,192,91492,1,8
256,192,91703,1,0
256,192,91914,1,0
256,192,92126,1,8
256,192,92337,1,0
256,192,92548,1,8
256,192,92654,1,8
256,192,92760,1,0
256,192,92971,1,8
256,192,93182,1,0
256,192,93288,1,0
256,192,93393,1,0
256,192,93499,1,0
256,192,93605,1,0
256,192,95295,1,4
256,192,95506,1,8
256,192,95717,1,0
256,192,95929,1,8
256,192,96351,1,8
256,192,96457,1,8
256,192,96562,1,0
256,192,96774,1,8
256,192,96985,1,0
256,192,97196,1,8
256,192,97619,1,8
256,192,97724,1,8
256,192,97830,1,0
256,192,98041,1,8
256,192,98252,1,0
256,192,98464,1,8
256,192,98675,1,0
256,192,98886,1,0
256,192,99098,1,8
256,192,99309,1,8
256,192,99731,1,0
256,192,99837,1,8
256,192,99943,1,0
256,192,100154,1,8
256,192,100365,1,0
256,192,100576,1,0
256,192,100999,1,0
256,192,101105,1,8
256,192,101210,1,0
256,192,101422,1,8
256,192,101633,1,0
256,192,101844,1,8
256,192,101950,1,8
256,192,102055,1,0
256,192,102267,1,8
256,192,102478,1,0
256,192,102689,1,8
256,192,103112,1,8
256,192,103217,1,8
256,192,103323,1,0
256,192,103534,1,8
256,192,103745,1,0
256,192,103957,1,8
256,192,104379,1,8
256,192,104485,1,8
256,192,104591,1,0
256,192,104802,1,8
256,192,105013,1,0
256,192,105224,1,8
256,192,105436,1,0
256,192,105647,1,0
256,192,105858,1,8
256,192,106069,1,8
256,192,106492,1,0
256,192,106598,1,8
256,192,106703,1,0
256,192,106914,1,8
256,192,107126,1,0
256,192,107337,1,0
256,192,107760,1,0
256,192,107865,1,0
256,192,107971,1,0
256,192,108182,1,8
256,192,108393,1,0
256,192,108499,1,0
256,192,108605,1,0
256,192,108816,1,4
256,192,109025,1,0
256,192,109235,1,8
256,192,109445,1,8
256,192,109655,1,0
256,192,109760,1,0
256,192,109864,1,0
256,192,110074,1,8
256,192,110284,1,8
256,192,110704,1,8
256,192,110913,1,0
256,192,111123,1,0
256,192,111333,1,8
256,192,111543,1,0
256,192,111753,1,0
256,192,111962,1,8
256,192,112382,1,0
256,192,112592,1,8
256,192,112802,1,8
256,192,113011,1,0
256,192,113221,1,0
256,192,113431,1,8
256,192,113641,1,0
256,192,113850,1,0
256,192,114060,1,8
256,192,114270,1,0
256,192,114375,1,8
256,192,114585,1,8
256,192,114690,1,0
256,192,114899,1,8
256,192,115109,1,0
256,192,115214,1,8
256,192,115424,1,8
256,192,115529,1,0
256,192,115739,1,0
256,192,115948,1,8
256,192,116158,1,0
256,192,116368,1,0
256,192,116473,1,0
256,192,116578,1,0
256,192,116788,1,0
256,192,116997,1,8
256,192,117417,1,8
256,192,117522,1,8
256,192,117627,1,8
256,192,117836,1,0
256,192,118046,1,8
256,192,118256,1,8
256,192,118466,1,0
256,192,118676,1,8
256,192,119095,1,8
256,192,119305,1,0
256,192,119515,1,0
256,192,119725,1,8
256,192,119934,1,8
256,192,120144,1,0
256,192,120354,1,0
256,192,120564,1,0
256,192,120774,1,8
256,192,120983,1,0
256,192,121193,1,8
256,192,121298,1,8
256,192,121403,1,0
256,192,121613,1,8
256,192,121822,1,0
256,192,122032,1,8
256,192,122137,1,8
256,192,122242,1,0
256,192,122452,1,0
256,192,122662,1,8
256,192,122871,1,8
256,192,123081,1,0
256,192,123186,1,0
256,192,123291,1,0
256,192,123501,1,8
256,192,123711,1,8
256,192,124130,1,0
256,192,124340,1,8
256,192,124550,1,8
256,192,124760,1,0
256,192,124969,1,8
256,192,125179,1,0
256,192,125389,1,8
256,192,125809,1,8
256,192,126018,1,0
256,192,126228,1,0
256,192,126438,1,8
256,192,126648,1,8
256,192,126857,1,0
256,192,127067,1,0
256,192,127277,1,0
256,192,127592,1,8
256,192,127906,1,0
256,192,128116,1,0
256,192,128431,1,8
256,192,128746,1,0
256,192,128955,1,0
256,192,129165,1,0
256,192,129375,1,8
256,192,129585,1,8
256,192,129795,1,0
256,192,129899,1,0
256,192,130004,1,0
256,192,130214,1,8
256,192,130424,1,8
256,192,130843,1,0
256,192,130948,1,0
256,192,131053,1,0
256,192,131263,1,0
256,192,131473,1,8
256,192,131683,1,0
256,192,131892,1,0
256,192,132102,1,8
256,192,132522,1,8
256,192,132732,1,0
256,192,132941,1,0
256,192,133151,1,8
256,192,133361,1,0
256,192,133571,1,0
256,192,133781,1,0
256,192,133990,1,8
256,192,134410,1,8
256,192,134829,1,8
256,192,135249,1,8
256,192,135669,1,4
256,192,136088,1,0
256,192,136298,1,8
256,192,136508,1,4
256,192,136927,1,0
256,192,137137,1,8
256,192,137347,1,4
256,192,137767,1,0
256,192,137976,1,8
256,192,138186,1,0
256,192,138396,1,0
256,192,138606,1,8
256,192,138815,1,8
256,192,139025,1,4
256,192,139445,1,8
256,192,139655,1,8
256,192,139864,1,4
256,192,140284,1,8
256,192,140494,1,8
256,192,140704,1,4
256,192,141123,1,0
256,192,141333,1,8
256,192,141543,1,0
256,192,141753,1,0
256,192,141962,1,8
256,192,142067,1,8
256,192,142172,1,8
256,192,142382,1,4
256,192,142802,1,0
256,192,143011,1,8
256,192,143221,1,4
256,192,143641,1,0
256,192,143850,1,8
256,192,144060,1,4
256,192,144480,1,0
256,192,144690,1,8
256,192,144899,1,0
256,192,145109,1,0
256,192,145319,1,8
256,192,145529,1,8
256,192,145739,1,4
256,192,146158,1,0
256,192,146368,1,8
256,192,146578,1,0
256,192,146997,1,0
256,192,147207,1,12
256,192,148466,1,8
256,192,148571,1,8
256,192,148676,1,0
256,192,148781,1,0
256,192,148885,1,0
256,192,148990,1,0
256,192,149095,1,0
256,192,149306,1,0
256,192,149517,1,8
256,192,149728,1,8
256,192,149940,1,0
256,192,150045,1,8
256,192,150151,1,0
256,192,150362,1,8
256,192,150573,1,8
256,192,150785,1,0
256,192,150996,1,0
256,192,151207,1,8
256,192,151418,1,8
256,192,151630,1,0
256,192,151735,1,0
256,192,151841,1,8
256,192,152052,1,8
256,192,152264,1,0
256,192,152475,1,0
256,192,152686,1,0
256,192,152897,1,8
256,192,153109,1,8
256,192,153320,1,0
256,192,153425,1,0
256,192,153531,1,0
256,192,153742,1,8
256,192,153954,1,8
256,192,154165,1,0
256,192,154376,1,0
256,192,154587,1,8
256,192,154799,1,0
256,192,155010,1,0
256,192,155116,1,8
256,192,155221,1,0
256,192,155433,1,8
256,192,155644,1,8
256,192,155749,1,8
256,192,155855,1,0
256,192,156066,1,0
256,192,156278,1,8
256,192,156489,1,0
256,192,156700,1,0
256,192,156806,1,8
256,192,156911,1,0
256,192,157123,1,8
256,192,157334,1,0
256,192,157545,1,0
256,192,157756,1,0
256,192,157968,1,8
256,192,158179,1,0
256,192,158390,1,0
256,192,158496,1,8
256,192,158707,1,0
256,192,158813,1,8
256,192,159024,1,0
256,192,159235,1,0
256,192,159447,1,8
256,192,159658,1,0
256,192,159869,1,8
256,192,159975,1,8
256,192,160080,1,0
256,192,160292,1,8
256,192,160503,1,0
256,192,160714,1,8
256,192,160820,1,8
256,192,160925,1,0
256,192,161137,1,8
256,192,161348,1,0
256,192,161559,1,8
256,192,161771,1,0
256,192,161982,1,8
256,192,162087,1,8
256,192,162193,1,0
256,192,162299,1,0
256,192,162404,1,0
256,192,162510,1,0
256,192,162616,1,0
256,192,162827,1,0
256,192,163038,1,8
256,192,163249,1,8
256,192,163461,1,0
256,192,163566,1,0
256,192,163672,1,8
256,192,163883,1,8
256,192,164095,1,8
256,192,164306,1,0
256,192,164517,1,0
256,192,164728,1,8
256,192,164940,1,8
256,192,165151,1,0
256,192,165256,1,0
256,192,165362,1,0
256,192,165573,1,8
256,192,165785,1,0
256,192,165996,1,0
256,192,166207,1,0
256,192,166418,1,8
256,192,166630,1,8
256,192,166841,1,0
256,192,166947,1,0
256,192,167052,1,8
256,192,167264,1,8
256,192,167475,1,8
256,192,167686,1,0
256,192,167897,1,0
256,192,168109,1,8
256,192,168320,1,0
256,192,168531,1,0
256,192,168637,1,8
256,192,168742,1,0
256,192,168954,1,8
256,192,169165,1,8
256,192,169271,1,8
256,192,169376,1,0
256,192,169587,1,0
256,192,169799,1,8
256,192,170010,1,0
256,192,170221,1,0
256,192,170327,1,8
256,192,170433,1,0
256,192,170644,1,8
256,192,170855,1,0
256,192,171066,1,0
256,192,171278,1,0
256,192,171489,1,8
256,192,171700,1,0
256,192,171911,1,0
256,192,172017,1,8
256,192,172228,1,0
256,192,172334,1,8
256,192,172545,1,0
256,192,172756,1,0
256,192,172968,1,8
256,192,173179,1,0
256,192,173390,1,8
256,192,173496,1,8
256,192,173602,1,0
256,192,173813,1,8
256,192,174024,1,0
256,192,174235,1,8
256,192,174341,1,8
256,192,174447,1,0
256,192,174658,1,8
256,192,174869,1,0
256,192,175080,1,8
256,192,175186,1,8
256,192,175292,1,0
256,192,175503,1,8
256,192,175714,1,0
256,192,175820,1,0
256,192,175925,1,0
256,192,176031,1,0
256,192,176137,1,0
256,192,176348,1,8
256,192,176559,1,0
256,192,176771,1,8
256,192,177193,1,0
256,192,177616,1,8
256,192,178038,1,8
256,192,178461,1,8
256,192,178672,1,4
256,192,179095,1,4
256,192,179517,1,0
256,192,179728,1,8
256,192,179940,1,8
256,192,180151,1,0
256,192,180573,1,8
256,192,180996,1,0
256,192,181418,1,8
256,192,181841,1,8
256,192,182052,1,0
256,192,182263,1,8
256,192,182368,1,8
256,192,182474,1,0
256,192,182685,1,8
256,192,182791,1,8
256,192,182897,1,0
256,192,183109,1,8
256,192,183320,1,0
256,192,183532,1,8
256,192,183954,1,0
256,192,184377,1,8
256,192,184799,1,8
256,192,185222,1,8
256,192,185433,1,4
256,192,185856,1,4
256,192,186278,1,0
256,192,186489,1,8
256,192,186700,1,8
256,192,186911,1,0
256,192,187334,1,8
256,192,187756,1,0
256,192,188179,1,8
256,192,188602,1,8
256,192,188813,1,12
256,192,189024,1,12
256,192,189235,1,12
256,192,189658,12,0,190714
256,192,190925,1,4
256,192,191136,1,0
256,192,191347,1,8
256,192,191558,1,8
256,192,191770,1,0
256,192,191875,1,8
256,192,191981,1,0
256,192,192192,1,8
256,192,192403,1,8
256,192,192509,1,8
256,192,192615,1,0
256,192,192826,1,0
256,192,193037,1,8
256,192,193248,1,8
256,192,193460,1,0
256,192,193565,1,0
256,192,193671,1,8
256,192,193882,1,8
256,192,194094,1,0
256,192,194199,1,8
256,192,194305,1,0
256,192,194516,1,0
256,192,194727,1,8
256,192,194939,1,8
256,192,195150,1,0
256,192,195255,1,0
256,192,195361,1,0
256,192,195572,1,8
256,192,195784,1,8
256,192,195995,1,0
256,192,196206,1,0
256,192,196417,1,8
256,192,196629,1,0
256,192,196840,1,0
256,192,196946,1,8
256,192,197051,1,0
256,192,197263,1,8
256,192,197474,1,8
256,192,197579,1,8
256,192,197685,1,0
256,192,197896,1,0
256,192,198108,1,8
256,192,198319,1,0
256,192,198530,1,0
256,192,198636,1,8
256,192,198741,1,0
256,192,198953,1,8
256,192,199164,1,8
256,192,199270,1,8
256,192,199375,1,0
256,192,199586,1,0
256,192,199798,1,8
256,192,200009,1,0
256,192,200220,1,0
256,192,200326,1,8
256,192,200537,1,0
256,192,200643,1,8
256,192,200854,1,0
256,192,201065,1,0
256,192,201277,1,8
256,192,201488,1,0
256,192,201699,1,8
256,192,201805,1,8
256,192,201910,1,0
256,192,202122,1,8
256,192,202333,1,0
256,192,202544,1,8
256,192,202650,1,8
256,192,202755,1,0
256,192,202967,1,8
256,192,203178,1,0
256,192,203389,1,8
256,192,203601,1,0
256,192,203812,1,8
256,192,203917,1,8
256,192,204023,1,0
256,192,204129,1,0
256,192,204234,1,0
256,192,204340,1,0
256,192,204446,1,0
256,192,204657,1,0
256,192,204868,1,8
256,192,205079,1,8
256,192,205291,1,0
256,192,205396,1,8
256,192,205502,1,0
256,192,205713,1,8
256,192,205925,1,0
256,192,206030,1,8
256,192,206136,1,0
256,192,206347,1,0
256,192,206558,1,8
256,192,206770,1,8
256,192,206981,1,0
256,192,207086,1,0
256,192,207192,1,8
256,192,207403,1,8
256,192,207615,1,8
256,192,207720,1,8
256,192,207826,1,0
256,192,208037,1,0
256,192,208248,1,8
256,192,208460,1,8
256,192,208671,1,0
256,192,208777,1,0
256,192,208882,1,0
256,192,209094,1,8
256,192,209305,1,8
256,192,209516,1,0
256,192,209727,1,0
256,192,209939,1,8
256,192,210150,1,0
256,192,210361,1,0
256,192,210467,1,8
256,192,210572,1,0
256,192,210784,1,8
256,192,210995,1,8
256,192,211101,1,8
256,192,211206,1,0
256,192,211417,1,0
256,192,211629,1,8
256,192,211840,1,0
256,192,212051,1,0
256,192,212157,1,8
256,192,212263,1,0
256,192,212474,1,8
256,192,212685,1,0
256,192,212896,1,0
256,192,213108,1,0
256,192,213319,1,8
256,192,213530,1,0
256,192,213741,1,0
256,192,213847,1,8
256,192,214058,1,0
256,192,214164,1,8
256,192,214375,1,0
256,192,214586,1,0
256,192,214798,1,8
256,192,215009,1,8
256,192,215220,1,0
256,192,215432,1,0
256,192,215643,1,8
256,192,215748,1,8
256,192,215854,1,8
256,192,215960,1,0
256,192,216065,1,0
256,192,216277,1,8
256,192,216382,1,0
256,192,216488,1,0
256,192,216699,1,8
256,192,216805,1,0
256,192,216910,1,0
256,192,217122,1,8
256,192,217227,1,0
256,192,217333,1,0
256,192,217544,1,8
256,192,217650,1,8
256,192,217755,1,0
256,192,217861,1,0
256,192,217967,1,0
256,192,218178,1,8
256,192,218389,1,0
256,192,218601,1,8
256,192,219023,1,0
256,192,219446,1,8
256,192,219868,1,8
256,192,220291,1,8
256,192,220502,1,4
256,192,220925,1,4
256,192,221347,1,0
256,192,221558,1,8
256,192,221770,1,8
256,192,221981,1,0
256,192,222403,1,8
256,192,222826,1,0
256,192,223248,1,8
256,192,223671,1,8
256,192,223882,1,0
256,192,224093,1,8
256,192,224198,1,8
256,192,224304,1,0
256,192,224515,1,8
256,192,224621,1,8
256,192,224727,1,0
256,192,224939,1,8
256,192,225150,1,0
256,192,225362,1,8
256,192,225784,1,0
256,192,226207,1,8
256,192,226629,1,8
256,192,227052,1,8
256,192,227263,1,4
256,192,227686,1,4
256,192,228108,1,0
256,192,228319,1,8
256,192,228530,1,8
256,192,228741,1,0
256,192,229164,1,8
256,192,229586,1,0
256,192,230009,1,8
256,192,230432,1,8
256,192,230643,1,12
256,192,230854,1,12
256,192,231065,1,12
