osu file format v9

[General]
AudioFilename: 1858 Si Te Vas.mp3
AudioLeadIn: 0
PreviewTime: 67402
Countdown: 0
SampleSet: Soft
StackLeniency: 0.7
Mode: 0
LetterboxInBreaks: 0

[Editor]
Bookmarks: 27962,95283,108804,176125,188801
DistanceSpacing: 1
BeatDivisor: 4
GridSize: 4

[Metadata]
Title:Si Te Vas
Artist:Jesse & Joy
Creator:Krisom
Version:Insane
Source:
Tags:Electricidad

[Difficulty]
HPDrainRate:6
CircleSize:5
OverallDifficulty:8
ApproachRate:8
SliderMultiplier:2
SliderTickRate:2

[Events]
//Background and Video events
0,0,"BG.jpg"
//Break Periods
2,95295,108066
2,176337,188063
//Storyboard Layer 0 (Background)
Sprite,Background,Centre,"SB\Black.jpg",320,240 M,0,26284,,310,98 S,0,26284,,0.8156798 F,0,26284,27974,0,1 F,0,27974,231065,1,0.9923077 F,0,231065,232755,0.9923077,0
//Storyboard Layer 1 (Fail)
//Storyboard Layer 2 (Pass)
//Storyboard Layer 3 (Foreground)
Sprite,Foreground,Centre,"SB\Que desquiciante es vivir.png",320,240 S,0,27974,,0.8668801 F,0,27974,28393,0,1 M,0,27974,33848,301,56,334,53 F,0,28393,33008,1,0.9785203 F,0,33008,33848,0.9785203,0
Sprite,Foreground,Centre,"SB\Con la razon de tu lado.png",320,240 S,0,29652,,0.92832 F,0,29652,30071,0,1 M,0,29652,33848,386,90,358,90 F,0,30071,33008,1 F,0,33008,33848,1,0
Sprite,Foreground,Centre,"SB\Esa manera de hablar.png",320,240 S,0,34687,,0.8668801 F,0,34687,35106,0,1 M,0,34687,40561,334,62,297,63 F,0,35106,39722,1,0.9952267 F,0,39722,40561,0.9952267,0
Sprite,Foreground,Centre,"SB\con semejante bocado.png",320,240 S,0,36365,,0.8975999 F,0,36365,36785,0,1 M,0,36365,40561,395,103,364,104 F,0,36785,39722,1,0.9714286 F,0,39722,40561,0.9714286,0
Sprite,Foreground,Centre,"SB\que me anticipes el fin.png",320,240 S,0,41400,,0.9488 F,0,41400,41820,0,1 M,0,41400,47274,335,57,362,59 F,0,41820,46435,1,0.9833333 F,0,46435,47274,0.9833333,0
Sprite,Foreground,Centre,"SB\de algo que no ha comenzado.png",320,240 S,0,43078,,0.9385599 F,0,43078,43498,0,1 M,0,43078,47274,390,104,347,105 F,0,43498,46435,1,0.9833333 F,0,46435,47274,0.9833333,0
Sprite,Foreground,Centre,"SB\que te platique mi dia.png",320,240 S,0,48113,,0.9488 F,0,48113,48533,0,1 M,0,48113,53987,357,56,305,54 F,0,48533,53148,1,0.9833333 F,0,53148,53987,0.9833333,0
Sprite,Foreground,Centre,"SB\y que te gane el cansancio.png",320,240 S,0,49792,,0.93856 F,0,49792,50211,0,1 M,0,49792,53987,391,95,338,95 F,0,50211,53148,1,0.9832935 F,0,53148,53987,0.9832935,0
Sprite,Foreground,Centre,"SB\Pero me he imaginado.png",320,240 M,0,54827,,320,79 F,0,54827,55246,0,1 S,0,54827,60701,0.8771201,0.98976 F,0,55246,59862,1,0.9904535 F,0,59862,60701,0.9904535,0
Sprite,Foreground,Centre,"SB\la cama vacia en tu lado.png",320,240 M,0,61120,,326,105 F,0,61120,61540,0,1 S,0,61120,66155,0.8566402,0.95904 F,0,61540,65736,1 F,0,65736,66155,1,0
Sprite,Foreground,Centre,"SB\Y no!.png",320,240 F,0,66155,66365,0,1 M,0,66365,,334,98 F,0,66365,67204,1,0
Sprite,Foreground,Centre,"SB\Y no!.png",320,240 M,0,66365,,334,98 F,0,66365,66785,1,0 S,0,66365,66785,1,1.22528
Sprite,Foreground,Centre,"SB\Si te vas mi vida que sera.png",320,240 S,0,67414,,0.8054399 F,0,67414,67834,0,1 M,0,67414,70788,334,49,335,77 F,0,67834,70365,1 F,0,70365,70788,1,0
Sprite,Foreground,Centre,"SB\Si no estas mi alma extranara.png",320,240 S,0,70788,,0.7542402 F,0,70788,71210,0,1 M,0,70788,74168,328,45,327,70 F,0,71210,73745,1 F,0,73745,74168,1,0
Sprite,Foreground,Centre,"SB\Tu imperfecta personalidad.png",320,240 S,0,74168,,0.7952 F,0,74168,74591,0,1 M,0,74168,77548,322,42,319,62 F,0,74591,77126,1,0.9979733 F,0,77126,77548,0.9979733,0
Sprite,Foreground,Centre,"SB\que me desespera y quiero mas.png",320,240 M,0,77548,,327,82 F,0,77548,77971,0,1 S,0,77548,80929,0.66208,0.7542401 F,0,77971,80506,1 F,0,80506,80929,1,0
Sprite,Foreground,Centre,"SB\Si te vas mi vida que sera.png",320,240 S,0,80929,,0.7337599 F,0,80929,81351,0,1 M,0,80929,84309,327,116,327,90 F,0,81351,83886,1 F,0,83886,84309,1,0
Sprite,Foreground,Centre,"SB\Si no estas mi alma extranara.png",320,240 S,0,84309,,0.7542397 F,0,84309,84731,0,1 M,0,84309,87689,320,126,317,99 F,0,84731,87267,1 F,0,87267,87689,1,0
Sprite,Foreground,Centre,"SB\que me desespera y quiero mas y mas.png",320,240 M,0,91069,,327,60 F,0,91069,91492,0,1 S,0,91069,94027,0.6723202,0.7644804 F,0,91492,93605,1 F,0,93605,94027,1,0
Sprite,Foreground,Centre,"SB\que me desespera y quiero mas.png",320,240
Sprite,Foreground,Centre,"SB\que me desespera y quiero mas y mas.png",320,240 M,0,93605,,327,59 F,0,93605,94027,0.9984,0 S,0,93605,94027,0.75424,0.7952 F,0,94027,,0
Sprite,Foreground,Centre,"SB\Tu imperfecta personalidad.png",320,240 S,0,87689,,0.77472 F,0,87689,88112,0,1 M,0,87689,91069,318,126,318,98 F,0,88112,90647,1 F,0,90647,91069,1,0
Sprite,Foreground,Centre,"SB\Esa mania que tienes.png",320,240 S,0,108816,,0.8361601 F,0,108816,109235,0,1 M,0,108816,114690,313,59,341,62 F,0,109235,113850,1,0.9880669 F,0,113850,114690,0.9880669,0
Sprite,Foreground,Centre,"SB\de tronarte los dedos.png",320,240 S,0,110494,,0.8976 F,0,110494,110913,0,1 M,0,110494,114690,394,104,368,104 F,0,110913,113850,1,0.9952267 F,0,113850,114690,0.9952267,0
Sprite,Foreground,Centre,"SB\que si te muerdes las unas.png",320,240 S,0,115529,,0.8976 F,0,115529,115948,0,1 M,0,115529,121403,351,60,388,60 F,0,115948,120564,1 F,0,120564,121403,1,0
Sprite,Foreground,Centre,"SB\o te agarras el pelo.png",320,240 S,0,117207,,0.93856 F,0,117207,117627,0,1 M,0,117207,121403,427,103,387,105 F,0,117627,120564,1,0.9857143 F,0,120564,121403,0.9857143,0
Sprite,Foreground,Centre,"SB\que no te quejes de mi.png",320,240 S,0,122242,,0.93856 F,0,122242,122662,0,1 M,0,122242,128116,400,57,360,58 F,0,122662,127277,1 F,0,127277,128116,1,0
Sprite,Foreground,Centre,"SB\como yo siempre me quejo.png",320,240 S,0,123920,,0.8976 F,0,123920,124340,0,1 M,0,123920,128116,360,98,380,98 F,0,124340,127277,1,0.9190476 F,0,127277,128116,0.9190476,0
Sprite,Foreground,Centre,"SB\Que amas todo de mi.png",320,240 S,0,128955,,0.9488 F,0,128955,129375,0,1 M,0,128955,134829,329,79,292,79 F,0,129375,133990,1 F,0,133990,134829,1,0
Sprite,Foreground,Centre,"SB\como te adoro mi cielo.png",320,240 S,0,130634,,0.9385602 F,0,130634,131053,0,1 M,0,130634,134829,272,123,304,123 F,0,131053,133990,1,0.9904535 F,0,133990,134829,0.9904535,0
Sprite,Foreground,Centre,"SB\como vivir sin defectos.png",320,240 M,0,135669,,318,87 F,0,135669,136088,0,1 S,0,135669,140704,0.7963201,0.8873601 F,0,136088,140284,1 F,0,140284,140704,1,0
Sprite,Foreground,Centre,"SB\y como vivir sin lo nuestro.png",320,240 M,0,141962,,316,104 F,0,141962,142382,0,1 S,0,141962,147207,0.8156799,0.86688 F,0,142382,146788,1 F,0,146788,147207,1,0
Sprite,Foreground,Centre,"SB\no.png",320,240 M,0,147207,,319,95 F,0,147207,148256,1,0.004761934 S,0,147207,148256,1,1.2048
Sprite,Foreground,Centre,"SB\Si te vas mi vida que sera.png",320,240 M,0,148256,,332,91 F,0,148256,148676,0,1 S,0,148256,151630,0.72352,0.8259199 F,0,148676,151207,1,0.9904762 F,0,151207,151630,0.9904762,0
Sprite,Foreground,Centre,"SB\Si no estas mi alma extranara.png",320,240 M,0,151630,,332,92 F,0,151630,152052,0,1 S,0,151630,155010,0.7030398,0.7849598 F,0,152052,154587,1 F,0,154587,155010,1,0
Sprite,Foreground,Centre,"SB\Tu imperfecta personalidad.png",320,240 M,0,155010,,324,92 F,0,155010,155433,0,1 S,0,155010,158390,0.7542402,0.8156801 F,0,155433,157968,1,0.9858156 F,0,157968,158390,0.9858156,0
Sprite,Foreground,Centre,"SB\que me desespera y quiero mas.png",320,240 F,0,158390,158813,0,1 M,0,158390,161771,321,93,320,82 S,0,158390,161771,0.7951999,0.8361599 F,0,158813,161348,1,0.9929078 F,0,161348,161771,0.9929078,0
Sprite,Foreground,Centre,"SB\Si te vas mi vida que sera.png",320,240 M,0,161771,,328,82 F,0,161771,162193,0,1 S,0,161771,165151,0.8361599,0.8054401 F,0,162193,164728,1,0.9905213 F,0,164728,165151,0.9905213,0
Sprite,Foreground,Centre,"SB\Si no estas mi alma extranara.png",320,240 M,0,165151,,333,86 F,0,165151,165573,0,1 S,0,165151,168531,0.7644801,0.7337601 F,0,165573,168109,1,0.9976304 F,0,168109,168531,0.9976304,0
Sprite,Foreground,Centre,"SB\Tu imperfecta personalidad.png",320,240 M,0,168531,,327,89 F,0,168531,168954,0,1 S,0,168531,171911,0.8361602,0.8054399 F,0,168954,171489,1 F,0,171489,171911,1,0
Sprite,Foreground,Centre,"SB\que me desespera y quiero mas y mas.png",320,240 F,0,171911,172334,0,1 M,0,171911,176137,320,49,320,63 S,0,171911,176137,0.7542402,0.7030402 F,0,172334,175714,1,0.9858156 F,0,175714,176137,0.9858156,0
Sprite,Foreground,Centre,"SB\Si te vas mi vida que sera.png",320,240 S,0,190080,,0.7849601 F,0,190080,190503,0,1 M,0,190080,193460,322,91,339,105 R,0,190080,193460,-0.04096008,-0.02048004 F,0,190503,193037,1 F,0,193037,193460,1,0
Sprite,Foreground,Centre,"SB\Si no estas mi alma extranara.png",320,240 S,0,193460,,0.82592 F,0,193460,193882,0,1 M,0,193460,196840,356,55,347,61 R,0,193460,196840,0.06144043,0.02048041 F,0,193882,196417,1 F,0,196417,196840,1,0
Sprite,Foreground,Centre,"SB\Tu imperfecta personalidad.png",320,240 S,0,196840,,0.8464 F,0,196840,197263,0,1 M,0,196840,200220,332,53,325,62 R,0,196840,200220,-0.04096001,-7.599592E-08 F,0,197263,199798,1 F,0,199798,200220,1,0
Sprite,Foreground,Centre,"SB\que me desespera y quiero mas.png",320,240 M,0,200220,,337,92 F,0,200220,200643,0,1 S,0,200220,203601,0.70416,0.7644799 F,0,200643,203178,1 F,0,203178,203601,1,0
Sprite,Foreground,Centre,"SB\si te vas.png",320,240 S,0,203601,,1 F,0,203601,204023,0,1 M,0,203601,210361,265,53,315,53 F,0,204023,209939,1 F,0,209939,210361,1,0
Sprite,Foreground,Centre,"SB\si no estas.png",320,240 F,0,206981,207403,0,1 M,0,206981,210361,347,92,376,92 F,0,207403,209939,1,0.9976304 F,0,209939,210361,0.9976304,0
Sprite,Foreground,Centre,"SB\Tu imperfecta personalidad.png",320,240 S,0,210361,,0.83616 F,0,210361,210784,0,1 M,0,210361,213741,317,51,315,59 R,0,210361,213741,0.02047997,-0.02048004 F,0,210784,213319,1 F,0,213319,213741,1,0
Sprite,Foreground,Centre,"SB\que me desespera y quiero mas y mas.png",320,240 M,0,213741,,316,114 F,0,213741,214164,0,1 S,0,213741,218389,0.8156801,0.9078402 F,0,214164,217967,1,0.9763594 F,0,217967,218389,0.9763594,0
Sprite,Foreground,Centre,"SB\que me desespera y quiero mas y mas.png",320,240 M,0,217967,217988,316,114 F,0,217967,218389,0.95232,0 S,0,217967,218389,0.8976002,0.9590402
//Storyboard Sound Samples
//Background Colour Transformations

[TimingPoints]
932,422.535211267606,4,2,1,100,1,0
27974,419.58041958042,4,2,1,100,1,0
27974,-100,4,2,1,100,0,0
62274,-103.092783505155,4,2,1,100,0,0
62904,-100,4,2,1,100,0,0
66365,-100,4,2,1,50,0,0
67414,-100,4,2,1,100,0,0
68253,422.535211267606,4,2,1,100,1,1
81351,-100,4,2,2,100,0,1
81774,-100,4,2,1,100,0,1
93288,-100,4,2,2,100,0,1
93605,-100,4,2,1,100,0,1
95295,-100,4,2,1,100,0,0
108816,419.58041958042,4,2,1,100,1,0
147207,-100,4,2,1,50,0,0
148256,-100,4,2,1,100,0,0
148676,-100,4,2,2,100,0,0
149095,422.535211267606,4,2,1,100,1,1
162193,-100,4,2,2,100,0,1
162616,-100,4,2,1,100,0,1
175714,-100,4,2,2,100,0,1
176137,-100,4,2,1,100,0,0
190503,-100,4,1,2,80,0,0
190925,422.535211267606,4,2,1,100,1,1
203389,-100,4,2,2,100,0,1
203495,-100,4,2,1,100,0,1
203812,-100,4,2,2,100,0,1
203917,-100,4,2,1,100,0,1
204234,-100,4,2,2,100,0,1
204446,-100,4,2,1,100,0,1
216488,-100,4,2,2,100,0,1
216594,-100,4,2,1,100,0,1
216910,-100,4,2,2,100,0,1
217016,-100,4,2,1,100,0,1
217333,-100,4,2,1,100,0,1
217439,-100,4,2,1,100,0,1
217755,-100,4,2,2,100,0,1
217967,-100,4,2,1,100,0,0

[Colours]
Combo1 : 115,193,240
Combo2 : 6,210,190
SliderBorder : 91,185,202
SliderTrackOverride : 0,0,0

[HitObjects]
256,128,27974,5,4
320,180,28183,1,2
312,260,28393,1,8
304,340,28603,2,0,B|256:368|208:340,1,100,0|2
200,260,29022,1,0
192,180,29232,1,8
180,100,29442,2,0,B|192:52|256:20|320:52|332:100,1,200,2|0
352,176,30071,2,0,B|376:224|352:276,1,100,8|8
432,336,30491,2,0,B|408:288|430:239,1,100,2|0
492,188,30911,1,8
508,108,31120,6,0,B|412:64|312:108,1,200,2|0
256,164,31750,2,0,B|208:188|156:164,1,100,8|0
96,116,32169,1,2
84,196,32379,1,0
72,276,32589,1,8
60,356,32799,1,0
136,336,33008,2,0,B|188:364|232:364|276:364|328:336,1,200,0|8
376,272,33638,2,0,B|324:244|280:244|236:244|184:272,1,200,8|2
120,224,34267,2,0,B|148:176|120:128,1,100,8|0
176,72,34687,5,0
256,100,34897,1,2
336,72,35106,2,0,B|312:120|336:168,1,100,8|0
376,240,35526,1,2
296,256,35736,1,0
216,272,35946,1,8
136,288,36155,2,0,B|100:240|136:196|136:196|172:152|136:104,1,200,2|0
104,32,36785,2,0,B|152:56|204:32,1,100,8|8
256,92,37204,1,2
312,152,37414,2,0,B|360:129|408:153,1,100,0|8
472,104,37834,6,0,B|524:200|476:300,1,200,2|0
404,264,38463,1,8
328,292,38673,1,0
252,312,38883,2,0,B|204:336|156:312,1,100,2|0
260,248,39302,2,0,B|308:224|356:248,1,100,8|0
400,180,39722,2,0,B|404:132|404:132|409:68|342:62|342:62|298:58,1,200,0|8
215,58,40351,2,0,B|169:62|169:62|102:68|107:132|107:132|112:180,1,200,8|2
124,260,40980,1,8
136,340,41190,1,0
208,300,41400,6,0,B|256:280|304:300,1,100,0|2
384,280,41820,1,8
332,220,42029,1,0
256,192,42239,1,2
180,164,42449,1,0
128,104,42659,1,8
168,32,42869,2,0,B|200:80|256:60|256:60|312:80|344:32,1,200,2|0
408,80,43498,2,8,B|380:128|408:176,1,100
476,272,43918,2,0,B|504:224|476:176,2,100,2|0|8
395,272,44547,6,0,B|195:272,1,200,2|0
160,200,45176,1,8
80,212,45386,1,0
68,292,45596,1,2
140,328,45806,1,0
208,372,46015,2,0,B|256:392|304:372,1,100,8|0
384,348,46435,2,0,B|414:310|422:262|397:255|373:249|381:201|411:163,1,200,0|8
477,207,47064,2,0,B|453:249|411:275|396:255|380:235|339:260|316:302,1,200,8|2
256,356,47694,1,8
196,304,47904,1,0
140,248,48113,5,0
160,172,48323,1,2
184,96,48533,1,8
212,20,48743,2,0,B|256:60|300:20,1,100,0|2
328,96,49162,1,0
352,172,49372,1,8
348,252,49582,2,0,B|300:288|256:252|256:252|212:216|164:252,1,200,2|0
116,312,50211,2,8,B|68:336|20:312,1,100
32,232,50631,1,2
52,156,50841,2,8,B|100:132|148:156,1,100,0|8
192,224,51260,6,0,B|192:280|256:316|320:280|320:224,1,200,2|0
344,152,51890,2,0,B|288:144|256:188,1,100,8|0
168,152,52309,2,0,B|224:144|256:188,1,100,2|0
296,268,52729,1,8
216,268,52939,1,0
256,340,53148,5,2
484,192,53568,1,2
256,44,53987,1,2
28,192,54407,1,2
156,344,54827,6,0,B|360:344,1,200,12|8
376,268,55456,1,0
392,192,55666,1,8
120,192,56085,1,8
136,116,56295,1,0
156,40,56505,2,0,B|360:40,1,200,8|8
376,116,57134,1,0
392,192,57344,2,0,B|356:232|300:212,1,100,8|0
211,171,57764,2,0,B|156:152|120:192,1,100,8|8
72,256,58183,6,0,B|124:280|172:268|172:268|164:316|196:364,1,200,8|8
256,308,58813,1,0
317,361,59022,2,0,B|348:316|340:268|340:268|388:280|440:256,1,200,8|8
392,192,59652,1,0
352,124,59862,2,0,B|256:76|160:124,1,200,8|8
120,192,60491,1,0
160,260,60701,2,0,B|208:232|196:172,1,100,8|0
352,124,61120,2,0,B|304:152|316:212,1,100,8|8
256,264,61540,6,0,B|256:180|256:180|256:108|196:92,1,200,12|8
116,76,62169,1,0
164,12,62379,2,8,B|224:8|256:36|256:36|288:8|348:12,1,194.000010869504
396,76,63008,1,0
315,92,63218,2,0,B|256:108|256:180|256:180|256:264,1,200,8|8
256,344,63848,1,0
188,304,64057,2,0,B|140:328|92:304,1,100,8|0
324,304,64477,2,0,B|372:280|420:304,1,100,8|8
468,240,64897,6,8,B|468:168|392:116|324:152,1,200,8|8
256,192,65526,1,0
185,233,65736,2,8,B|120:268|44:216|44:144,1,200,8|8
36,60,66365,1,4
256,32,67834,5,8
264,40,67939,1,8
272,48,68043,1,8
280,56,68148,1,8
288,64,68253,2,0,B|336:100|380:64|380:64|424:28|472:64,1,200,4|8
424,128,68886,2,0,B|424:172|356:192|356:192|424:212|424:260,1,200,2|0
344,272,69520,2,0,B|307:313|252:301,1,100,8|0
216,196,69943,2,0,B|252:154|307:166,1,100,2|0
280,236,70365,1,8
204,264,70576,2,0,B|112:328|16:264,1,200
20,252,71105,1,0
24,240,71210,1,8
52,164,71422,6,0,B|136:164|136:164|208:164|224:104,1,200,4|2
256,32,72055,1,8
288,104,72267,2,0,B|304:164|376:164|376:164|460:164,1,200,0|2
412,228,72900,2,0,B|308:228,1,100,8|0
256,284,73323,1,2
200,340,73534,2,0,B|96:340,1,100,0|8
20,340,73957,2,0,B|64:240|20:144,1,200
28,136,74485,1,0
36,128,74591,1,8
116,120,74802,5,8
112,128,74907,1,8
108,136,75013,2,0,B|80:176|116:248|188:256|228:200,1,200,4|8
289,176,75647,2,0,B|325:132|396:136|432:208|404:248,1,200,2|0
324,264,76281,2,0,B|356:312|324:360,1,100,8|0
186,357,76703,2,0,B|156:312|188:264,1,100,2|0
256,312,77126,1,8
256,312,77337,2,0,B|256:112,1,200
256,100,77865,1,0
256,88,77971,1,8
316,56,78182,6,0,B|316:124|372:124|372:124|372:180|440:180,1,200,2|0
404,252,78816,1,8
352,312,79027,2,0,B|256:360|160:312,1,200,2|0
108,252,79661,1,8
72,179,79872,2,0,B|139:179|139:123|139:123|195:123|195:55,1,200,2|0
256,0,80506,1,8
276,76,80717,1,0
236,148,80929,1,8
256,240,81140,1,8
252,248,81245,1,8
248,256,81351,1,8
244,264,81457,1,8
240,272,81562,1,8
236,280,81668,1,8
232,288,81774,6,0,B|212:340|156:364|100:340|80:288,1,200,4|8
4,264,82407,2,0,B|24:212|80:188|136:212|156:264,1,200,2|0
192,192,83041,2,0,B|164:144|188:96,1,100,8|0
324,96,83464,2,0,B|348:144|320:192,1,100,2|0
256,244,83886,1,8
184,280,84098,2,0,B|196:336|256:360|316:336|328:280,1,200
344,276,84626,1,0
360,272,84731,1,8
380,192,84943,5,8
396,188,85048,1,8
412,184,85154,2,0,B|412:128|460:100|460:100|412:72|412:16,1,200,4|8
336,48,85788,2,0,B|256:112|144:76,1,200,2|0
116,152,86422,2,0,B|220:184,1,100,8|0
88,224,86844,2,0,B|192:256,2,100,2|0|8
64,300,87478,2,0,B|152:364|256:332,1,200
248,320,88006,1,0
244,308,88112,1,8
184,252,88323,6,0,B|148:204|184:160|184:160|220:116|184:68,1,200,4|2
104,68,88957,1,8
104,68,89168,2,0,B|304:68,1,200,0|2
376,104,89802,1,8
332,168,90013,1,0
256,192,90224,1,2
180,216,90436,1,0
136,280,90647,1,8
208,316,90858,2,0,B|408:316,1,200,0|0
424,308,91386,1,0
440,300,91492,1,8
444,220,91703,6,0,B|456:100|336:80,1,200,2|0
256,72,92337,1,8
175,79,92548,2,0,B|56:100|68:220,1,200,2|8
67,219,93076,1,8
67,219,93182,1,8
67,219,93288,1,8
67,219,93393,1,8
67,219,93499,1,8
67,219,93605,1,4
72,92,108816,5,4
116,160,109025,1,2
164,224,109235,1,8
208,292,109445,2,0,B|256:320|304:292,1,100,0|2
348,224,109864,1,0
396,160,110074,1,8
332,112,110284,2,0,B|284:112|284:112|284:72|256:68|228:72|228:112|228:112|180:112,1,200,2|0
116,60,110913,2,0,B|92:108|116:160,1,100,8|8
36,224,111333,2,0,B|60:176|38:127,1,100,2|0
108,84,111753,1,8
176,112,111962,6,0,B|196:164|256:172|316:164|336:112,1,200,2|0
304,36,112592,2,0,B|256:12|204:36,1,100,8|0
176,112,113011,1,2
144,188,113221,1,0
112,260,113431,1,8
80,332,113641,1,0
156,360,113850,2,0,B|364:360,2,200,0|8|0
80,332,114899,1,0
112,260,115109,2,0,B|84:212|112:164,1,100,8|0
180,212,115529,5,0
256,192,115739,1,2
332,172,115948,1,8
400,124,116158,2,0,B|428:172|400:220,1,100,2|0
412,300,116578,1,2
340,268,116788,1,8
344,348,116997,2,0,B|332:372|296:372|256:341|256:341|216:372|180:372|168:348,1,200,2|0
140,272,117627,2,0,B|92:296|40:272,1,100,8|8
44,152,118046,2,0,B|92:129|140:153,1,100,2|0
92,212,118466,1,8
172,212,118676,6,0,B|208:244|264:220|256:192|248:164|304:140|340:172,1,200,2|0
380,240,119305,1,8
344,312,119515,1,0
392,376,119725,2,0,B|344:400|296:376,1,100,2|0
119,375,120144,2,0,B|168:400|216:375,1,100,8|0
180,304,120564,2,0,B|196:248|256:236|316:248|332:304,2,200,0|8|0
256,332,121613,1,8
256,332,122032,1,8
208,268,122242,6,0,B|256:248|304:268,1,100,0|2
372,312,122662,1,8
436,268,122871,1,0
456,192,123081,1,2
436,116,123291,1,0
372,72,123501,1,8
332,140,123711,2,0,B|308:192|256:220|204:192|180:140,1,200,2|0
128,200,124340,2,8,B|100:248|128:296,1,100
188,348,124760,2,0,B|216:300|188:252,2,100,2|0|8
128,296,125389,6,0,B|220:296|220:296|276:296|304:240,1,200,2|0
336,164,126018,1,8
256,156,126228,1,0
176,148,126438,1,2
96,140,126648,1,0
128,212,126857,2,0,B|160:256|128:308,1,100,8|0
188,360,127277,2,0,B|292:360|292:292|292:292|292:228,1,200,0|8
220,232,127906,2,0,B|220:292|220:292|220:360|324:360,1,200,8|2
380,304,128536,1,8
436,248,128746,1,0
380,192,128955,5,0
304,168,129165,1,2
256,108,129375,1,8
208,168,129585,1,0
132,192,129795,1,2
76,248,130004,2,0,B|116:288|92:344,1,100,0|8
12,340,130424,2,0,B|212:340,1,200,2|0
292,332,131053,1,8
308,252,131263,1,8
256,192,131473,1,2
204,132,131683,1,0
220,52,131892,1,8
280,108,132102,6,0,B|376:156|472:108,1,200,2|0
464,188,132732,2,0,B|408:208|400:260,1,100,8|0
320,252,133151,1,2
256,304,133361,1,0
188,344,133571,1,8
116,308,133781,1,0
44,344,133990,5,2
44,40,134410,1,2
468,40,134829,1,2
468,344,135249,1,2
352,232,135669,6,0,B|256:280|160:232,1,200,12|8
128,160,136298,1,0
76,96,136508,1,8
436,96,136927,1,8
384,160,137137,1,0
352,88,137347,2,0,B|256:40|160:88,1,200,8|8
184,164,137976,2,0,B|179:219|215:259,1,100,0|8
328,220,138396,2,0,B|332:164|296:124,1,100,0|8
256,192,138815,1,8
212,256,139025,6,8,B|96:300|36:204,1,200
96,152,139655,1,0
156,100,139864,2,8,B|356:100,1,200
416,152,140494,1,0
474,205,140704,2,8,B|416:300|300:256,1,200
256,188,141333,1,0
204,128,141543,2,0,B|168:172|184:224,1,100,8|0
308,128,141962,2,0,B|344:172|328:224,1,100,8|8
348,300,142382,6,0,B|316:324|292:324|256:300|256:300|220:324|196:324|164:300,1,200,12|8
96,256,143011,1,0
52,188,143221,2,8,B|156:188|156:188|212:188|224:132,1,200
256,60,143850,1,0
288,132,144060,2,8,B|300:188|356:188|356:188|460:188,1,200
416,256,144690,1,0
352,304,144899,2,0,B|304:328|256:304,1,100,8|0
160,304,145319,2,0,B|208:328|256:304,1,100,8|8
300,236,145739,6,0,B|268:200|292:144|320:152|348:160|372:104|340:68,1,200,8|8
256,48,146368,1,0
172,68,146578,2,0,B|140:104|164:160|192:152|220:144|244:200|212:236,1,200,8|8
256,304,147207,1,4
264,8,148466,5,8
256,16,148571,1,8
248,24,148676,1,8
240,32,148781,1,8
232,40,148885,1,8
224,48,148990,1,8
216,56,149095,2,0,B|180:88|180:140|180:140|180:248,1,200,4|8
180,328,149728,2,0,B|192:376|256:408|320:376|332:328,1,200,2|0
304,252,150362,2,0,B|332:208|396:220,1,100,8|0
420,296,150785,2,0,B|392:339|332:328,1,100,2|0
256,308,151207,1,8
180,328,151418,2,0,B|144:280|180:236|180:236|216:192|180:144,1,200,0|0
172,140,151947,1,0
164,136,152052,1,8
160,56,152264,6,0,B|256:4|352:56,1,200,4|2
404,116,152897,1,8
484,132,153109,2,0,B|468:192|416:216|356:200|332:152,1,200,0|2
256,172,153742,2,0,B|216:204|160:188,1,100,8|0
61,284,154165,2,0,B|101:252|156:268,1,100,2|0
220,320,154587,1,8
276,376,154799,2,0,B|388:408|456:320,1,200
448,308,155327,1,0
440,292,155433,1,8
364,260,155644,5,8
356,244,155749,1,8
348,228,155855,2,0,B|300:192|256:228|256:228|212:264|164:228,1,200,4|8
164,148,156489,2,0,B|208:116|256:100|304:116|348:148,1,200,2|0
416,188,157123,2,0,B|512:152,1,100,8|0
412,112,157545,2,0,B|488:44,2,100,2|0|8
344,72,158179,2,0,B|256:140|156:92,1,200
144,84,158707,1,0
132,76,158813,1,8
60,108,159024,6,0,B|48:208|112:296,1,200,2|0
176,348,159658,1,8
212,276,159869,2,0,B|208:228|236:192|276:192|304:156|300:108,1,200,2|0
336,36,160503,1,8
399,87,160715,2,0,B|464:176|452:276,1,200,2|0
396,332,161348,1,8
328,292,161559,1,0
256,256,161771,1,8
184,220,161982,1,8
177,229,162087,1,8
171,239,162193,1,8
165,248,162299,1,8
159,258,162404,1,8
153,267,162510,1,8
148,276,162616,6,0,B|112:336|68:336|24:336|-8:272,1,200,4|8
16,196,163249,2,0,B|76:136|76:136|76:128|76:128|84:136|84:136|84:128|84:128|148:64,1,200,2|0
212,20,163883,1,8
256,88,164095,1,0
304,152,164306,1,2
352,216,164517,2,0,B|400:248|448:216,1,100,0|8
400,152,164940,2,0,B|400:356,1,200
392,356,165468,1,0
384,360,165573,1,8
312,324,165785,5,8
304,319,165890,1,8
296,314,165996,2,0,B|220:240|108:284,1,200,4|8
32,284,166630,2,0,B|0:252|0:212|0:212|0:172|0:172|0:132|32:100,1,200,2|0
104,64,167264,1,8
184,52,167475,1,0
216,124,167686,1,2
160,184,167897,1,0
92,140,168109,1,8
104,64,168320,2,0,B|208:92|292:24,1,200
300,36,168848,1,0
308,48,168954,1,8
344,120,169165,6,0,B|321:177|349:227|407:250|455:225,1,200,4|2
420,152,169799,1,8
385,78,170010,2,0,B|432:53|490:76|518:126|496:184,1,200,0|2
492,264,170644,2,0,B|444:300|400:264,1,100,8|0
372,340,171066,2,0,B|328:304|280:340,1,100,2|0
200,328,171489,1,8
124,304,171700,2,0,B|68:284|68:220|68:220|68:120,1,200
80,120,172228,1,0
92,112,172334,1,8
156,64,172545,6,0,B|360:64,1,200,2|0
352,140,173179,1,8
340,212,173390,2,0,B|304:244|248:220|256:192|264:164|208:140|172:172,1,200,2|0
160,244,174024,1,8
156,320,174236,2,0,B|356:320,1,200,2|0
420,272,174869,1,8
400,196,175080,1,0
380,120,175292,1,8
348,48,175503,1,8
336,52,175609,1,8
324,56,175714,1,8
312,60,175820,1,8
300,64,175925,1,8
288,68,176031,1,8
276,72,176137,1,4
256,192,188813,12,0,190503
160,92,190925,6,0,B|256:44|352:92,1,200,4|8
356,192,191558,2,0,B|148:192,1,200,2|0
76,232,192192,2,0,B|20:240|-8:188,1,100,8|0
40,100,192615,2,0,B|95:92|122:142,1,100,2|0
172,228,193037,1,8
196,324,193248,2,0,B|196:388|256:416|316:388|316:324,1,200
336,320,193777,1,0
356,316,193882,1,8
456,300,194094,1,0
384,228,194305,6,0,B|424:202|417:141|387:141|358:141|351:81|391:55,1,200,4|8
296,20,194939,2,0,B|213:90|109:38,1,200,2|0
128,136,195572,2,0,B|170:168|171:222,1,100,8|0
80,260,195995,2,0,B|37:227|36:173,1,100,2|0
48,76,196417,1,8
128,136,196629,2,0,B|120:187|149:247|216:245|258:214,1,200
272,204,197157,1,0
284,192,197263,1,8
320,100,197474,5,8
324,88,197579,1,8
328,76,197685,2,0,B|356:8|444:-4|488:64,1,200,4|8
508,160,198319,2,0,B|512:208|484:244|444:244|416:280|420:328,1,200,2|0
364,244,198953,2,0,B|328:356,1,100,8|0
256,280,199375,1,2
178,339,199586,1,0
112,264,199798,1,8
12,280,200009,2,0,B|-36:240|0:192|0:192|-36:144|12:104,1,200
28,96,200537,1,0
44,88,200643,1,8
124,28,200854,6,0,B|240:28|240:28|292:28|308:76,1,200,4|0
364,152,201488,1,8
332,248,201699,2,0,B|268:248|256:192|244:136|180:136,1,200,2|0
148,232,202333,1,8
206,314,202544,2,0,B|220:356|272:356|272:356|388:356,1,200,2|0
396,256,203178,2,0,B|440:232,2,50,8|8|8
352,164,203601,2,0,B|392:136,2,50,8|8|8
256,188,204023,1,8
256,176,204129,1,8
256,164,204234,1,8
256,152,204340,1,8
256,140,204446,6,0,B|304:104|348:140|348:140|392:176|440:140,1,200,4|8
468,48,205079,2,0,B|392:-32|284:8,1,200,2|0
204,56,205713,2,0,B|152:80|108:56,1,100,8|0
16,132,206136,2,0,B|68:108|112:132,1,100,2|0
204,196,206558,2,0,B|152:220|108:196,1,100,8|0
16,264,206981,1,0
28,268,207086,1,8
40,272,207192,1,0
136,300,207403,1,8
120,200,207615,5,8
108,196,207720,1,8
96,192,207826,2,0,B|71:150|94:82|162:60|204:85,1,200,4|8
308,84,208460,2,0,B|350:59|418:81|441:149|415:191,1,200,2|0
376,284,209094,1,8
328,372,209305,2,0,B|272:364|256:312,1,100,0|2
184,373,209727,2,0,B|240:364|257:312,1,100,0|8
136,284,210150,1,0
96,184,210361,1,0
92,176,210467,1,8
88,168,210572,1,0
32,84,210784,1,8
132,68,210995,1,8
144,64,211101,1,8
156,60,211206,6,0,B|244:-4|348:48,1,200,4|8
428,104,211840,2,0,B|476:144|440:192|440:192|476:240|428:280,1,200,2|0
332,304,212474,1,8
252,244,212685,1,0
180,184,212896,1,2
100,120,213108,1,0
24,56,213319,1,8
0,152,213530,2,0,B|48:248|0:344,1,200
96,320,214164,1,8
192,288,214375,1,0
133,200,214586,6,0,B|174:241|227:220,1,100,4|2
247,69,215009,2,0,B|206:110|227:163,1,100,8|2
378,183,215432,2,0,B|337:142|284:163,1,100,0|2
264,314,215854,2,0,B|305:273|284:220,1,100,8|2
308,124,216277,6,8,B|348:96,2,50
256,40,216699,1,8
256,40,216805,1,8
256,40,216910,1,8
204,124,217122,2,8,B|164:96,2,50
256,208,217544,1,8
256,220,217650,1,8
256,232,217755,1,8
256,244,217861,1,8
256,256,217967,5,4
296,324,218178,1,0
216,324,218389,1,8
144,288,218601,2,0,B|92:192|144:96,1,200,2|0
64,76,219234,1,8
64,76,219446,2,0,B|160:116|260:80,1,200,0|2
280,156,220079,2,0,B|328:128|384:144,1,100,8|0
440,192,220502,1,10
72,192,220925,1,10
256,376,221347,5,4
324,336,221558,1,0
392,296,221769,1,8
460,256,221981,2,0,B|460:212|392:192|392:192|460:172|460:124,1,200,2|0
420,60,222614,1,8
344,80,222826,2,0,B|296:112|296:112|256:88|216:112|216:112|168:80,1,200,0|2
164,160,223460,2,0,B|76:96,1,100,8|0
20,52,223882,1,10
492,52,224305,1,10
296,160,224727,5,4
216,192,224939,1,0
136,228,225150,1,8
60,260,225361,2,0,B|72:308|136:340|200:308|212:260,1,200,2|0
256,192,225995,1,8
300,128,226206,2,0,B|311:80|375:48|439:80|451:128,1,200,0|2
468,208,226840,1,8
484,288,227051,1,0
504,368,227263,1,10
8,368,227686,1,10
172,192,228108,5,4
256,192,228319,1,0
340,192,228530,1,8
420,192,228741,2,0,B|431:145|431:145|446:82|381:66|381:66|338:55,1,200,2|0
256,44,229375,1,8
175,55,229586,2,0,B|130:66|130:66|65:82|80:145|80:145|92:192,1,200,0|2
100,200,230115,1,0
108,208,230220,1,8
116,216,230326,1,0
124,224,230432,1,0
192,264,230643,5,10
320,264,230854,1,10
256,144,231065,1,10
