osu file format v9

[General]
AudioFilename: 1858 Si Te Vas.mp3
AudioLeadIn: 0
PreviewTime: 67402
Countdown: 0
SampleSet: Soft
StackLeniency: 0.7
Mode: 0
LetterboxInBreaks: 0

[Editor]
Bookmarks: 27962,95283,108804,176125,188801
DistanceSpacing: 0.83
BeatDivisor: 2
GridSize: 4

[Metadata]
Title:Si Te Vas
Artist:Jesse & Joy
Creator:Krisom
Version:Hard
Source:
Tags:Electricidad

[Difficulty]
HPDrainRate:5
CircleSize:4
OverallDifficulty:6
ApproachRate:6
SliderMultiplier:1.7
SliderTickRate:2

[Events]
//Background and Video events
0,0,"BG.jpg"
//Break Periods
2,95295,107766
2,176337,187763
//Storyboard Layer 0 (Background)
Sprite,Background,Centre,"SB\Black.jpg",320,240 M,0,26284,,310,98 S,0,26284,,0.8156798 F,0,26284,27974,0,1 F,0,27974,231065,1,0.9923077 F,0,231065,232755,0.9923077,0
//Storyboard Layer 1 (Fail)
//Storyboard Layer 2 (Pass)
//Storyboard Layer 3 (Foreground)
Sprite,Foreground,Centre,"SB\Que desquiciante es vivir.png",320,240 S,0,27974,,0.8668801 F,0,27974,28393,0,1 M,0,27974,33848,301,56,334,53 F,0,28393,33008,1,0.9785203 F,0,33008,33848,0.9785203,0
Sprite,Foreground,Centre,"SB\Con la razon de tu lado.png",320,240 S,0,29652,,0.92832 F,0,29652,30071,0,1 M,0,29652,33848,386,90,358,90 F,0,30071,33008,1 F,0,33008,33848,1,0
Sprite,Foreground,Centre,"SB\Esa manera de hablar.png",320,240 S,0,34687,,0.8668801 F,0,34687,35106,0,1 M,0,34687,40561,334,62,297,63 F,0,35106,39722,1,0.9952267 F,0,39722,40561,0.9952267,0
Sprite,Foreground,Centre,"SB\con semejante bocado.png",320,240 S,0,36365,,0.8975999 F,0,36365,36785,0,1 M,0,36365,40561,395,103,364,104 F,0,36785,39722,1,0.9714286 F,0,39722,40561,0.9714286,0
Sprite,Foreground,Centre,"SB\que me anticipes el fin.png",320,240 S,0,41400,,0.9488 F,0,41400,41820,0,1 M,0,41400,47274,335,57,362,59 F,0,41820,46435,1,0.9833333 F,0,46435,47274,0.9833333,0
Sprite,Foreground,Centre,"SB\de algo que no ha comenzado.png",320,240 S,0,43078,,0.9385599 F,0,43078,43498,0,1 M,0,43078,47274,390,104,347,105 F,0,43498,46435,1,0.9833333 F,0,46435,47274,0.9833333,0
Sprite,Foreground,Centre,"SB\que te platique mi dia.png",320,240 S,0,48113,,0.9488 F,0,48113,48533,0,1 M,0,48113,53987,357,56,305,54 F,0,48533,53148,1,0.9833333 F,0,53148,53987,0.9833333,0
Sprite,Foreground,Centre,"SB\y que te gane el cansancio.png",320,240 S,0,49792,,0.93856 F,0,49792,50211,0,1 M,0,49792,53987,391,95,338,95 F,0,50211,53148,1,0.9832935 F,0,53148,53987,0.9832935,0
Sprite,Foreground,Centre,"SB\Pero me he imaginado.png",320,240 M,0,54827,,320,79 F,0,54827,55246,0,1 S,0,54827,60701,0.8771201,0.98976 F,0,55246,59862,1,0.9904535 F,0,59862,60701,0.9904535,0
Sprite,Foreground,Centre,"SB\la cama vacia en tu lado.png",320,240 M,0,61120,,326,105 F,0,61120,61540,0,1 S,0,61120,66155,0.8566402,0.95904 F,0,61540,65736,1 F,0,65736,66155,1,0
Sprite,Foreground,Centre,"SB\Y no!.png",320,240 F,0,66155,66365,0,1 M,0,66365,,334,98 F,0,66365,67204,1,0
Sprite,Foreground,Centre,"SB\Y no!.png",320,240 M,0,66365,,334,98 F,0,66365,66785,1,0 S,0,66365,66785,1,1.22528
Sprite,Foreground,Centre,"SB\Si te vas mi vida que sera.png",320,240 S,0,67414,,0.8054399 F,0,67414,67834,0,1 M,0,67414,70788,334,49,335,77 F,0,67834,70365,1 F,0,70365,70788,1,0
Sprite,Foreground,Centre,"SB\Si no estas mi alma extranara.png",320,240 S,0,70788,,0.7542402 F,0,70788,71210,0,1 M,0,70788,74168,328,45,327,70 F,0,71210,73745,1 F,0,73745,74168,1,0
Sprite,Foreground,Centre,"SB\Tu imperfecta personalidad.png",320,240 S,0,74168,,0.7952 F,0,74168,74591,0,1 M,0,74168,77548,322,42,319,62 F,0,74591,77126,1,0.9979733 F,0,77126,77548,0.9979733,0
Sprite,Foreground,Centre,"SB\que me desespera y quiero mas.png",320,240 M,0,77548,,327,82 F,0,77548,77971,0,1 S,0,77548,80929,0.66208,0.7542401 F,0,77971,80506,1 F,0,80506,80929,1,0
Sprite,Foreground,Centre,"SB\Si te vas mi vida que sera.png",320,240 S,0,80929,,0.7337599 F,0,80929,81351,0,1 M,0,80929,84309,327,116,327,90 F,0,81351,83886,1 F,0,83886,84309,1,0
Sprite,Foreground,Centre,"SB\Si no estas mi alma extranara.png",320,240 S,0,84309,,0.7542397 F,0,84309,84731,0,1 M,0,84309,87689,320,126,317,99 F,0,84731,87267,1 F,0,87267,87689,1,0
Sprite,Foreground,Centre,"SB\que me desespera y quiero mas y mas.png",320,240 M,0,91069,,327,60 F,0,91069,91492,0,1 S,0,91069,94027,0.6723202,0.7644804 F,0,91492,93605,1 F,0,93605,94027,1,0
Sprite,Foreground,Centre,"SB\que me desespera y quiero mas.png",320,240
Sprite,Foreground,Centre,"SB\que me desespera y quiero mas y mas.png",320,240 M,0,93605,,327,59 F,0,93605,94027,0.9984,0 S,0,93605,94027,0.75424,0.7952 F,0,94027,,0
Sprite,Foreground,Centre,"SB\Tu imperfecta personalidad.png",320,240 S,0,87689,,0.77472 F,0,87689,88112,0,1 M,0,87689,91069,318,126,318,98 F,0,88112,90647,1 F,0,90647,91069,1,0
Sprite,Foreground,Centre,"SB\Esa mania que tienes.png",320,240 S,0,108816,,0.8361601 F,0,108816,109235,0,1 M,0,108816,114690,313,59,341,62 F,0,109235,113850,1,0.9880669 F,0,113850,114690,0.9880669,0
Sprite,Foreground,Centre,"SB\de tronarte los dedos.png",320,240 S,0,110494,,0.8976 F,0,110494,110913,0,1 M,0,110494,114690,394,104,368,104 F,0,110913,113850,1,0.9952267 F,0,113850,114690,0.9952267,0
Sprite,Foreground,Centre,"SB\que si te muerdes las unas.png",320,240 S,0,115529,,0.8976 F,0,115529,115948,0,1 M,0,115529,121403,351,60,388,60 F,0,115948,120564,1 F,0,120564,121403,1,0
Sprite,Foreground,Centre,"SB\o te agarras el pelo.png",320,240 S,0,117207,,0.93856 F,0,117207,117627,0,1 M,0,117207,121403,427,103,387,105 F,0,117627,120564,1,0.9857143 F,0,120564,121403,0.9857143,0
Sprite,Foreground,Centre,"SB\que no te quejes de mi.png",320,240 S,0,122242,,0.93856 F,0,122242,122662,0,1 M,0,122242,128116,400,57,360,58 F,0,122662,127277,1 F,0,127277,128116,1,0
Sprite,Foreground,Centre,"SB\como yo siempre me quejo.png",320,240 S,0,123920,,0.8976 F,0,123920,124340,0,1 M,0,123920,128116,360,98,380,98 F,0,124340,127277,1,0.9190476 F,0,127277,128116,0.9190476,0
Sprite,Foreground,Centre,"SB\Que amas todo de mi.png",320,240 S,0,128955,,0.9488 F,0,128955,129375,0,1 M,0,128955,134829,329,79,292,79 F,0,129375,133990,1 F,0,133990,134829,1,0
Sprite,Foreground,Centre,"SB\como te adoro mi cielo.png",320,240 S,0,130634,,0.9385602 F,0,130634,131053,0,1 M,0,130634,134829,272,123,304,123 F,0,131053,133990,1,0.9904535 F,0,133990,134829,0.9904535,0
Sprite,Foreground,Centre,"SB\como vivir sin defectos.png",320,240 M,0,135669,,318,87 F,0,135669,136088,0,1 S,0,135669,140704,0.7963201,0.8873601 F,0,136088,140284,1 F,0,140284,140704,1,0
Sprite,Foreground,Centre,"SB\y como vivir sin lo nuestro.png",320,240 M,0,141962,,316,104 F,0,141962,142382,0,1 S,0,141962,147207,0.8156799,0.86688 F,0,142382,146788,1 F,0,146788,147207,1,0
Sprite,Foreground,Centre,"SB\no.png",320,240 M,0,147207,,319,95 F,0,147207,148256,1,0.004761934 S,0,147207,148256,1,1.2048
Sprite,Foreground,Centre,"SB\Si te vas mi vida que sera.png",320,240 M,0,148256,,332,91 F,0,148256,148676,0,1 S,0,148256,151630,0.72352,0.8259199 F,0,148676,151207,1,0.9904762 F,0,151207,151630,0.9904762,0
Sprite,Foreground,Centre,"SB\Si no estas mi alma extranara.png",320,240 M,0,151630,,332,92 F,0,151630,152052,0,1 S,0,151630,155010,0.7030398,0.7849598 F,0,152052,154587,1 F,0,154587,155010,1,0
Sprite,Foreground,Centre,"SB\Tu imperfecta personalidad.png",320,240 M,0,155010,,324,92 F,0,155010,155433,0,1 S,0,155010,158390,0.7542402,0.8156801 F,0,155433,157968,1,0.9858156 F,0,157968,158390,0.9858156,0 S,0,158390,,0.8156801
Sprite,Foreground,Centre,"SB\que me desespera y quiero mas.png",320,240 F,0,158390,158813,0,1 M,0,158390,161771,321,93,320,82 S,0,158390,161771,0.7951999,0.8361599 F,0,158813,161348,1,0.9929078 F,0,161348,161771,0.9929078,0
Sprite,Foreground,Centre,"SB\Si te vas mi vida que sera.png",320,240 M,0,161771,,328,82 F,0,161771,162193,0,1 S,0,161771,165151,0.8361599,0.8054401 F,0,162193,164728,1,0.9905213 F,0,164728,165151,0.9905213,0
Sprite,Foreground,Centre,"SB\Si no estas mi alma extranara.png",320,240 M,0,165151,,333,86 F,0,165151,165573,0,1 S,0,165151,168531,0.7644801,0.7337601 F,0,165573,168109,1,0.9976304 F,0,168109,168531,0.9976304,0
Sprite,Foreground,Centre,"SB\Tu imperfecta personalidad.png",320,240 M,0,168531,,327,89 F,0,168531,168954,0,1 S,0,168531,171911,0.8361602,0.8054399 F,0,168954,171489,1 F,0,171489,171911,1,0
Sprite,Foreground,Centre,"SB\que me desespera y quiero mas y mas.png",320,240 F,0,171911,172334,0,1 M,0,171911,176137,320,49,320,63 S,0,171911,176137,0.7542402,0.7030402 F,0,172334,175714,1,0.9858156 F,0,175714,176137,0.9858156,0
Sprite,Foreground,Centre,"SB\Si te vas mi vida que sera.png",320,240 S,0,190080,,0.7849601 F,0,190080,190503,0,1 M,0,190080,193460,322,91,339,105 R,0,190080,193460,-0.04096008,-0.02048004 F,0,190503,193037,1 F,0,193037,193460,1,0
Sprite,Foreground,Centre,"SB\Si no estas mi alma extranara.png",320,240 S,0,193460,,0.82592 F,0,193460,193882,0,1 M,0,193460,196840,356,55,347,61 R,0,193460,196840,0.06144043,0.02048041 F,0,193882,196417,1 F,0,196417,196840,1,0
Sprite,Foreground,Centre,"SB\Tu imperfecta personalidad.png",320,240 S,0,196840,,0.8464 F,0,196840,197263,0,1 M,0,196840,200220,332,53,325,62 R,0,196840,200220,-0.04096001,-7.599592E-08 F,0,197263,199798,1 F,0,199798,200220,1,0
Sprite,Foreground,Centre,"SB\que me desespera y quiero mas.png",320,240 M,0,200220,,337,92 F,0,200220,200643,0,1 S,0,200220,203601,0.70416,0.7644799 F,0,200643,203178,1 F,0,203178,203601,1,0
Sprite,Foreground,Centre,"SB\si te vas.png",320,240 S,0,203601,,1 F,0,203601,204023,0,1 M,0,203601,210361,265,53,315,53 F,0,204023,209939,1 F,0,209939,210361,1,0
Sprite,Foreground,Centre,"SB\si no estas.png",320,240 F,0,206981,207403,0,1 M,0,206981,210361,347,92,376,92 F,0,207403,209939,1,0.9976304 F,0,209939,210361,0.9976304,0
Sprite,Foreground,Centre,"SB\Tu imperfecta personalidad.png",320,240 S,0,210361,,0.83616 F,0,210361,210784,0,1 M,0,210361,213741,317,51,315,59 R,0,210361,213741,0.02047997,-0.02048004 F,0,210784,213319,1 F,0,213319,213741,1,0
Sprite,Foreground,Centre,"SB\que me desespera y quiero mas y mas.png",320,240 M,0,213741,,316,114 F,0,213741,214164,0,1 S,0,213741,218389,0.8156801,0.9078402 F,0,214164,217967,1,0.9763594 F,0,217967,218389,0.9763594,0
Sprite,Foreground,Centre,"SB\que me desespera y quiero mas y mas.png",320,240 M,0,217967,217988,316,114 F,0,217967,218389,0.95232,0 S,0,217967,218389,0.8976002,0.9590402
//Storyboard Sound Samples
//Background Colour Transformations

[TimingPoints]
932,422.535211267606,4,2,1,100,1,0
27974,419.58041958042,4,2,1,100,1,0
27974,-100,4,2,1,100,0,0
31015,-94.3396226415094,4,2,1,100,0,0
31855,-100,4,2,1,100,0,0
37755,-94.3396226415094,4,2,1,100,0,0
38568,-100,4,2,1,100,0,0
62904,-100,4,2,1,100,0,0
66365,-100,4,2,1,50,0,0
67414,-100,4,2,1,100,0,0
68253,422.535211267606,4,2,1,100,1,1
81774,-100,4,2,1,100,0,1
93288,-100,4,2,2,100,0,1
93605,-100,4,2,1,100,0,1
95295,-100,4,2,1,100,0,0
108816,419.58041958042,4,2,1,100,1,0
147207,-100,4,2,1,50,0,0
148256,-100,4,2,1,100,0,0
149095,422.535211267606,4,2,1,100,1,1
160609,-85.4700854700855,4,2,1,100,0,1
161665,-100,4,2,1,100,0,1
162616,-100,4,2,1,100,0,1
166524,-103.092783505155,4,2,1,100,0,1
167369,-100,4,2,1,100,0,1
169904,-95.2380952380952,4,2,1,100,0,1
170749,-100,4,2,1,100,0,1
176137,-100,4,2,1,100,0,0
190503,-100,4,1,2,80,0,0
190925,422.535211267606,4,2,1,100,1,1
203389,-100,4,2,2,100,0,1
203495,-100,4,2,1,100,0,1
203812,-100,4,2,1,100,0,1
203917,-100,4,2,1,100,0,1
204234,-100,4,2,1,100,0,1
204446,-100,4,2,1,100,0,1
216488,-100,4,2,2,100,0,1
216594,-100,4,2,1,100,0,1
216910,-100,4,2,2,100,0,1
217016,-100,4,2,1,100,0,1
217333,-100,4,2,1,100,0,1
217439,-100,4,2,1,100,0,1
217755,-100,4,2,2,100,0,1
217967,-100,4,2,1,100,0,0

[Colours]
Combo1 : 115,193,240
Combo2 : 6,210,190
SliderBorder : 91,185,202
SliderTrackOverride : 0,0,0

[HitObjects]
340,8,27974,2,0,B|256:28|172:8,2,170,4|8|2
396,64,29022,1,0
372,128,29232,1,8
341,190,29442,2,0,B|153:190,1,170
184,260,30071,2,0,B|204:296|256:312|308:296|328:260,2,170,8|2|8
136,316,31120,6,0,B|188:376|256:380|324:376|376:316,1,270.300004511118,2|8
436,192,32169,1,0
464,60,32589,1,8
340,112,33008,2,0,B|276:96|256:112|236:128|172:112,1,170,2|8
60,32,33848,2,0,B|92:128|20:184,1,170,2|8
52,244,34477,1,0
92,300,34687,6,0,B|160:364|252:324,2,170,0|8|2
124,240,35736,1,0
156,180,35946,1,8
188,120,36155,2,0,B|228:120|228:120|232:148|256:164|280:148|284:120|284:120|324:120,1,170,2|0
328,188,36785,2,0,B|304:224|256:244|208:224|184:188,2,170,8|2|8
376,244,37834,6,0,B|324:304|256:308|188:304|136:244,1,270.300004511118,2|8
16,180,38883,1,0
72,56,39302,1,8
160,160,39722,2,0,B|244:208|328:160,1,170,2|8
448,108,40561,2,0,B|364:60|280:108,1,170,2|8
322,163,41190,1,0
356,224,41400,6,0,B|440:380,2,170,0|8|2
292,252,42449,1,0
220,252,42659,1,8
156,224,42869,2,0,B|72:380,1,170,2|0
16,340,43498,2,0,B|60:260|60:260|80:216|56:184,1,170,8|2
148,84,44337,1,8
148,152,44547,6,0,B|168:192|212:208|256:180|256:180|300:208|344:192|364:152,1,255,2|8
412,280,45596,2,0,B|500:232,2,85,2|0|8
320,380,46435,1,0
188,384,46855,1,8
100,280,47274,2,0,B|12:328,2,85,2|0|8
36,160,48113,6,0,B|136:180|184:96,2,170,0|8|2
8,224,49162,1,0
36,288,49372,1,8
72,348,49582,2,0,B|160:348|160:348|212:348|220:300,1,170,2|0
292,303,50211,2,0,B|300:348|352:348|352:348|440:348,2,170,8|2|8
344,256,51260,6,0,B|328:172|256:164|184:172|168:256,1,255,2|8
256,360,52309,1,0
256,360,52729,1,8
192,240,53148,2,0,B|136:172|164:76,1,170,2|2
320,144,53987,2,0,B|376:212|348:308,1,170,2|2
256,192,54827,5,12
188,308,55246,2,0,B|140:292|132:248,2,85,8|0|8
324,308,56085,2,0,B|372:292|380:248,2,85,8|0|8
256,192,56925,1,8
212,140,57134,1,0
176,80,57344,2,0,B|256:30|336:80,1,170,8|8
176,304,58183,6,0,B|256:354|336:304,1,170,8|8
300,244,58813,1,0
256,192,59022,1,8
188,76,59442,2,0,B|140:92|132:136,2,85,8|0|8
324,76,60281,2,0,B|372:92|380:136,2,85,8|0|8
256,192,61120,1,8
160,288,61540,6,0,B|160:200|68:156,1,170,12|8
100,92,62169,1,0
132,28,62379,1,8
256,92,62799,2,0,B|256:180,2,85,8|0|8
380,28,63638,1,8
412,92,63848,1,0
443,156,64057,2,0,B|352:200|352:288,1,170,8|8
256,184,64897,5,8
184,64,65316,1,8
256,64,65526,1,0
328,64,65736,1,8
256,184,66155,1,8
256,184,66365,1,4
436,32,67624,5,2
464,96,67834,1,8
428,156,68043,1,0
456,220,68253,2,0,B|372:256|288:224,1,170,4|8
221,224,68886,2,0,B|140:256|56:220,1,170,2|0
88,156,69520,1,8
0,48,69943,1,0
140,28,70365,1,8
140,28,70576,1,2
88,156,70999,5,2
64,224,71210,1,8
88,288,71422,1,0
64,356,71633,2,0,B|152:356|152:356|204:356|220:320,1,170,4|8
291,319,72267,2,0,B|308:356|360:356|360:356|448:356,1,170,2|0
424,288,72900,1,8
512,172,73323,1,0
372,156,73745,1,8
372,156,73957,1,2
456,36,74379,5,2
384,44,74591,1,8
312,52,74802,1,0
240,60,75013,2,0,B|188:60|164:112|172:160|224:176,1,170,4|8
289,208,75647,2,0,B|340:224|348:272|324:324|272:324,1,170,2|0
204,312,76281,1,8
64,284,76703,1,0
152,172,77126,1,8
152,172,77337,1,2
92,44,77760,5,2
164,36,77971,1,8
236,28,78182,2,0,B|276:112|236:192,1,170,2|0
168,204,78816,1,8
100,216,79027,2,0,B|60:300|100:380,1,170,2|0
28,380,79661,1,8
28,380,79872,2,0,B|200:380,2,170,2|0|0
20,240,81140,5,2
48,176,81351,1,8
16,112,81562,1,0
48,48,81774,2,0,B|128:12|216:48,1,170,4|8
216,116,82407,2,0,B|216:176|216:176|232:224|232:224|232:288,1,170,2|0
236,356,83041,1,8
368,312,83464,1,0
500,260,83886,1,8
500,260,84098,1,2
496,120,84520,5,2
432,92,84731,1,8
368,120,84943,1,0
304,92,85154,2,0,B|220:56|136:92,1,170,4|8
104,152,85788,2,0,B|188:188|272:152,1,170,2|0
304,92,86422,1,8
432,152,86844,1,0
316,232,87267,1,8
316,232,87478,1,2
200,316,87900,5,2
156,260,88112,1,8
112,204,88323,1,0
68,149,88534,2,0,B|132:76|221:124,1,170,4|8
292,140,89168,2,0,B|380:188|444:115,1,170,2|0
432,48,89802,1,8
484,180,90224,1,0
432,312,90647,1,8
432,312,90858,1,2
292,328,91281,5,2
276,260,91492,1,8
256,192,91703,2,0,B|188:168|188:92|188:92|188:52,1,170,2|0
256,28,92337,1,8
324,52,92548,2,0,B|324:92|324:92|324:168|256:192,1,170,2|0
236,260,93182,1,8
220,328,93393,1,0
260,384,93605,1,4
176,232,108816,6,0,B|96:184|12:232,2,170,4|8|2
220,288,109864,1,0
292,288,110074,1,8
336,232,110284,2,0,B|416:184|500:232,1,170,2|0
497,302,110913,2,0,B|497:109,2,170,8|2|8
440,344,111962,6,0,B|400:356|364:344|324:308|324:308|284:344|248:356|208:344,1,255,2|8
72,300,113011,1,0
120,168,113431,1,8
172,36,113850,2,0,B|236:52|256:36|276:20|340:36,2,170,2|8|2
96,156,115109,2,0,B|128:192|108:240,1,85,8|0
92,304,115529,6,0,B|160:368|252:328,2,170,0|8|2
116,236,116578,1,0
148,172,116788,1,8
180,108,116997,2,0,B|220:72|212:156|248:156|256:44|264:156|300:156|292:72|332:108,1,170,2|0
392,148,117627,2,0,B|452:228|392:304,2,170,8|0|8
360,84,118676,6,0,B|336:44|292:44|256:92|256:92|220:44|176:44|152:84,1,255,2|8
64,192,119725,1,0
160,296,120144,1,8
292,248,120564,2,0,B|364:92,1,170,2|8
220,248,121403,2,0,B|148:92,1,170,2|8
124,28,122032,1,0
192,36,122242,6,0,B|212:24|240:24|256:68|256:68|272:24|300:24|320:36,2,170,0|8|2
148,92,123291,1,0
108,148,123501,1,8
72,208,123711,2,0,B|120:288|220:260,1,170,2|0
292,260,124340,2,0,B|391:288|439:208,2,170,8|2|8
300,188,125389,6,0,B|332:144|308:88|256:67|204:88|180:144|212:188,1,255,2|8
128,304,126438,1,0
88,168,126857,1,8
44,32,127277,2,0,B|128:4|212:32,1,170,2|8
340,92,128116,2,0,B|256:120|172:92,1,170,2|8
156,160,128746,1,0
144,228,128955,6,0,B|112:320|8:312,2,170,0|8|2
220,220,130004,1,0
292,220,130214,1,8
368,228,130424,2,0,B|400:320|504:312,1,170,2|0
512,240,131053,2,0,B|480:148|376:156,2,170,8|2|8
472,296,132102,6,0,B|420:356|360:324|364:296|368:268|308:236|256:296,1,255,2|8
256,156,133151,1,0
256,16,133571,1,8
188,140,133990,2,0,B|164:312,1,170,2|2
324,140,134829,2,0,B|348:312,1,170,2|2
256,192,135669,5,12
188,68,136088,2,0,B|148:68|148:68|132:60|132:60|100:60,2,85,8|0|8
324,68,136927,2,0,B|364:68|364:68|380:60|380:60|412:60,2,85,8|0|8
256,192,137767,1,8
212,244,137976,1,0
176,304,138186,2,0,B|256:354|336:304,1,170,8|8
176,80,139025,6,0,B|256:30|336:80,1,170,8|8
300,140,139655,1,0
256,192,139864,1,8
188,316,140284,2,0,B|148:316|148:316|132:324|132:324|100:324,2,85,8|0|8
324,316,141123,2,0,B|364:316|364:316|380:324|380:324|412:324,2,85,8|0|8
256,192,141962,1,8
128,252,142382,6,0,B|108:312|164:368|228:340,1,170,12|8
200,280,143011,1,0
200,280,143221,1,8
256,148,143641,2,0,B|256:64,2,85,8|0|8
316,276,144480,1,8
316,276,144690,1,0
284,340,144900,2,0,B|348:368|404:312|384:252,1,170,8|8
256,184,145739,5,8
328,64,146158,1,8
256,64,146368,1,0
184,64,146578,1,8
256,184,146997,1,8
256,184,147207,1,4
56,348,148466,5,2
40,280,148676,1,8
24,212,148885,1,0
8,144,149095,2,0,B|88:100|172:144,1,170,4|8
164,212,149728,2,0,B|196:300|256:296|316:300|348:212,1,255,2|8
341,143,150573,2,0,B|424:100|504:144,1,170,2|0
488,212,151207,1,8
472,280,151418,1,2
328,312,151841,5,2
256,316,152052,1,8
184,320,152264,1,0
112,324,152475,2,0,B|72:244|108:156,1,170,4|8
144,100,153109,2,0,B|224:100|224:100|224:128|256:137|288:128|288:100|288:100|368:100,1,255,2|8
440,100,153954,2,0,B|404:180|440:268,1,170,2|0
492,312,154587,1,8
424,336,154799,1,2
284,352,155221,5,2
220,324,155433,1,8
156,352,155644,1,0
92,324,155855,2,0,B|60:268|92:240|128:212|88:156,1,170,4|8
56,104,156489,2,0,B|152:0|292:64,1,255,2|8
348,100,157334,2,0,B|395:141|468:112|468:42,1,170,2|0
396,48,157968,1,8
396,48,158179,1,2
412,188,158602,5,2
436,256,158813,1,8
412,320,159024,2,0,B|328:364|248:320,1,170,2|0
212,260,159658,1,8
176,200,159869,2,0,B|256:148|336:200,1,170,2|0
348,128,160503,1,8
355,55,160714,2,0,B|155:55,2,198.899997984588,2|0|0
480,116,161982,5,2
484,188,162193,1,8
488,260,162404,1,0
492,332,162616,2,0,B|432:396|336:360,1,170,4|8
324,292,163249,2,0,B|316:192|256:192|196:192|188:92,1,255,2|8
176,24,164095,2,0,B|80:-12|20:52,1,170,2|0
52,116,164728,1,8
84,180,164940,1,2
152,304,165362,6,0,B|124:352|72:332,2,85,2|8|0
204,256,165996,2,0,B|228:192|256:192|284:192|308:128,1,170,4|8
340,64,166630,2,0,B|352:0|256:-32|160:0|172:64,1,247.350013858617,2|8
204,128,167475,2,0,B|228:192|256:192|284:192|308:256,1,170,2|0
360,304,168109,2,0,B|388:352|440:332,1,85,8|2
428,196,168742,5,2
440,128,168954,1,8
456,60,169165,1,0
388,76,169376,2,0,B|220:76,1,170,4|8
156,108,170010,2,0,B|200:192|256:192|312:192|356:276,1,267.749999202043,2|8
294,308,170855,2,0,B|124:308,1,170,2|0
56,324,171489,1,8
72,256,171700,1,2
128,124,172123,5,2
192,96,172334,1,8
256,68,172545,2,0,B|272:160|360:192,1,170,2|0
328,268,173179,1,8
256,316,173390,2,0,B|240:224|152:192,1,170,2|0
184,116,174024,1,8
172,36,174235,2,0,B|256:12|340:36,2,170,2|0|2
256,180,175503,5,2
228,244,175714,1,8
288,284,175925,1,0
256,348,176137,1,4
256,192,188813,12,0,190503
172,316,190925,6,0,B|256:340|340:316,1,170,4|8
392,260,191558,2,0,B|440:224|516:260|508:328,1,170,2|0
432,324,192192,2,0,B|384:360|308:324|316:256,1,170,8|0
376,116,193037,1,8
332,56,193248,2,0,B|252:116|168:72,1,170,2|0
168,152,193882,2,0,B|88:116,1,85,8|0
52,184,194305,6,0,B|120:216|120:216|172:240|164:296,1,170,4|8
124,356,194939,2,0,B|172:392|248:356|240:288,1,170,2|0
272,220,195572,2,0,B|264:152|340:116|388:152,1,170,8|0
480,276,196417,1,8
452,348,196629,2,0,B|384:288|292:316,1,170,2|0
260,248,197263,2,0,B|176:280,1,85,8|0
140,216,197685,6,0,B|100:168|152:88|224:120,1,170,4|8
294,117,198319,2,0,B|361:92|412:168|372:216,1,170,2|0
340,284,198953,2,0,B|276:300|256:284|236:268|172:284,2,170,8|0|8
340,208,200009,2,0,B|260:158|180:208,1,170,2|0
132,148,200643,1,8
112,76,200854,5,2
256,28,201277,1,0
400,76,201699,1,2
400,228,202122,1,0
256,276,202544,1,2
112,228,202967,1,2
256,176,203389,1,0
120,108,203812,6,0,B|88:148|40:132,2,85,2|8|0
172,52,204446,2,0,B|236:36|256:52|276:68|340:52,1,170,4|8
352,128,205079,2,0,B|342:192|256:192|256:192|171:192|160:256,1,255,2|8
184,332,205925,2,0,B|208:368|256:388|304:368|328:332,1,170,2|0
256,292,206558,1,8
256,292,206770,1,2
112,236,207192,6,0,B|32:276,2,85,2|8|0
92,160,207826,2,0,B|81:121|81:121|66:63|124:47|124:47|154:39,1,170,4|8
204,100,208460,2,0,B|204:144|204:144|204:188|256:232|308:188|308:144|308:144|308:100,1,255,2|8
355,39,209305,2,0,B|387:47|387:47|445:63|430:121|430:121|420:160,1,170,2|0
400,236,209939,2,0,B|480:276,1,85,8|2
332,328,210572,5,2
256,320,210784,1,8
180,312,210995,1,0
104,304,211206,2,0,B|60:224|104:140,1,170,4|8
176,116,211840,2,0,B|160:208|256:192|352:176|336:264,1,255,2|8
408,242,212685,2,0,B|452:160|408:80,1,170,2|0
332,72,213319,1,8
256,64,213530,1,2
108,128,213953,5,2
132,200,214164,1,8
156,272,214375,1,2
336,292,214798,1,0
356,112,215220,1,2
176,92,215643,1,0
133,289,216065,5,2
353,314,216488,1,0
378,94,216910,1,2
158,69,217333,1,0
256,192,217755,1,2
188,228,217967,6,0,B|208:272|256:284|304:272|324:228,1,170,4|8
324,156,218601,2,0,B|304:112|256:100|208:112|188:156,2,170,2|8|2
324,296,219868,1,2
188,296,220291,1,2
152,236,220502,1,10
360,236,220925,1,10
432,116,221347,6,0,B|352:116|352:116|292:116|292:64,1,170,4|8
219,64,221981,2,0,B|220:116|160:116|160:116|80:116,2,170,2|8|2
256,200,223248,1,2
140,280,223671,1,2
152,348,223882,1,10
360,348,224305,1,10
344,208,224727,6,0,B|360:148|320:132|280:116|296:56,1,170,4|8
215,55,225361,2,0,B|232:116|192:132|152:148|168:208,2,170,2|8|2
256,192,226629,1,2
372,280,227051,1,2
360,348,227262,1,10
152,348,227685,1,10
80,220,228108,6,0,B|128:140|228:168,1,170,4|8
284,216,228741,2,0,B|384:244|432:164,2,170,2|8|2
188,320,230009,1,2
324,320,230432,1,2
291,255,230643,5,10
221,255,230854,1,10
256,192,231065,1,10
