osu file format v9

[General]
AudioFilename: 1858 Si Te Vas.mp3
AudioLeadIn: 0
PreviewTime: 67402
Countdown: 0
SampleSet: Soft
StackLeniency: 0.7
Mode: 0
LetterboxInBreaks: 0

[Editor]
Bookmarks: 27962,95283,108804,176125,188801
DistanceSpacing: 0.8
BeatDivisor: 4
GridSize: 4

[Metadata]
Title:Si Te Vas
Artist:Jesse & Joy
Creator:Krisom
Version:Easy
Source:
Tags:Electricidad

[Difficulty]
HPDrainRate:2
CircleSize:3
OverallDifficulty:2
ApproachRate:2
SliderMultiplier:1
SliderTickRate:2

[Events]
//Background and Video events
0,0,"BG.jpg"
//Break Periods
2,95295,107256
2,176337,187253
//Storyboard Layer 0 (Background)
Sprite,Background,Centre,"SB\Black.jpg",320,240 M,0,26284,,310,98 S,0,26284,,0.8156798 F,0,26284,27974,0,1 F,0,27974,231065,1,0.9923077 F,0,231065,232755,0.9923077,0
//Storyboard Layer 1 (Fail)
//Storyboard Layer 2 (Pass)
//Storyboard Layer 3 (Foreground)
Sprite,Foreground,Centre,"SB\Que desquiciante es vivir.png",320,240 S,0,27974,,0.8668801 F,0,27974,28393,0,1 M,0,27974,33848,301,56,334,53 F,0,28393,33008,1,0.9785203 F,0,33008,33848,0.9785203,0
Sprite,Foreground,Centre,"SB\Con la razon de tu lado.png",320,240 S,0,29652,,0.92832 F,0,29652,30071,0,1 M,0,29652,33848,386,90,358,90 F,0,30071,33008,1 F,0,33008,33848,1,0
Sprite,Foreground,Centre,"SB\Esa manera de hablar.png",320,240 S,0,34687,,0.8668801 F,0,34687,35106,0,1 M,0,34687,40561,334,62,297,63 F,0,35106,39722,1,0.9952267 F,0,39722,40561,0.9952267,0
Sprite,Foreground,Centre,"SB\con semejante bocado.png",320,240 S,0,36365,,0.8975999 F,0,36365,36785,0,1 M,0,36365,40561,395,103,364,104 F,0,36785,39722,1,0.9714286 F,0,39722,40561,0.9714286,0
Sprite,Foreground,Centre,"SB\que me anticipes el fin.png",320,240 S,0,41400,,0.9488 F,0,41400,41820,0,1 M,0,41400,47274,335,57,362,59 F,0,41820,46435,1,0.9833333 F,0,46435,47274,0.9833333,0
Sprite,Foreground,Centre,"SB\de algo que no ha comenzado.png",320,240 S,0,43078,,0.9385599 F,0,43078,43498,0,1 M,0,43078,47274,390,104,347,105 F,0,43498,46435,1,0.9833333 F,0,46435,47274,0.9833333,0
Sprite,Foreground,Centre,"SB\que te platique mi dia.png",320,240 S,0,48113,,0.9488 F,0,48113,48533,0,1 M,0,48113,53987,357,56,305,54 F,0,48533,53148,1,0.9833333 F,0,53148,53987,0.9833333,0
Sprite,Foreground,Centre,"SB\y que te gane el cansancio.png",320,240 S,0,49792,,0.93856 F,0,49792,50211,0,1 M,0,49792,53987,391,95,338,95 F,0,50211,53148,1,0.9832935 F,0,53148,53987,0.9832935,0
Sprite,Foreground,Centre,"SB\Pero me he imaginado.png",320,240 M,0,54827,,320,79 F,0,54827,55246,0,1 S,0,54827,60701,0.8771201,0.98976 F,0,55246,59862,1,0.9904535 F,0,59862,60701,0.9904535,0
Sprite,Foreground,Centre,"SB\la cama vacia en tu lado.png",320,240 M,0,61120,,326,105 F,0,61120,61540,0,1 S,0,61120,66155,0.8566402,0.95904 F,0,61540,65736,1 F,0,65736,66155,1,0
Sprite,Foreground,Centre,"SB\Y no!.png",320,240 F,0,66155,66365,0,1 M,0,66365,,334,98 F,0,66365,67204,1,0
Sprite,Foreground,Centre,"SB\Y no!.png",320,240 M,0,66365,,334,98 F,0,66365,66785,1,0 S,0,66365,66785,1,1.22528
Sprite,Foreground,Centre,"SB\Si te vas mi vida que sera.png",320,240 S,0,67414,,0.8054399 F,0,67414,67834,0,1 M,0,67414,70788,334,49,335,77 F,0,67834,70365,1 F,0,70365,70788,1,0
Sprite,Foreground,Centre,"SB\Si no estas mi alma extranara.png",320,240 S,0,70788,,0.7542402 F,0,70788,71210,0,1 M,0,70788,74168,328,45,327,70 F,0,71210,73745,1 F,0,73745,74168,1,0
Sprite,Foreground,Centre,"SB\Tu imperfecta personalidad.png",320,240 S,0,74168,,0.7952 F,0,74168,74591,0,1 M,0,74168,77548,322,42,319,62 F,0,74591,77126,1,0.9979733 F,0,77126,77548,0.9979733,0
Sprite,Foreground,Centre,"SB\que me desespera y quiero mas.png",320,240 M,0,77548,,327,82 F,0,77548,77971,0,1 S,0,77548,80929,0.66208,0.7542401 F,0,77971,80506,1 F,0,80506,80929,1,0
Sprite,Foreground,Centre,"SB\Si te vas mi vida que sera.png",320,240 S,0,80929,,0.7337599 F,0,80929,81351,0,1 M,0,80929,84309,327,116,327,90 F,0,81351,83886,1 F,0,83886,84309,1,0
Sprite,Foreground,Centre,"SB\Si no estas mi alma extranara.png",320,240 S,0,84309,,0.7542397 F,0,84309,84731,0,1 M,0,84309,87689,320,126,317,99 F,0,84731,87267,1 F,0,87267,87689,1,0
Sprite,Foreground,Centre,"SB\que me desespera y quiero mas y mas.png",320,240 M,0,91069,,327,60 F,0,91069,91492,0,1 S,0,91069,94027,0.6723202,0.7644804 F,0,91492,93605,1 F,0,93605,94027,1,0
Sprite,Foreground,Centre,"SB\que me desespera y quiero mas.png",320,240
Sprite,Foreground,Centre,"SB\que me desespera y quiero mas y mas.png",320,240 M,0,93605,,327,59 F,0,93605,94027,0.9984,0 S,0,93605,94027,0.75424,0.7952 F,0,94027,,0
Sprite,Foreground,Centre,"SB\Tu imperfecta personalidad.png",320,240 S,0,87689,,0.77472 F,0,87689,88112,0,1 M,0,87689,91069,318,126,318,98 F,0,88112,90647,1 F,0,90647,91069,1,0
Sprite,Foreground,Centre,"SB\Esa mania que tienes.png",320,240 S,0,108816,,0.8361601 F,0,108816,109235,0,1 M,0,108816,114690,313,59,341,62 F,0,109235,113850,1,0.9880669 F,0,113850,114690,0.9880669,0
Sprite,Foreground,Centre,"SB\de tronarte los dedos.png",320,240 S,0,110494,,0.8976 F,0,110494,110913,0,1 M,0,110494,114690,394,104,368,104 F,0,110913,113850,1,0.9952267 F,0,113850,114690,0.9952267,0
Sprite,Foreground,Centre,"SB\que si te muerdes las unas.png",320,240 S,0,115529,,0.8976 F,0,115529,115948,0,1 M,0,115529,121403,351,60,388,60 F,0,115948,120564,1 F,0,120564,121403,1,0
Sprite,Foreground,Centre,"SB\o te agarras el pelo.png",320,240 S,0,117207,,0.93856 F,0,117207,117627,0,1 M,0,117207,121403,427,103,387,105 F,0,117627,120564,1,0.9857143 F,0,120564,121403,0.9857143,0
Sprite,Foreground,Centre,"SB\que no te quejes de mi.png",320,240 S,0,122242,,0.93856 F,0,122242,122662,0,1 M,0,122242,128116,400,57,360,58 F,0,122662,127277,1 F,0,127277,128116,1,0
Sprite,Foreground,Centre,"SB\como yo siempre me quejo.png",320,240 S,0,123920,,0.8976 F,0,123920,124340,0,1 M,0,123920,128116,360,98,380,98 F,0,124340,127277,1,0.9190476 F,0,127277,128116,0.9190476,0
Sprite,Foreground,Centre,"SB\Que amas todo de mi.png",320,240 S,0,128955,,0.9488 F,0,128955,129375,0,1 M,0,128955,134829,329,79,292,79 F,0,129375,133990,1 F,0,133990,134829,1,0
Sprite,Foreground,Centre,"SB\como te adoro mi cielo.png",320,240 S,0,130634,,0.9385602 F,0,130634,131053,0,1 M,0,130634,134829,272,123,304,123 F,0,131053,133990,1,0.9904535 F,0,133990,134829,0.9904535,0
Sprite,Foreground,Centre,"SB\como vivir sin defectos.png",320,240 M,0,135669,,318,87 F,0,135669,136088,0,1 S,0,135669,140704,0.7963201,0.8873601 F,0,136088,140284,1 F,0,140284,140704,1,0
Sprite,Foreground,Centre,"SB\y como vivir sin lo nuestro.png",320,240 M,0,141962,,316,104 F,0,141962,142382,0,1 S,0,141962,147207,0.8156799,0.86688 F,0,142382,146788,1 F,0,146788,147207,1,0
Sprite,Foreground,Centre,"SB\no.png",320,240 M,0,147207,,319,95 F,0,147207,148256,1,0.004761934 S,0,147207,148256,1,1.2048
Sprite,Foreground,Centre,"SB\Si te vas mi vida que sera.png",320,240 M,0,148256,,332,91 F,0,148256,148676,0,1 S,0,148256,151630,0.72352,0.8259199 F,0,148676,151207,1,0.9904762 F,0,151207,151630,0.9904762,0
Sprite,Foreground,Centre,"SB\Si no estas mi alma extranara.png",320,240 M,0,151630,,332,92 F,0,151630,152052,0,1 S,0,151630,155010,0.7030398,0.7849598 F,0,152052,154587,1 F,0,154587,155010,1,0
Sprite,Foreground,Centre,"SB\Tu imperfecta personalidad.png",320,240 M,0,155010,,324,92 F,0,155010,155433,0,1 S,0,155010,158390,0.7542402,0.8156801 F,0,155433,157968,1,0.9858156 F,0,157968,158390,0.9858156,0
Sprite,Foreground,Centre,"SB\que me desespera y quiero mas.png",320,240 F,0,158390,158813,0,1 M,0,158390,161771,321,93,320,82 S,0,158390,161771,0.7951999,0.8361599 F,0,158813,161348,1,0.9929078 F,0,161348,161771,0.9929078,0
Sprite,Foreground,Centre,"SB\Si te vas mi vida que sera.png",320,240 M,0,161771,,328,82 F,0,161771,162193,0,1 S,0,161771,165151,0.8361599,0.8054401 F,0,162193,164728,1,0.9905213 F,0,164728,165151,0.9905213,0
Sprite,Foreground,Centre,"SB\Si no estas mi alma extranara.png",320,240 M,0,165151,,333,86 F,0,165151,165573,0,1 S,0,165151,168531,0.7644801,0.7337601 F,0,165573,168109,1,0.9976304 F,0,168109,168531,0.9976304,0
Sprite,Foreground,Centre,"SB\Tu imperfecta personalidad.png",320,240 M,0,168531,,327,89 F,0,168531,168954,0,1 S,0,168531,171911,0.8361602,0.8054399 F,0,168954,171489,1 F,0,171489,171911,1,0
Sprite,Foreground,Centre,"SB\que me desespera y quiero mas y mas.png",320,240 F,0,171911,172334,0,1 M,0,171911,176137,320,49,320,63 S,0,171911,176137,0.7542402,0.7030402 F,0,172334,175714,1,0.9858156 F,0,175714,176137,0.9858156,0
Sprite,Foreground,Centre,"SB\Si te vas mi vida que sera.png",320,240 S,0,190080,,0.7849601 F,0,190080,190503,0,1 M,0,190080,193460,322,91,339,105 R,0,190080,193460,-0.04096008,-0.02048004 F,0,190503,193037,1 F,0,193037,193460,1,0
Sprite,Foreground,Centre,"SB\Si no estas mi alma extranara.png",320,240 S,0,193460,,0.82592 F,0,193460,193882,0,1 M,0,193460,196840,356,55,347,61 R,0,193460,196840,0.06144043,0.02048041 F,0,193882,196417,1 F,0,196417,196840,1,0
Sprite,Foreground,Centre,"SB\Tu imperfecta personalidad.png",320,240 S,0,196840,,0.8464 F,0,196840,197263,0,1 M,0,196840,200220,332,53,325,62 R,0,196840,200220,-0.04096001,-7.599592E-08 F,0,197263,199798,1 F,0,199798,200220,1,0
Sprite,Foreground,Centre,"SB\que me desespera y quiero mas.png",320,240 M,0,200220,,337,92 F,0,200220,200643,0,1 S,0,200220,203601,0.70416,0.7644799 F,0,200643,203178,1 F,0,203178,203601,1,0
Sprite,Foreground,Centre,"SB\si te vas.png",320,240 S,0,203601,,1 F,0,203601,204023,0,1 M,0,203601,210361,265,53,315,53 F,0,204023,209939,1 F,0,209939,210361,1,0
Sprite,Foreground,Centre,"SB\si no estas.png",320,240 F,0,206981,207403,0,1 M,0,206981,210361,347,92,376,92 F,0,207403,209939,1,0.9976304 F,0,209939,210361,0.9976304,0
Sprite,Foreground,Centre,"SB\Tu imperfecta personalidad.png",320,240 S,0,210361,,0.83616 F,0,210361,210784,0,1 M,0,210361,213741,317,51,315,59 R,0,210361,213741,0.02047997,-0.02048004 F,0,210784,213319,1 F,0,213319,213741,1,0
Sprite,Foreground,Centre,"SB\que me desespera y quiero mas y mas.png",320,240 M,0,213741,,316,114 F,0,213741,214164,0,1 S,0,213741,218389,0.8156801,0.9078402 F,0,214164,217967,1,0.9763594 F,0,217967,218389,0.9763594,0
Sprite,Foreground,Centre,"SB\que me desespera y quiero mas y mas.png",320,240 M,0,217967,217988,316,114 F,0,217967,218389,0.95232,0 S,0,217967,218389,0.8976002,0.9590402
//Storyboard Sound Samples
//Background Colour Transformations

[TimingPoints]
932,422.535211267606,4,2,1,100,1,0
27974,419.58041958042,4,2,1,100,1,0
27974,-100,4,2,1,100,0,0
64897,-117.647058823529,4,2,1,100,0,0
66365,-100,4,2,1,50,0,0
67414,-100,4,2,1,100,0,0
68253,422.535211267606,4,2,1,100,1,1
81774,-100,4,2,1,100,0,1
93288,-100,4,2,2,100,0,1
93605,-100,4,2,1,100,0,1
95295,-100,4,2,1,100,0,0
108816,419.58041958042,4,2,1,100,1,0
147207,-100,4,2,1,50,0,0
148256,-100,4,2,1,100,0,0
149095,422.535211267606,4,2,1,100,1,1
161665,-100,4,2,1,100,0,1
162616,-100,4,2,1,100,0,1
176137,-100,4,2,1,100,0,0
190503,-100,4,1,2,100,0,0
190925,422.535211267606,4,2,1,100,1,1
204446,-100,4,2,1,100,0,1
216488,-100,4,2,2,100,0,1
216594,-100,4,2,1,100,0,1
216910,-100,4,2,2,100,0,1
217016,-100,4,2,1,100,0,1
217333,-100,4,2,1,100,0,1
217439,-100,4,2,1,100,0,1
217755,-100,4,2,2,100,0,1
217967,-100,4,2,1,100,0,0

[Colours]
Combo1 : 115,193,240
Combo2 : 6,210,190
SliderBorder : 91,185,202
SliderTrackOverride : 0,0,0

[HitObjects]
256,24,27974,1,4
180,48,28393,1,8
104,72,28813,1,2
28,96,29232,2,0,B|-20:192|28:288,1,200,8|8
104,312,30491,1,0
180,336,30911,1,8
192,160,31750,5,8
256,208,32169,1,2
320,160,32589,1,8
256,112,33008,2,0,B|224:68|156:68|120:120,2,150,2|2|8
256,24,34687,5,0
332,48,35106,1,8
408,72,35526,1,2
484,96,35945,2,0,B|532:192|484:288,1,200,8|8
408,312,37204,1,0
332,336,37624,1,8
320,160,38463,5,8
256,208,38882,1,2
192,160,39302,1,8
256,112,39721,2,0,B|288:68|356:68|392:120,2,150,2|2|8
184,152,41400,5,0
112,184,41820,1,8
40,216,42239,1,2
80,288,42659,2,0,B|120:336|168:304|168:304|216:336|256:288,1,200,8|8
324,328,43918,1,0
392,368,44337,1,8
320,224,45176,5,8
256,176,45596,1,2
192,128,46015,1,8
264,96,46435,2,0,B|240:40|168:36|136:72,2,150,2|2|8
328,152,48113,5,0
400,184,48533,1,8
472,216,48953,1,2
432,288,49373,2,0,B|392:336|344:304|344:304|296:336|256:288,1,200,8|8
188,328,50632,1,0
120,368,51051,1,8
192,224,51890,5,8
256,176,52310,1,2
320,128,52729,1,8
388,84,53148,1,2
412,160,53568,1,2
388,236,53987,1,2
420,312,54407,1,2
364,368,54827,6,0,B|200:368|200:368|104:368|104:296,1,300,12|8
108,216,56505,2,0,B|256:192|408:168,1,300,8|8
407,87,58183,2,0,B|408:16|312:16|312:16|148:16,1,300,8|8
92,72,59862,5,8
92,152,60281,1,8
92,232,60701,1,8
92,312,61120,1,8
148,368,61540,6,0,B|312:368|312:368|408:368|408:296,1,300,12|8
404,216,63218,2,0,B|256:192|104:168,1,300,8|8
104,87,64897,2,0,B|104:16|200:16|200:16|364:16,1,297.499987587333,8|4
256,300,68253,5,4
180,268,68675,2,8,B|192:220|256:189|320:220|332:268,1,200
296,116,70365,1,8
216,116,70788,1,2
160,264,71633,5,4
156,344,72055,2,8,B|356:344,1,200
408,192,73745,1,8
408,192,74168,1,2
356,40,75013,5,4
348,120,75435,2,8,B|308:148|268:148|256:120|244:92|204:92|164:120,1,200
216,272,77125,1,8
296,272,77548,1,2
344,104,78393,5,0
296,40,78816,1,8
216,40,79238,1,2
168,104,79661,1,8
164,180,80083,2,0,B|256:112|348:180,1,200,2|2
256,300,81774,5,4
332,268,82196,2,8,B|320:220|256:189|192:220|180:268,1,200
216,116,83886,1,8
296,116,84309,1,2
352,264,85154,5,4
356,344,85576,2,8,B|156:344,1,200
104,192,87266,1,8
104,192,87689,1,2
156,40,88534,5,4
164,120,88956,2,8,B|204:148|244:148|256:120|268:92|308:92|348:120,1,200
296,272,90646,1,8
216,272,91069,1,2
188,116,91914,5,0
216,40,92337,1,8
296,40,92759,1,2
324,116,93182,1,8
256,160,93605,1,4
256,360,108816,5,4
180,336,109235,1,8
104,360,109655,1,2
28,336,110074,2,0,B|-20:240|28:144,1,200,8|8
108,144,111333,1,0
68,76,111753,1,8
224,48,112592,5,8
256,124,113011,1,2
288,200,113431,1,8
256,276,113850,2,0,B|212:300|212:300|160:300|160:300|116:324,2,150,2|2|8
256,360,115529,5,0
332,336,115948,1,8
408,360,116368,1,2
484,336,116787,2,0,B|532:240|484:144,1,200,8|8
404,144,118046,1,0
444,76,118466,1,8
288,48,119305,5,8
256,124,119724,1,2
224,200,120144,1,8
256,276,120563,2,0,B|300:300|300:300|352:300|352:300|396:324,2,150,2|2|8
184,232,122242,5,0
108,256,122662,1,8
128,180,123081,1,2
168,112,123501,2,0,B|216:132|256:84|256:84|296:132|344:112,1,200,8|8
400,52,124760,1,0
424,128,125179,1,8
320,232,126018,5,8
256,184,126438,1,2
192,232,126857,1,8
256,280,127277,2,0,B|232:328|160:328|128:288,2,150,2|2|8
328,232,128955,5,0
404,256,129375,1,8
384,180,129794,1,2
344,112,130214,2,0,B|296:132|256:84|256:84|216:132|168:112,1,200,8|8
112,52,131473,1,0
88,128,131892,1,8
192,232,132731,5,8
256,184,133151,1,2
320,232,133570,1,8
356,160,133990,1,2
296,108,134410,1,2
216,108,134829,1,2
156,160,135249,1,2
76,176,135669,6,0,B|25:216|44:300|121:296|121:296|128:348|180:368|216:340,1,300,12|8
208,260,137347,2,0,B|208:200|208:200|208:132|256:118|304:132|304:200|304:200|304:260,1,300,8|8
298,341,139025,2,0,B|332:368|384:348|390:296|390:296|467:300|486:216|436:176,1,300,8|8
376,124,140704,5,8
296,124,141123,1,8
216,124,141543,1,8
136,124,141962,1,8
108,200,142382,6,0,B|240:200|240:200|316:200|336:280|292:328,1,300,12|8
213,319,144060,2,0,B|181:279|196:200|272:200|272:200|404:200,1,300,8|8
424,124,145739,2,0,B|256:36|88:124,1,350,8|4
372,344,149095,5,4
332,276,149517,2,8,B|320:224|256:204|192:224|180:276,2,200
256,308,151630,1,2
132,208,152475,5,4
160,132,152897,2,8,B|256:84|352:132,2,200
120,64,155010,1,2
100,224,155855,5,4
164,264,156277,2,8,B|204:236|244:236|256:264|268:292|308:292|348:264,2,200
92,300,158390,1,2
176,164,159235,5,0
216,92,159658,1,8
296,92,160080,1,2
336,164,160503,1,8
256,180,160925,2,0,B|228:120|180:108|132:120|104:180,1,200,2|2
140,344,162616,5,4
180,276,163038,2,8,B|192:224|256:204|320:224|332:276,2,200
256,308,165151,1,2
380,208,165996,5,4
352,132,166418,2,8,B|256:84|160:132,2,200
392,64,168531,1,2
412,224,169376,5,4
348,268,169798,2,8,B|308:240|268:240|256:268|244:296|204:296|164:268,2,200
420,300,171911,1,2
356,152,172756,5,0
304,92,173179,2,0,B|256:68|208:92,1,100,8|2
156,152,174024,1,8
164,232,174447,2,0,B|256:300|348:232,2,200,2|2|4
256,192,188813,12,4,190925
256,40,191770,5,2
336,180,192615,1,8
256,196,193037,1,0
176,180,193460,1,2
156,340,194305,6,0,B|360:340,1,200,4|2
336,180,195995,1,8
256,172,196417,1,0
176,180,196840,1,2
160,20,197685,6,0,B|212:52|256:20|300:-12|352:20,1,200,4|2
316,176,199375,1,8
256,228,199798,1,0
196,176,200220,1,2
48,112,201065,5,2
176,16,201910,1,8
336,16,202755,1,2
464,112,203601,1,8
392,256,204446,5,4
256,344,205291,1,2
336,204,206136,1,8
256,188,206558,1,0
176,204,206981,1,2
156,44,207826,6,0,B|360:44,1,200,4|2
336,204,209516,1,8
256,212,209938,1,0
176,204,210361,1,2
160,364,211206,6,0,B|212:332|256:364|300:396|352:364,1,200,4|2
316,208,212896,1,8
256,156,213319,1,0
196,208,213741,1,2
48,272,214586,5,2
120,308,215009,1,0
176,368,215431,1,8
256,360,215854,1,0
336,368,216276,1,2
392,308,216699,1,0
464,272,217122,1,8
476,192,217544,1,0
436,124,217967,6,0,B|360:200|252:160,1,200,4|2
112,84,219657,2,0,B|48:164,1,100,0|8
0,228,220502,1,10
0,228,220925,1,10
76,260,221347,6,0,B|152:184|260:224,1,200,4|2
400,300,223037,2,0,B|464:220,1,100,0|8
512,156,223882,1,10
512,156,224305,1,10
484,80,224727,6,0,B|400:80|400:80|384:100|384:100|292:100,1,200,4|2
432,180,226417,2,0,B|328:180,1,100,0|8
256,204,227263,1,10
256,204,227685,1,10
180,236,228108,6,8,B|192:288|256:308|320:288|332:236,1,200,4|2
296,80,229798,1,0
216,80,230220,1,8
256,148,230643,2,8,B|256:212,2,50,10|10|10
