osu file format v14

[General]
AudioFilename: U.N. Owen Was Yee-.mp3
AudioLeadIn: 0
PreviewTime: 17113
Countdown: 0
SampleSet: Soft
StackLeniency: 0.7
Mode: 2
LetterboxInBreaks: 0
WidescreenStoryboard: 0

[Editor]
DistanceSpacing: 2
BeatDivisor: 4
GridSize: 16
TimelineZoom: 1.9

[Metadata]
Title:U.N. Owen Was Yee?
TitleUnicode:U.N. Owen Was Yee?
Artist:JerryTerry
ArtistUnicode:JerryTerry
Creator:Zak
Version:Platter
Source:Dinosaur Adventure
Tags:Minky Touhou YouTube
BeatmapID:600357
BeatmapSetID:263191

[Difficulty]
HPDrainRate:5
CircleSize:3.7
OverallDifficulty:8
ApproachRate:8
SliderMultiplier:2
SliderTickRate:1

[Events]
//Background and Video events
0,0,"bg.png",0,0
Video,0,"Video.avi"
//Break Periods
//Storyboard Layer 0 (Background)
//Storyboard Layer 1 (Fail)
//Storyboard Layer 2 (Pass)
//Storyboard Layer 3 (Foreground)
//Storyboard Sound Samples

[TimingPoints]
1630,387.096774193548,4,2,0,50,1,0
9371,-100,4,2,0,65,0,0
17113,-100,4,2,0,70,0,0
20210,-100,4,2,0,80,0,0
22533,-74.0740740740741,4,2,0,80,0,0
23113,-80,4,2,0,80,0,0
28726,-66.6666666666667,4,2,0,80,0,0
29307,-100,4,2,0,80,0,0
35694,-100,4,2,0,50,0,0

[Colours]
Combo1 : 188,124,67
Combo2 : 105,151,104

[HitObjects]
464,80,1630,6,0,L|256:80,2,200
160,80,2791,1,8,0:0:0:0:
496,80,3049,1,0,0:0:0:0:
336,80,3307,1,4,0:0:0:0:
176,192,3565,6,0,P|64:192|16:128,2,200,2|2|2,0:0|0:0|0:0,0:0:0:0:
384,192,4726,1,8,0:0:0:0:
112,192,4984,1,0,0:0:0:0:
352,144,5242,1,4,0:0:0:0:
176,144,5500,6,0,P|249:81|343:103,2,200,2|2|2,0:0|0:0|0:0,0:0:0:0:
16,96,6662,1,8,0:0:0:0:
384,96,6920,1,0,0:0:0:0:
192,96,7178,1,4,0:0:0:0:
352,96,7436,6,0,P|368:208|464:192,2,200,2|2|2,0:0|0:0|0:0,0:0:0:0:
128,320,8597,1,8,0:0:0:0:
352,320,8855,1,0,0:0:0:0:
192,320,9113,1,4,0:0:0:0:
32,240,9371,6,0,L|240:240,2,200,2|2|2,0:0|0:0|0:0,0:0:0:0:
288,240,10533,1,8,0:0:0:0:
480,240,10791,1,0,0:0:0:0:
160,240,11049,1,4,0:0:0:0:
368,144,11307,6,0,P|256:112|208:48,2,200,2|2|2,0:0|0:0|0:0,0:0:0:0:
144,144,12468,1,8,0:0:0:0:
400,144,12726,1,0,0:0:0:0:
176,144,12984,1,4,0:0:0:0:
320,256,13242,6,0,P|384:336|480:336,2,200,2|2|2,0:0|0:0|0:0,0:0:0:0:
224,208,14404,1,8,0:0:0:0:
0,128,14662,1,0,0:0:0:0:
368,128,14920,1,4,0:0:0:0:
240,288,15178,6,0,P|160:352|80:304,2,200,2|2|2,0:0|0:0|0:0,0:0:0:0:
448,192,16339,1,8,0:0:0:0:
256,192,16597,1,0,0:0:0:0:
64,192,16855,1,4,0:0:0:0:
224,96,17113,5,2,0:0:0:0:
16,96,17500,1,0,0:0:0:0:
384,96,17887,1,2,0:0:0:0:
160,96,18274,1,0,0:0:0:0:
512,96,18662,1,2,0:0:0:0:
16,96,19049,1,0,0:0:0:0:
288,96,19436,1,2,0:0:0:0:
112,96,19823,1,0,0:0:0:0:
416,192,20210,5,0,0:0:0:0:
304,192,20403,1,2,0:0:0:0:
144,192,20597,1,0,0:0:0:0:
256,192,20791,1,2,0:0:0:0:
144,272,20984,5,0,0:0:0:0:
16,272,21178,1,2,0:0:0:0:
192,272,21371,1,0,0:0:0:0:
320,272,21565,1,2,0:0:0:0:
496,112,21758,5,0,0:0:0:0:
368,112,21952,1,2,0:0:0:0:
192,112,22145,1,0,0:0:0:0:
320,112,22339,1,2,0:0:0:0:
176,352,22533,2,2,P|64:208|192:64,1,405.000001544952
368,352,23307,6,8,L|480:288,1,125,8|0,0:0|0:0,0:0:0:0:
320,288,23694,2,10,L|211:225,1,125,10|2,0:0|0:0,0:0:0:0:
400,224,24081,2,8,L|291:161,1,125,8|0,0:0|0:0,0:0:0:0:
176,160,24468,2,10,L|284:97,1,125,10|2,0:0|0:0,0:0:0:0:
384,96,24855,6,8,L|272:160,1,125,8|0,0:0|0:0,0:0:0:0:
128,96,25242,2,10,L|240:160,1,125,10|2,0:0|0:0,0:0:0:0:
368,176,25629,2,8,L|480:240,1,125,8|0,0:0|0:0,0:0:0:0:
320,256,26016,2,10,L|208:320,1,125,10|2,0:0|0:0,0:0:0:0:
32,336,26403,6,8,L|160:256,1,125,8|0,0:0|0:0,0:0:0:0:
288,240,26791,2,10,L|160:160,1,125
48,112,27178,2,8,L|176:32,1,125,8|0,0:0|0:0,0:0:0:0:
288,96,27565,2,10,L|393:162,1,125
224,224,27952,6,8,L|224:352,1,125,8|0,0:0|0:0,0:0:0:0:
32,224,28339,2,10,L|32:352,1,125
288,320,28726,2,0,B|384:240|384:240|208:144|208:144|288:48|288:48,1,450.000017166138
112,48,29500,5,0,0:0:0:0:
400,48,29887,1,10,0:0:0:0:
112,128,30274,1,0,0:0:0:0:
400,128,30661,1,10,0:0:0:0:
112,208,31049,5,0,0:0:0:0:
320,208,31436,1,2,0:0:0:0:
192,288,31629,1,0,0:0:0:0:
320,288,31823,1,10,0:0:0:0:
32,288,32210,1,10,0:0:0:0:
416,144,32597,5,8,0:0:0:0:
256,144,32790,1,2,0:0:0:0:
96,64,32984,1,8,0:0:0:0:
256,64,33178,1,2,0:0:0:0:
416,64,33371,1,8,0:0:0:0:
256,224,33565,5,2,0:0:0:0:
192,224,33661,1,10,0:0:0:0:
256,224,33758,1,4,0:0:0:0:
432,224,33952,1,0,0:0:0:0:
256,192,34145,12,0,35694,0:0:0:0:
