osu file format v14

[General]
AudioFilename: Canon Rock (JerryC) - The Original.mp3
AudioLeadIn: 0
PreviewTime: 103265
Countdown: 0
SampleSet: Soft
StackLeniency: 0.7
Mode: 0
LetterboxInBreaks: 0
WidescreenStoryboard: 0

[Editor]
DistanceSpacing: 1.2
BeatDivisor: 4
GridSize: 4
TimelineZoom: 2.799997

[Metadata]
Title:Canon Rock
TitleUnicode:Canon Rock
Artist:JerryC
ArtistUnicode:JerryC
Creator:momo1101
Version:Fort's Extra
Source:
Tags:Taiwan Taipei Zhang Yfn Johann Pachelbel Jeong-Hyun Lim Funtwo Fort rew0825 ts8zs puxtu Hi_Hello AlpacaCokelat HootOwlStar jinhang_ang Harbyter VINXIS game rock andrei7
BeatmapID:486740
BeatmapSetID:203734

[Difficulty]
HPDrainRate:6
CircleSize:4
OverallDifficulty:8
ApproachRate:9
SliderMultiplier:1.4
SliderTickRate:1

[Events]
//Background and Video events
0,0,"Konachan.com - 124393 sample.jpg",0,0
//Break Periods
2,91615,100415
2,122964,130415
2,161215,167615
//Storyboard Layer 0 (Background)
//Storyboard Layer 1 (Fail)
//Storyboard Layer 2 (Pass)
//Storyboard Layer 3 (Foreground)
//Storyboard Sound Samples

[TimingPoints]
749,666.666666666667,4,2,0,100,1,0
43415,300,4,2,0,100,1,0
51215,-100,4,3,0,100,0,0
51815,-100,4,1,0,100,0,0
52115,-100,4,2,0,100,0,0
53015,-83.3333333333333,4,2,0,100,0,0
61415,-83.3333333333333,4,1,0,100,0,0
62615,-83.3333333333333,4,2,0,100,0,0
80615,-83.3333333333333,4,1,0,100,0,0
81815,-83.3333333333333,4,2,0,100,0,0
90215,-83.3333333333333,4,1,0,100,0,0
103415,-100,4,2,0,100,0,1
111815,-100,4,1,0,100,0,1
113015,-100,4,2,0,100,0,1
122615,-100,4,2,0,100,0,0
170615,-66.6666666666667,4,2,0,100,0,1
179015,-66.6666666666667,4,1,0,100,0,1
180215,-66.6666666666667,4,2,0,100,0,1
189815,-100,4,2,0,100,0,0
193415,600,4,2,0,100,1,0
210215,300,4,2,0,100,1,0
212615,-100,4,2,0,100,0,0
231815,-66.6666666666667,4,2,0,100,0,1
240215,-66.6666666666667,4,1,0,100,0,1
241415,-66.6666666666667,4,2,0,100,0,1
251615,300,4,2,0,100,1,1
252815,-100,4,1,0,20,0,1
252965,-100,4,1,0,30,0,1
253115,-100,4,1,0,40,0,1
253265,-100,4,1,0,50,0,1
253415,-100,4,1,0,60,0,1
253565,-100,4,1,0,70,0,1
253715,-100,4,1,0,80,0,1
253865,-100,4,1,0,90,0,1
254015,-66.6666666666667,4,2,0,100,0,1
261215,-66.6666666666667,4,2,0,100,0,0
270815,-83.3333333333333,4,2,0,100,0,0
279215,-83.3333333333333,4,1,0,100,0,0
280415,-83.3333333333333,4,2,0,100,0,0
290015,666.666666666667,4,2,0,100,1,0

[Colours]
Combo1 : 0,128,255
Combo2 : 0,0,255
Combo3 : 0,64,128
Combo4 : 128,128,255

[HitObjects]
464,64,32749,6,0,L|320:80,1,140,2|0,0:0|0:0,0:0:0:0:
284,152,33749,1,0,0:0:0:0:
228,216,34082,2,0,P|196:184|196:152,1,70,2|0,0:0|0:0,0:0:0:0:
193,161,34582,1,0,0:0:0:0:
193,161,34749,1,2,0:0:0:0:
132,104,35082,1,2,0:0:0:0:
80,172,35415,6,0,L|112:320,1,140,2|0,0:0|0:0,0:0:0:0:
184,344,36415,1,2,0:0:0:0:
184,344,36582,1,2,0:0:0:0:
184,344,36749,1,2,0:0:0:0:
256,300,37082,1,2,0:0:0:0:
324,348,37415,2,0,P|340:324|340:272,1,70,4|2,0:0|0:0,0:0:0:0:
424,300,38082,6,0,P|416:264|424:216,1,70,2|2,0:0|0:0,0:0:0:0:
428,204,38526,1,2,0:0:0:0:
444,180,38637,1,2,0:0:0:0:
464,164,38749,2,0,L|384:140,1,70,4|0,0:0|0:0,0:0:0:0:
360,68,39415,5,0,0:0:0:0:
292,116,39749,1,0,0:0:0:0:
228,64,40082,1,2,0:0:0:0:
204,80,40193,1,2,0:0:0:0:
176,80,40304,1,2,0:0:0:0:
152,64,40415,1,2,0:0:0:0:
68,48,40749,6,0,L|72:124,1,70
116,188,41415,2,0,L|120:264,1,70,0|0,0:0|0:0,0:0:0:0:
176,324,42082,2,0,P|216:348|312:328,1,140,2|0,0:0|0:0,0:0:0:0:
304,333,43415,6,0,L|280:184,1,140,2|0,0:0|0:0,0:0:0:0:
260,112,43865,1,2,0:0:0:0:
260,112,44015,2,0,L|184:120,1,70,2|0,0:0|0:0,0:0:0:0:
112,96,44315,1,2,0:0:0:0:
176,44,44465,1,2,0:0:0:0:
260,28,44615,6,0,P|304:36|332:64,1,70,4|0,0:0|0:0,0:0:0:0:
408,48,44915,2,0,L|376:124,1,70,2|0,0:0|0:0,0:0:0:0:
444,168,45215,2,0,L|412:244,1,70,2|0,0:0|0:0,0:0:0:0:
336,256,45515,2,0,L|348:292,1,35,2|0,0:0|0:0,0:0:0:0:
264,300,45665,2,0,L|264:344,1,35,2|0,0:0|0:0,0:0:0:0:
152,276,45815,6,4,L|44:288,1,105,4|0,0:0|0:0,0:0:0:0:
47,287,46115,1,2,0:0:0:0:
76,208,46265,1,2,0:0:0:0:
32,136,46415,2,0,P|64:120|132:132,1,105,2|0,0:0|0:0,0:0:0:0:
148,92,46715,2,0,P|212:108|260:92,1,105,2|0,0:0|0:0,0:0:0:0:
280,72,47015,6,0,L|304:152,1,70,4|0,0:0|0:0,0:0:0:0:
384,144,47315,2,0,P|380:172|372:192,1,35,2|0,0:0|0:0,0:0:0:0:
424,248,47465,2,0,P|404:260|392:260,1,35,2|0,0:0|0:0,0:0:0:0:
372,340,47615,2,0,B|340:324|340:324|268:344,1,105,2|0,0:0|0:0,0:0:0:0:
236,320,47915,2,0,L|160:320,1,70,2|0,0:0|0:0,0:0:0:0:
96,272,48215,6,0,P|84:240|88:200,1,70,4|0,0:0|0:0,0:0:0:0:
28,148,48515,1,2,0:0:0:0:
88,88,48665,1,0,0:0:0:0:
8,68,48815,1,2,0:0:0:0:
160,136,48965,2,0,P|176:104|140:8,1,140,4|0,0:0|0:0,0:0:0:0:
168,220,49415,6,0,B|216:212|216:212|268:232,1,105,2|0,0:0|0:0,0:0:0:0:
268,232,49715,1,2,0:0:0:0:
344,264,49865,1,2,0:0:0:0:
428,256,50015,2,0,P|416:216|392:196,1,70,2|0,0:0|0:0,0:0:0:0:
428,120,50315,2,0,P|388:112|352:124,1,70,2|0,0:0|0:0,0:0:0:0:
308,52,50615,6,0,P|248:80|168:52,1,140,4|2,0:0|0:0,0:0:0:0:
144,140,51065,1,2,0:0:0:0:
88,76,51215,1,0,0:0:0:0:
136,236,51365,1,0,0:0:0:0:
16,116,51515,1,0,0:0:0:0:
176,64,51665,1,0,0:0:0:0:
56,236,51815,6,0,P|72:288|160:312,1,140,4|2,0:0|0:0,0:0:0:0:
216,264,52265,1,2,0:0:0:0:
280,320,52415,2,0,P|304:288|304:248,1,70,2|0,0:0|0:0,0:0:0:0:
388,240,52715,2,0,P|376:208|340:184,1,70,2|0,0:0|0:0,0:0:0:0:
368,88,53015,6,0,L|184:108,1,167.999994873047,4|0,0:0|1:1,0:0:0:0:
104,72,53465,1,0,0:0:0:0:
428,24,53615,2,0,P|456:68|448:108,1,83.9999974365235,2|2,0:0|0:0,0:0:0:0:
296,224,53915,1,0,1:0:0:0:
436,172,54065,1,0,3:3:0:0:
236,176,54215,6,0,P|220:224|232:268,1,83.9999974365235,4|0,0:0|0:0,0:0:0:0:
316,304,54515,1,0,1:1:0:0:
372,220,54665,1,0,0:0:0:0:
372,220,54815,2,0,P|352:172|320:152,1,83.9999974365235,2|0,3:3|0:0,0:0:0:0:
124,172,55115,1,0,1:1:0:0:
252,96,55265,1,0,0:0:0:0:
100,92,55415,6,0,P|56:124|40:164,1,83.9999974365235,4|0,0:3|0:0,0:0:0:0:
72,248,55715,1,0,1:1:0:0:
8,56,55865,1,2,0:0:0:0:
192,144,56015,2,0,P|200:188|180:224,1,83.9999974365235,2|0,0:0|3:0,0:0:0:0:
136,312,56315,2,0,L|288:296,1,125.999996154785,2|0,0:0|0:0,0:0:0:0:
261,298,56615,6,0,P|288:256|300:216,1,83.9999974365235,4|0,0:0|0:0,0:0:0:0:
304,124,56915,1,0,1:1:0:0:
232,56,57065,1,0,0:0:0:0:
132,64,57215,1,0,3:0:0:0:
84,152,57365,1,0,3:0:0:0:
148,228,57515,2,0,P|192:236|236:220,1,83.9999974365235,0|0,1:0|0:0,0:0:0:0:
364,76,57815,6,0,P|380:124|364:164,1,83.9999974365235,4|0,0:0|0:0,0:0:0:0:
288,212,58115,2,0,P|240:188|224:160,1,83.9999974365235,0|0,1:0|0:0,0:0:0:0:
232,64,58415,1,0,0:0:0:0:
372,276,58565,2,0,P|320:312|212:288,1,167.999994873047,2|4,3:0|3:0,0:0:0:0:
124,324,59015,6,0,B|84:304|84:304|24:304,1,83.9999974365235,4|0,0:0|0:0,0:0:0:0:
8,208,59315,1,0,1:0:0:0:
44,116,59465,1,0,0:0:0:0:
140,88,59615,2,0,P|144:132|120:180,1,83.9999974365235,2|0,0:0|0:0,0:0:0:0:
200,240,59915,1,2,0:0:0:0:
272,308,60065,1,0,3:0:0:0:
292,208,60215,6,0,L|276:88,1,83.9999974365235,4|0,0:0|0:0,0:0:0:0:
364,68,60515,2,0,L|380:188,1,83.9999974365235,0|0,1:0|0:0,0:0:0:0:
368,252,60815,1,2,0:0:0:0:
192,156,60965,1,0,0:0:0:0:
440,204,61115,2,0,P|456:248|448:288,1,83.9999974365235,0|0,1:0|3:0,0:0:0:0:
368,344,61415,6,0,L|184:312,1,167.999994873047,0|4,1:0|3:0,0:0:0:0:
104,344,61865,1,2,3:0:0:0:
28,280,62015,2,0,P|76:244|120:256,1,83.9999974365235,2|0,2:0|0:0,0:0:0:0:
112,144,62315,2,0,P|164:160|204:152,1,83.9999974365235,2|0,2:0|0:0,0:0:0:0:
272,92,62615,6,0,B|340:76|340:76|424:160,1,167.999994873047,4|0,0:0|1:0,0:0:0:0:
432,244,63065,1,0,0:0:0:0:
408,344,63215,2,0,P|356:348|316:332,1,83.9999974365235,0|0,3:0|0:0,0:0:0:0:
236,292,63515,2,0,L|152:324,1,83.9999974365235,0|0,1:0|0:0,0:0:0:0:
72,268,63815,6,0,B|24:220|24:220|4:108,1,167.999994873047,4|0,3:0|1:0,0:0:0:0:
80,52,64265,1,0,0:0:0:0:
160,112,64415,1,4,3:0:0:0:
160,112,65015,6,0,P|208:144|320:84,1,167.999994873047,4|0,0:0|1:0,0:0:0:0:
336,16,65465,2,0,P|284:16|240:40,1,83.9999974365235,2|0,0:0|0:0,0:0:0:0:
328,216,65765,2,0,P|376:248|472:184,1,167.999994873047,2|0,0:0|3:0,0:0:0:0:
212,192,66215,6,0,P|196:248|256:348,1,167.999994873047,4|0,3:0|1:0,0:0:0:0:
340,312,66665,1,2,0:0:0:0:
404,236,66815,2,0,P|408:192|384:156,1,83.9999974365235,2|0,0:0|0:0,0:0:0:0:
136,168,67115,2,0,P|132:212|156:248,1,83.9999974365235,0|0,1:0|0:0,0:0:0:0:
304,112,67415,6,0,P|260:76|132:60,1,167.999994873047,4|0,0:0|1:0,0:0:0:0:
76,120,67865,1,0,0:0:0:0:
212,188,68015,1,0,3:0:0:0:
132,60,68165,2,0,P|92:40|48:52,1,83.9999974365235,0|0,3:0|1:0,0:0:0:0:
64,200,68465,1,0,0:0:0:0:
200,264,68615,6,0,P|252:256|276:232,1,83.9999974365235,4|0,3:0|0:0,0:0:0:0:
80,292,68915,2,0,P|28:300|4:324,1,83.9999974365235,0|0,1:0|0:0,0:0:0:0:
308,312,69215,2,0,P|348:272|300:156,1,167.999994873047,0|0,3:0|1:0,0:0:0:0:
232,136,69665,1,0,0:0:0:0:
140,92,69815,6,0,P|184:104|312:64,1,167.999994873047,4|0,3:0|1:0,0:0:0:0:
384,132,70265,1,8,3:0:0:0:
460,68,70415,2,2,P|488:128|456:204,2,125.999996154785,6|2|2,0:0|0:0|0:0,0:0:0:0:
360,48,71015,6,0,P|308:88|332:200,1,167.999994873047,2|0,0:0|1:0,0:0:0:0:
396,244,71465,1,0,0:0:0:0:
476,304,71615,2,0,P|496:264|500:224,1,83.9999974365235,2|0,0:0|0:0,0:0:0:0:
308,168,71915,2,0,P|288:208|284:248,1,83.9999974365235,0|0,1:0|0:0,0:0:0:0:
396,148,72215,6,0,L|208:120,1,167.999994873047,4|0,0:0|1:0,0:0:0:0:
128,136,72665,1,0,3:0:0:0:
56,208,72815,1,0,3:0:0:0:
68,308,72965,2,0,P|120:332|176:328,1,83.9999974365235,0|0,3:0|1:0,0:0:0:0:
240,296,73265,1,0,0:0:0:0:
260,196,73415,6,0,B|268:136|268:136|252:96|252:96|272:16,1,167.999994873047,4|0,0:0|1:0,0:0:0:0:
368,32,73865,1,0,0:0:0:0:
456,80,74015,2,0,P|484:116|476:176,1,83.9999974365235
432,240,74315,1,0,1:0:0:0:
432,240,74615,6,0,B|380:224|380:224|336:228|336:228|268:204,1,167.999994873047,4|0,3:0|1:0,0:0:0:0:
180,248,75065,1,0,0:0:0:0:
104,184,75215,1,0,0:0:0:0:
104,184,75365,2,0,P|80:240|80:272,1,83.9999974365235,0|0,0:0|1:0,0:0:0:0:
148,336,75665,1,0,0:0:0:0:
244,304,75815,6,0,P|264:256|184:160,1,167.999994873047,4|0,3:0|1:0,0:0:0:0:
124,104,76265,1,0,0:0:0:0:
28,140,76415,2,0,P|16:196|40:248,1,83.9999974365235
112,268,76715,2,0,P|164:252|184:220,1,83.9999974365235,0|0,1:0|0:0,0:0:0:0:
220,136,77015,6,0,P|224:84|212:40,1,83.9999974365235,4|0,0:0|0:0,0:0:0:0:
284,244,77315,2,0,P|280:296|292:340,1,83.9999974365235,0|0,1:0|0:0,0:0:0:0:
436,192,77615,2,0,P|404:144|368:120,1,83.9999974365235
132,160,77915,1,0,1:0:0:0:
312,72,78065,1,0,0:0:0:0:
60,100,78215,6,0,P|40:152|48:188,1,83.9999974365235,4|0,3:0|0:0,0:0:0:0:
172,336,78515,2,0,P|192:284|184:248,1,83.9999974365235,0|0,1:0|0:0,0:0:0:0:
280,212,78815,2,0,P|244:168|220:120,1,83.9999974365235
432,144,79115,2,0,L|460:248,1,83.9999974365235,0|0,1:0|0:0,0:0:0:0:
416,320,79415,6,0,P|376:344|312:332,1,83.9999974365235,4|0,3:0|0:0,0:0:0:0:
100,268,79715,2,0,P|140:244|204:256,1,83.9999974365235,0|0,1:0|0:0,0:0:0:0:
52,156,80015,2,0,P|88:120|116:56,1,83.9999974365235
20,36,80315,1,0,1:0:0:0:
184,156,80465,1,0,0:0:0:0:
352,44,80615,6,0,L|388:136,1,83.9999974365235,0|0,1:0|0:0,0:0:0:0:
382,122,81065,1,0,0:0:0:0:
396,220,81215,1,0,0:0:0:0:
336,300,81365,1,0,0:0:0:0:
236,292,81515,2,0,P|184:280|120:300,1,83.9999974365235,4|0,0:0|0:0,0:0:0:0:
64,332,81815,6,0,L|88:160,1,167.999994873047,4|0,0:0|1:0,0:0:0:0:
232,24,82415,2,0,L|208:196,1,167.999994873047,0|0,0:0|1:0,0:0:0:0:
236,288,82865,1,0,0:0:0:0:
328,332,83015,2,0,P|380:336|464:228,1,167.999994873047,0|0,0:0|1:0,0:0:0:0:
316,120,83615,6,0,L|128:144,1,167.999994873047,4|0,3:0|1:0,0:0:0:0:
0,272,84215,2,0,L|188:248,1,167.999994873047,0|0,0:0|1:0,1:0:0:0:
256,300,84665,1,0,0:0:0:0:
336,240,84815,2,0,P|360:288|360:328,1,83.9999974365235
436,248,85115,2,0,P|412:200|412:160,1,83.9999974365235,0|0,1:0|0:0,0:0:0:0:
468,88,85415,6,0,L|280:64,1,167.999994873047,4|0,3:0|1:0,0:0:0:0:
232,144,85865,1,0,0:0:0:0:
160,72,86015,2,0,P|132:124|180:236,1,167.999994873047,0|0,0:0|1:0,0:0:0:0:
364,216,86615,6,0,L|328:24,1,167.999994873047,0|0,0:0|1:0,0:0:0:0:
476,192,87215,2,0,L|512:384,1,167.999994873047,0|0,0:0|1:0,0:0:0:0:
408,332,87665,1,0,0:0:0:0:
316,372,87815,2,0,P|304:328|312:284,1,83.9999974365235
216,256,88115,2,0,P|236:216|280:196,1,83.9999974365235,0|0,1:0|0:0,0:0:0:0:
204,120,88415,2,0,P|264:96|360:148,1,167.999994873047,0|0,0:0|1:0,0:0:0:0:
408,332,89015,6,0,L|224:344,1,167.999994873047,0|0,0:0|1:0,0:0:0:0:
52,272,89615,2,0,L|236:260,1,167.999994873047,0|0,0:0|1:0,0:0:0:0:
312,220,90065,1,0,0:0:0:0:
112,188,90215,5,0,1:0:0:0:
308,136,90515,1,0,1:1:0:0:
392,192,90665,1,0,0:0:0:0:
364,288,90815,1,0,0:0:0:0:
264,288,90965,1,0,0:0:0:0:
224,196,91115,6,0,B|224:144|224:144|196:96|196:96|200:28,1,167.999994873047,0|4,0:0|0:0,0:0:0:0:
256,192,101015,12,4,103115,0:0:0:0:
396,140,103415,6,0,P|352:152|304:140,1,70,4|0,0:0|0:0,0:0:0:0:
252,116,103715,1,0,1:0:0:0:
180,72,103865,1,0,0:0:0:0:
24,140,104015,2,0,P|68:128|116:140,1,70
168,164,104315,1,0,1:0:0:0:
240,208,104465,1,0,0:0:0:0:
164,244,104615,1,0,3:0:0:0:
236,288,104765,5,0,0:0:0:0:
92,200,104915,1,0,1:0:0:0:
188,60,105065,1,0,0:0:0:0:
88,292,105215,1,0,0:0:0:0:
264,112,105365,1,0,0:0:0:0:
96,112,105515,1,0,1:0:0:0:
308,248,105665,1,0,0:0:0:0:
28,156,105815,6,0,P|12:116|24:76,1,70,4|0,0:0|0:0,0:0:0:0:
304,36,106115,1,0,1:0:0:0:
180,148,106265,1,0,0:0:0:0:
348,172,106415,2,0,P|360:136|356:96,1,70
196,64,106715,1,0,1:0:0:0:
432,156,106865,1,0,0:0:0:0:
264,132,107015,5,0,0:0:0:0:
420,76,107165,1,0,0:0:0:0:
400,244,107315,1,0,1:0:0:0:
304,36,107465,1,0,0:0:0:0:
480,216,107615,1,0,0:0:0:0:
316,248,107765,2,0,P|284:224|272:192,2,70,0|0|0,0:0|1:0|0:0,0:0:0:0:
400,244,108215,6,0,P|392:296|360:328,1,70,4|0,0:0|0:0,0:0:0:0:
216,288,108515,1,0,1:0:0:0:
340,176,108665,1,0,0:0:0:0:
144,256,108815,2,0,P|140:296|156:336,1,70
204,164,109115,5,0,1:0:0:0:
60,252,109265,1,0,0:0:0:0:
268,224,109415,1,0,0:0:0:0:
108,180,109565,1,0,0:0:0:0:
148,344,109715,1,0,1:0:0:0:
168,92,109865,1,0,0:0:0:0:
228,292,110015,1,0,0:0:0:0:
280,132,110165,1,0,0:0:0:0:
156,244,110315,1,0,1:0:0:0:
356,176,110465,1,0,0:0:0:0:
100,32,110615,6,0,P|76:76|80:104,1,70,4|0,0:0|0:0,0:0:0:0:
220,188,110915,1,0,1:0:0:0:
240,20,111065,1,0,0:0:0:0:
300,264,111215,2,0,L|216:296,1,70
156,256,111515,5,0,1:0:0:0:
324,252,111665,1,0,0:0:0:0:
164,116,111815,1,0,0:0:0:0:
208,320,111965,1,0,0:0:0:0:
304,184,112115,1,0,1:0:0:0:
64,264,112265,1,0,0:0:0:0:
396,204,112415,1,0,0:0:0:0:
104,184,112565,1,0,0:0:0:0:
304,336,112715,1,0,1:0:0:0:
372,92,112865,1,0,0:0:0:0:
372,92,112940,1,0,0:0:0:0:
372,92,113015,6,0,L|276:80,1,70,4|0,0:0|0:0,0:0:0:0:
164,240,113315,1,0,1:0:0:0:
92,88,113465,1,0,0:0:0:0:
228,184,113615,2,0,P|248:232|240:272,1,70
80,268,113915,5,0,1:0:0:0:
168,124,114065,1,0,0:0:0:0:
140,332,114215,1,0,0:0:0:0:
100,168,114365,1,0,0:0:0:0:
256,108,114515,1,0,1:0:0:0:
8,152,114665,1,0,0:0:0:0:
344,156,114815,2,0,P|360:116|352:76,1,70
216,32,115115,1,0,1:0:0:0:
264,192,115265,1,0,0:0:0:0:
88,80,115415,6,0,L|100:176,1,70,4|0,0:0|0:0,0:0:0:0:
336,72,115715,1,0,1:0:0:0:
192,156,115865,1,0,0:0:0:0:
340,236,116015,2,0,P|384:228|408:208,1,70
428,132,116315,5,0,1:0:0:0:
272,192,116465,1,0,0:0:0:0:
392,308,116615,1,0,0:0:0:0:
424,144,116765,1,0,0:0:0:0:
260,276,116915,1,0,1:0:0:0:
496,188,117065,1,0,0:0:0:0:
164,248,117215,1,0,0:0:0:0:
308,96,117365,2,0,P|344:136|352:168,2,70,0|0|0,0:0|1:0|0:0,0:0:0:0:
60,144,117815,6,0,P|100:160|152:152,1,70,4|0,0:0|0:0,0:0:0:0:
244,40,118115,1,0,1:0:0:0:
76,60,118265,1,0,0:0:0:0:
188,236,118415,2,0,P|212:208|212:160,1,70
184,100,118715,5,0,1:0:0:0:
140,304,118865,1,0,0:0:0:0:
304,268,119015,1,0,0:0:0:0:
96,240,119165,1,0,0:0:0:0:
324,348,119315,1,0,1:0:0:0:
36,296,119465,1,0,0:0:0:0:
256,172,119615,1,0,0:0:0:0:
216,336,119765,1,0,0:0:0:0:
112,152,119915,1,0,1:0:0:0:
320,120,120065,1,0,0:0:0:0:
32,180,120215,6,0,P|24:136|40:104,1,70,4|0,0:0|0:0,0:0:0:0:
276,44,120515,1,0,1:0:0:0:
180,184,120665,1,0,0:0:0:0:
348,200,120815,2,0,P|384:176|400:144,1,70
192,100,121115,5,0,1:0:0:0:
352,44,121265,1,0,0:0:0:0:
264,188,121415,1,0,0:0:0:0:
220,24,121565,1,0,0:0:0:0:
344,140,121715,1,0,1:0:0:0:
300,304,121865,1,0,1:0:0:0:
132,300,122015,1,0,1:0:0:0:
44,156,122165,1,0,0:0:0:0:
192,236,122315,1,0,1:0:0:0:
32,284,122465,1,0,1:0:0:0:
192,148,122615,6,0,P|244:164|272:192,1,70,4|0,1:0|0:0,0:0:0:0:
256,192,131015,12,0,132065,0:0:0:0:
452,128,132215,6,0,L|296:112,1,140,0|0,0:0|1:0,0:0:0:0:
264,180,132665,1,0,0:0:0:0:
204,120,132815,2,0,P|180:168|192:212,1,70
112,232,133115,2,0,L|172:280,1,70,0|0,1:0|0:0,0:0:0:0:
192,356,133415,6,0,L|344:336,1,140,0|0,0:0|1:0,0:0:0:0:
384,272,133865,1,0,0:0:0:0:
400,188,134015,1,0,0:0:0:0:
360,112,134165,1,0,0:0:0:0:
280,84,134315,1,0,1:0:0:0:
280,84,134615,6,0,P|232:112|152:88,1,140,0|0,0:0|1:0,0:0:0:0:
108,160,135065,2,0,B|60:144|60:144|92:236,1,140
48,304,135515,2,0,P|104:320|136:308,1,70,0|0,1:0|0:0,0:0:0:0:
180,264,135815,6,0,L|200:104,1,140,0|0,0:0|1:0,0:0:0:0:
252,60,136265,1,0,0:0:0:0:
328,100,136415,2,0,L|312:168,1,70
388,204,136715,2,0,L|364:280,1,70,0|0,1:0|0:0,0:0:0:0:
428,328,137015,6,0,L|268:316,1,140,0|0,0:0|1:1,0:0:0:0:
212,356,137465,1,0,0:0:0:0:
156,292,137615,1,0,1:0:0:0:
96,352,137765,2,0,P|76:316|104:224,1,140,2|0,0:0|0:0,0:0:0:0:
32,176,138215,6,0,B|76:144|76:144|104:52,1,140,0|0,0:0|1:0,0:0:0:0:
176,28,138665,1,0,0:0:0:0:
192,112,138815,2,0,L|172:196,1,70
296,64,139115,2,0,L|276:148,1,70,0|0,1:0|0:0,0:0:0:0:
280,216,139415,5,0,0:0:0:0:
300,252,139490,1,0,0:0:0:0:
340,268,139565,1,0,0:0:0:0:
380,252,139640,1,0,0:0:0:0:
408,220,139715,2,0,L|412:184,3,35,0|0|0|0,1:0|0:0|0:0|0:0,0:0:0:0:
404,144,140015,5,0,0:0:0:0:
392,104,140090,1,0,0:0:0:0:
412,68,140165,1,0,0:0:0:0:
452,56,140240,1,0,0:0:0:0:
492,72,140315,2,0,L|488:120,3,35,0|0|0|0,1:0|0:0|0:0|0:0,0:0:0:0:
484,148,140615,5,0,0:0:0:0:
492,188,140690,1,0,0:0:0:0:
488,228,140765,1,0,0:0:0:0:
472,268,140840,1,0,0:0:0:0:
448,304,140915,2,0,L|408:324,3,35,0|0|0|0,1:0|0:0|0:0|0:0,0:0:0:0:
376,312,141215,5,0,0:0:0:0:
338,300,141290,1,0,0:0:0:0:
300,316,141365,1,0,0:0:0:0:
264,336,141440,1,0,0:0:0:0:
228,316,141515,1,0,1:0:0:0:
208,280,141590,1,0,0:0:0:0:
220,240,141665,1,0,1:0:0:0:
248,208,141740,1,0,0:0:0:0:
288,196,141815,6,0,P|336:200|260:96,1,280,0|0,1:0|0:0,0:0:0:0:
212,116,142565,1,0,0:0:0:0:
152,60,142715,2,0,P|132:98|132:156,1,70,0|0,1:0|0:0,0:0:0:0:
44,132,143015,2,0,L|72:296,1,140,0|0,0:0|1:0,0:0:0:0:
128,328,143465,1,0,0:0:0:0:
164,252,143615,2,0,L|228:296,1,70
296,252,143915,2,0,L|360:296,1,70,0|0,1:0|0:0,0:0:0:0:
416,348,144215,6,0,L|392:196,1,140,0|0,0:0|1:0,0:0:0:0:
448,144,144665,1,0,0:0:0:0:
364,132,144815,1,0,1:0:0:0:
412,60,144965,2,0,P|352:44|288:100,1,140
208,76,145415,2,0,P|212:124|232:144,1,70,0|0,1:0|0:0,0:0:0:0:
280,204,145715,5,0,1:0:0:0:
288,244,145790,1,0,0:0:0:0:
268,280,145865,1,0,0:0:0:0:
228,296,145940,1,0,0:0:0:0:
188,288,146015,2,0,P|160:256|152:224,1,70,0|0,1:0|0:0,0:0:0:0:
68,232,146315,2,0,P|60:176|64:148,1,70,0|0,1:0|0:0,0:0:0:0:
16,92,146615,6,0,L|96:68,1,70
248,104,146915,2,0,L|168:128,1,70,0|0,1:0|0:0,0:0:0:0:
340,176,147215,2,0,L|420:152,1,70
432,76,147515,1,0,1:0:0:0:
432,76,147665,1,0,0:0:0:0:
268,268,147815,6,0,P|324:292|352:288,1,70
404,252,148115,2,0,L|448:240,2,35,0|0|0,1:0|0:0|0:0,0:0:0:0:
348,188,148415,2,0,L|360:148,2,35,0|0|0,0:0|0:0|0:0,0:0:0:0:
264,180,148715,2,0,L|248:132,2,35,0|0|0,1:0|0:0|0:0,0:0:0:0:
260,264,149015,5,0,0:0:0:0:
236,300,149090,1,0,0:0:0:0:
200,320,149165,1,0,0:0:0:0:
160,324,149240,1,0,0:0:0:0:
120,308,149315,6,0,L|104:268,1,35,0|0,1:0|0:0,1:0:0:0:
152,204,149465,2,0,L|136:164,1,35,0|0,0:0|0:0,0:0:0:0:
60,148,149615,5,0,0:0:0:0:
80,112,149690,1,0,0:0:0:0:
116,92,149765,1,0,0:0:0:0:
156,92,149840,1,0,0:0:0:0:
196,100,149915,2,0,P|236:120|252:116,3,35,0|0|0|0,1:0|0:0|0:0|0:0,0:0:0:0:
348,88,150215,6,0,L|396:76,2,35,0|0|0,1:0|0:0|0:0,0:0:0:0:
264,236,150515,2,0,L|216:248,2,35,0|0|0,1:0|0:0|0:0,0:0:0:0:
420,300,150815,2,0,L|328:320,1,70,0|0,1:0|1:0,0:0:0:0:
272,348,151115,1,0,1:0:0:0:
188,332,151265,1,0,0:0:0:0:
128,276,151415,6,0,P|112:228|124:192,1,70,4|0,0:0|0:0,0:0:0:0:
40,176,151715,2,0,L|96:120,1,70,0|0,1:0|0:0,0:0:0:0:
56,48,152015,2,0,L|128:48,1,70
364,132,152315,6,0,P|388:176|376:220,1,70,0|0,1:0|0:0,0:0:0:0:
220,168,152615,5,0,0:0:0:0:
340,48,152765,1,0,0:0:0:0:
292,208,152915,1,0,1:0:0:0:
260,44,153065,1,0,0:0:0:0:
220,252,153215,1,0,0:0:0:0:
120,116,153365,1,0,0:0:0:0:
288,124,153515,2,0,P|344:140|364:168,1,70,0|0,1:0|0:0,0:0:0:0:
380,228,153815,5,0,0:0:0:0:
320,292,153965,1,0,0:0:0:0:
416,240,154115,1,0,1:0:0:0:
292,276,154265,1,0,0:0:0:0:
440,276,154415,1,0,0:0:0:0:
276,240,154565,1,0,0:0:0:0:
428,316,154715,1,0,1:0:0:0:
276,204,154865,1,0,0:0:0:0:
436,148,155015,6,0,P|484:176|500:200,1,70
360,80,155315,2,0,P|311:107|282:109,1,70,0|0,1:0|0:0,0:0:0:0:
216,84,155615,1,0,0:0:0:0:
160,144,155765,1,0,0:0:0:0:
88,100,155915,2,0,P|72:148|80:184,1,70,0|0,1:0|0:0,0:0:0:0:
20,232,156215,6,0,L|88:264,1,70
132,332,156515,1,0,1:0:0:0:
172,184,156665,1,0,0:0:0:0:
248,224,156815,1,0,0:0:0:0:
88,100,156965,1,0,0:0:0:0:
176,264,157115,1,0,1:0:0:0:
248,140,157265,1,0,0:0:0:0:
320,288,157415,2,0,P|288:308|248:312,1,70
348,172,157715,5,0,1:0:0:0:
376,204,157790,1,0,0:0:0:0:
416,216,157865,1,0,0:0:0:0:
452,196,157940,1,0,0:0:0:0:
468,156,158015,2,0,P|468:120|456:84,3,70,0|0|0|0,0:0|0:0|1:0|0:0,0:0:0:0:
256,192,158615,12,4,161015,0:0:0:0:
256,192,168215,12,0,170465,0:0:0:0:
432,244,170615,6,0,P|376:268|300:240,1,105.000004005432,4|0,0:0|0:0,0:0:0:0:
220,320,170915,1,0,1:0:0:0:
136,228,171065,2,0,L|100:336,2,105.000004005432,0|0|0,0:0|0:0|0:0,0:0:0:0:
260,212,171515,5,0,1:0:0:0:
76,160,171665,1,0,0:0:0:0:
328,152,171815,1,0,0:0:0:0:
248,188,171965,5,0,0:0:0:0:
340,208,172115,1,0,1:0:0:0:
380,120,172265,1,0,0:0:0:0:
180,144,172415,5,0,0:0:0:0:
424,196,172565,1,0,0:0:0:0:
256,104,172715,1,0,1:0:0:0:
300,284,172865,1,0,0:0:0:0:
404,60,173015,6,0,L|428:180,1,105.000004005432,4|0,0:0|0:0,0:0:0:0:
404,288,173315,1,0,1:0:0:0:
404,288,173465,1,0,0:0:0:0:
300,52,173615,2,0,L|324:172,1,105.000004005432
300,284,173915,5,0,1:0:0:0:
184,332,174065,1,0,0:0:0:0:
76,264,174215,1,0,0:0:0:0:
200,296,174365,5,0,0:0:0:0:
124,328,174515,1,0,1:0:0:0:
84,256,174665,1,0,0:0:0:0:
136,192,174815,1,0,0:0:0:0:
40,340,174965,5,0,0:0:0:0:
228,212,175115,1,0,1:0:0:0:
28,192,175265,1,0,0:0:0:0:
28,192,175340,1,0,0:0:0:0:
28,192,175415,5,4,0:0:0:0:
280,196,175715,1,0,1:0:0:0:
224,136,175865,1,0,0:0:0:0:
280,72,176015,1,0,0:0:0:0:
192,308,176315,5,0,1:0:0:0:
316,336,176465,1,0,0:0:0:0:
408,252,176615,1,0,0:0:0:0:
332,260,176765,5,0,0:0:0:0:
488,276,176915,1,0,1:0:0:0:
360,184,177065,1,0,0:0:0:0:
428,328,177215,1,0,0:0:0:0:
276,192,177365,5,0,0:0:0:0:
480,168,177515,1,0,1:0:0:0:
204,136,177665,1,0,0:0:0:0:
316,104,177815,5,4,0:0:0:0:
208,332,178115,1,0,1:0:0:0:
316,104,178265,1,0,0:0:0:0:
208,332,178415,1,0,0:0:0:0:
132,92,178715,5,0,1:0:0:0:
172,212,178865,1,0,0:0:0:0:
228,100,179015,1,4,0:0:0:0:
92,224,179165,5,0,0:0:0:0:
152,288,179315,1,4,1:0:0:0:
236,260,179465,1,0,0:0:0:0:
72,304,179615,5,4,0:0:0:0:
304,308,179765,1,0,0:0:0:0:
36,160,179915,1,0,1:0:0:0:
216,344,180065,1,0,0:0:0:0:
216,344,180140,1,0,0:0:0:0:
216,344,180215,5,4,0:0:0:0:
448,244,180515,1,0,1:0:0:0:
324,224,180665,1,0,0:0:0:0:
404,320,180815,1,0,0:0:0:0:
372,72,181115,5,0,1:0:0:0:
392,156,181265,1,0,0:0:0:0:
308,132,181415,1,0,0:0:0:0:
456,96,181565,5,0,0:0:0:0:
236,68,181715,1,0,1:0:0:0:
296,280,181865,1,0,0:0:0:0:
384,192,182015,5,0,0:0:0:0:
268,240,182165,1,0,0:0:0:0:
384,288,182315,1,0,1:0:0:0:
472,196,182465,1,0,0:0:0:0:
220,172,182615,6,0,P|184:220|192:268,1,105.000004005432,4|0,0:0|0:0,0:0:0:0:
189,261,182915,1,0,1:0:0:0:
88,184,183065,1,0,0:0:0:0:
268,240,183215,2,0,P|304:192|296:144,1,105.000004005432
184,96,183515,5,0,1:0:0:0:
272,332,183665,1,0,0:0:0:0:
380,176,183815,1,0,0:0:0:0:
272,236,183965,1,0,0:0:0:0:
388,284,184115,1,0,1:0:0:0:
480,200,184265,1,0,0:0:0:0:
424,88,184415,1,0,0:0:0:0:
300,80,184565,2,0,P|268:136|272:188,2,105.000004005432,0|0|0,0:0|1:0|0:0,0:0:0:0:
424,88,185015,6,0,L|380:324,1,210.000008010865,4|0,0:0|1:0,0:0:0:0:
268,340,185465,1,0,0:0:0:0:
156,284,185615,2,0,P|124:236|120:188,1,105.000004005432
172,76,185915,6,0,L|284:100,1,105.000004005432,0|0,1:0|0:0,0:0:0:0:
352,200,186215,1,0,0:0:0:0:
312,16,186365,1,0,0:0:0:0:
236,256,186515,1,0,1:0:0:0:
396,60,186665,1,0,0:0:0:0:
180,192,186815,2,0,P|144:244|156:296,1,105.000004005432
400,288,187115,1,0,1:0:0:0:
260,160,187265,1,0,0:0:0:0:
332,336,187415,6,0,P|388:372|476:316,1,157.500006008148,4|0,0:0|0:0,0:0:0:0:
488,316,187715,2,0,B|480:260|480:260|488:208,1,105.000004005432,0|0,1:0|0:0,0:0:0:0:
384,52,188015,2,0,B|392:108|392:108|384:160,1,105.000004005432
292,244,188315,5,0,1:0:0:0:
172,212,188465,1,0,1:0:0:0:
140,92,188615,1,0,0:0:0:0:
188,208,188765,1,0,0:0:0:0:
132,320,188915,1,0,1:0:0:0:
60,216,189065,1,0,0:0:0:0:
116,104,189215,1,0,0:0:0:0:
240,104,189365,1,0,0:0:0:0:
304,212,189515,1,0,1:0:0:0:
248,324,189665,1,0,1:0:0:0:
256,192,189815,12,4,193415,0:0:0:0:
332,264,194015,5,2,0:0:0:0:
404,112,194615,1,0,0:0:0:0:
264,204,195215,1,2,0:0:0:0:
104,152,195815,5,0,0:0:0:0:
116,184,196415,1,2,0:0:0:0:
152,192,197015,1,0,0:0:0:0:
184,168,197615,1,2,0:0:0:0:
176,124,198215,1,0,0:0:0:0:
156,112,200615,5,0,0:0:0:0:
144,152,201215,1,2,0:0:0:0:
152,192,201815,1,0,0:0:0:0:
188,216,202415,1,2,0:0:0:0:
228,212,203015,1,0,0:0:0:0:
252,180,203615,1,2,0:0:0:0:
292,176,204215,1,0,0:0:0:0:
324,204,204815,1,2,0:0:0:0:
328,244,205415,1,0,0:0:0:0:
316,264,207815,6,0,L|152:248,1,140,0|2,0:0|0:0,0:0:0:0:
60,128,209015,2,0,L|224:144,1,140,0|2,0:0|0:0,0:0:0:0:
256,192,210215,12,4,212315,1:0:0:0:
400,116,212615,6,0,P|340:136|304:136,1,70,4|0,0:0|0:0,0:0:0:0:
252,116,212915,2,0,B|216:112|216:112|152:116,1,70,0|0,1:0|0:0,0:0:0:0:
112,160,213215,2,0,P|88:208|116:296,1,140,0|0,0:0|1:0,0:0:0:0:
188,316,213665,1,0,0:0:0:0:
188,232,213815,2,0,B|96:248|96:248|28:240|8:164,1,210
48,100,214415,2,0,P|108:72|180:108,1,140,0|0,1:0|1:0,0:0:0:0:
240,48,214865,1,0,0:0:0:0:
308,100,215015,6,0,B|300:152|300:152|316:248,1,140,0|0,0:0|1:0,0:0:0:0:
368,304,215465,1,0,0:0:0:0:
404,228,215615,2,0,L|392:148,1,70
232,208,215915,2,0,L|242:277,1,70,0|0,1:0|0:0,1:0:0:0:
444,332,216215,6,0,P|376:352|288:356,1,140,0|0,0:0|1:0,0:0:0:0:
156,284,216665,1,0,0:0:0:0:
300,132,216815,2,0,B|320:164|320:164|328:220,1,70
156,172,217115,2,0,P|180:140|216:128,1,70,0|0,1:0|0:0,0:0:0:0:
372,92,217415,5,0,0:0:0:0:
384,132,217490,1,0,0:0:0:0:
376,172,217565,1,0,0:0:0:0:
348,204,217640,1,0,0:0:0:0:
308,216,217715,1,0,1:0:0:0:
268,212,217790,1,0,0:0:0:0:
236,188,217865,1,0,0:0:0:0:
220,148,217940,1,0,0:0:0:0:
220,104,218015,2,0,L|240:48,7,35,0|0|0|0|0|0|0|0,0:0|0:0|0:0|0:0|1:0|0:0|0:0|0:0,0:0:0:0:
192,144,218615,5,0,0:0:0:0:
160,172,218690,1,0,0:0:0:0:
120,180,218765,1,0,0:0:0:0:
80,168,218840,1,0,0:0:0:0:
52,136,218915,1,0,1:0:0:0:
48,96,218990,1,0,0:0:0:0:
68,60,219065,1,0,0:0:0:0:
104,36,219140,1,0,0:0:0:0:
144,36,219215,2,0,P|180:56|192:76,7,35,0|0|0|0|0|0|0|0,0:0|0:0|0:0|0:0|1:0|0:0|0:0|0:0,0:0:0:0:
200,88,219815,5,0,0:0:0:0:
232,60,219890,1,0,0:0:0:0:
272,64,219965,1,0,0:0:0:0:
296,100,220040,1,0,0:0:0:0:
280,140,220115,1,0,1:0:0:0:
280,180,220190,1,0,0:0:0:0:
316,204,220265,1,0,0:0:0:0:
356,208,220340,1,0,0:0:0:0:
388,184,220415,2,0,L|400:144,3,35,0|0|0|0,0:0|0:0|0:0|0:0,0:0:0:0:
424,116,220715,2,0,P|460:116|480:128,3,35,0|0|0|0,1:0|0:0|0:0|0:0,0:0:0:0:
484,148,221015,5,0,0:0:0:0:
492,188,221090,1,0,0:0:0:0:
480,228,221165,1,0,0:0:0:0:
452,260,221240,1,0,0:0:0:0:
484,288,221315,1,0,1:0:0:0:
492,328,221390,1,0,0:0:0:0:
468,364,221465,1,0,0:0:0:0:
428,372,221540,1,0,0:0:0:0:
392,352,221615,1,0,0:0:0:0:
372,316,221690,1,0,0:0:0:0:
332,300,221765,1,0,0:0:0:0:
292,312,221840,1,0,0:0:0:0:
268,348,221915,1,0,1:0:0:0:
232,368,221990,1,0,0:0:0:0:
192,360,222065,1,0,0:0:0:0:
160,332,222140,1,0,0:0:0:0:
156,292,222215,6,0,P|152:268|164:240,3,35,0|0|0|0,0:0|0:0|0:0|0:0,0:0:0:0:
128,224,222515,2,0,P|136:188|152:172,3,35,0|0|0|0,1:0|0:0|0:0|0:0,0:0:0:0:
112,156,222815,2,0,P|136:128|156:116,3,35,0|0|0|0,0:0|0:0|0:0|0:0,0:0:0:0:
120,88,223115,2,0,P|164:76|180:80,3,35,0|0|0|0,1:0|0:0|0:0|0:0,0:0:0:0:
192,68,223415,5,0,0:0:0:0:
228,92,223490,1,0,0:0:0:0:
232,132,223565,1,0,0:0:0:0:
244,172,223640,1,0,0:0:0:0:
284,184,223715,1,0,1:0:0:0:
320,164,223790,1,0,0:0:0:0:
340,128,223865,1,0,0:0:0:0:
336,88,223940,1,0,0:0:0:0:
368,60,224015,1,0,0:0:0:0:
408,64,224090,1,0,0:0:0:0:
436,92,224165,1,0,0:0:0:0:
452,132,224240,1,0,0:0:0:0:
444,172,224315,1,0,1:0:0:0:
412,196,224390,1,0,0:0:0:0:
384,228,224465,1,0,0:0:0:0:
376,268,224540,1,0,0:0:0:0:
392,308,224615,6,0,P|396:328|392:352,3,35,0|0|0|0,0:0|0:0|0:0|0:0,0:0:0:0:
356,356,224915,2,0,P|312:364|296:364,3,35,0|0|0|0,1:0|0:0|0:0|0:0,0:0:0:0:
284,344,225215,2,0,P|256:320|244:304,3,35,0|0|0|0,0:0|0:0|0:0|0:0,0:0:0:0:
224,292,225515,2,0,P|184:272|164:276,3,35,0|0|0|0,1:0|0:0|0:0|0:0,0:0:0:0:
152,268,225815,5,0,0:0:0:0:
120,296,225890,1,0,0:0:0:0:
80,300,225965,1,0,0:0:0:0:
44,276,226040,1,0,0:0:0:0:
32,236,226115,1,0,1:0:0:0:
48,196,226190,1,0,0:0:0:0:
84,176,226265,1,0,0:0:0:0:
124,176,226340,1,0,0:0:0:0:
156,148,226415,1,0,0:0:0:0:
168,108,226490,1,0,0:0:0:0:
160,68,226565,1,0,0:0:0:0:
124,44,226640,1,0,0:0:0:0:
84,44,226715,2,0,P|40:72|28:104,1,70,0|0,1:1|1:0,0:0:0:0:
260,192,227015,6,0,P|280:144|280:128,3,35,0|0|0|0,0:0|0:0|0:0|0:0,0:0:0:0:
316,40,227315,2,0,P|332:84|344:100,3,35,0|0|0|0,1:0|0:0|0:0|0:0,0:0:0:0:
408,168,227615,2,0,P|420:212|420:232,3,35,0|0|0|0,0:0|0:0|0:0|0:0,0:0:0:0:
360,316,227915,2,0,P|324:336|304:340,3,35,0|0|0|0,1:0|0:0|0:0|0:0,0:0:0:0:
288,332,228215,5,0,0:0:0:0:
248,316,228290,1,0,0:0:0:0:
220,284,228365,1,0,0:0:0:0:
52,276,228515,5,0,1:0:0:0:
85,249,228590,1,0,0:0:0:0:
127,241,228665,1,0,0:0:0:0:
216,100,228815,5,0,0:0:0:0:
222,142,228890,1,0,0:0:0:0:
208,182,228965,1,0,0:0:0:0:
140,132,229115,6,0,P|124:96|124:72,2,35,0|0|0,1:0|0:0|0:0,0:0:0:0:
224,12,229415,5,0,0:0:0:0:
264,28,229490,1,0,0:0:0:0:
288,60,229565,1,0,0:0:0:0:
300,100,229640,1,0,0:0:0:0:
320,64,229715,1,0,0:1:0:0:
360,52,229790,1,0,0:0:0:0:
400,68,229865,1,0,0:0:0:0:
420,104,229940,1,0,0:0:0:0:
424,144,230015,1,0,0:0:0:0:
404,180,230090,1,0,0:0:0:0:
364,188,230165,1,0,0:0:0:0:
396,212,230240,1,0,0:0:0:0:
420,244,230315,1,0,1:0:0:0:
420,284,230390,1,0,0:0:0:0:
392,316,230465,1,0,0:0:0:0:
352,324,230540,1,0,0:0:0:0:
316,304,230615,1,4,0:0:0:0:
296,268,231815,6,0,L|164:280,1,105.000004005432,4|0,0:0|0:0,0:0:0:0:
84,208,232115,2,0,P|72:156|96:80,1,105.000004005432,0|0,1:0|0:0,0:0:0:0:
196,164,232415,2,0,P|212:224|200:372,1,210.000008010865,0|0,0:0|1:0,0:0:0:0:
88,312,232865,1,0,0:0:0:0:
304,184,233015,1,0,0:0:0:0:
124,120,233165,5,0,0:0:0:0:
256,256,233315,1,0,1:0:0:0:
200,76,233465,1,0,0:0:0:0:
168,264,233615,1,0,0:0:0:0:
268,340,233765,1,0,0:0:0:0:
364,256,233915,1,0,1:0:0:0:
200,164,234065,1,0,0:0:0:0:
384,336,234215,6,0,P|432:308|396:176,1,210.000008010865,4|0,0:0|1:0,0:0:0:0:
92,224,234665,1,0,0:0:0:0:
200,76,234815,2,0,P|248:92|280:144,1,105.000004005432
192,304,235115,5,0,1:0:0:0:
112,132,235265,1,0,0:0:0:0:
268,240,235415,1,0,0:0:0:0:
92,308,235565,1,0,0:0:0:0:
280,336,235715,1,0,1:0:0:0:
192,168,235865,1,0,0:0:0:0:
316,172,236015,1,0,0:0:0:0:
364,288,236165,1,0,0:0:0:0:
372,100,236315,1,0,1:0:0:0:
248,240,236465,1,0,0:0:0:0:
424,168,236615,6,0,P|456:120|360:16,1,210.000008010865,4|0,0:0|1:0,0:0:0:0:
276,92,237065,1,0,0:0:0:0:
388,320,237215,2,0,L|504:304,1,105.000004005432
240,324,237515,5,0,1:0:0:0:
332,160,237665,1,0,0:0:0:0:
172,260,237815,1,0,0:0:0:0:
376,240,237965,1,0,0:0:0:0:
408,120,238115,1,0,1:0:0:0:
288,84,238265,1,0,0:0:0:0:
476,64,238415,1,0,0:0:0:0:
244,168,238565,1,0,0:0:0:0:
496,160,238715,1,0,1:1:0:0:
356,32,238865,1,0,0:0:0:0:
304,280,239015,6,0,P|352:324|460:248,1,210.000008010865,4|0,0:0|1:0,0:0:0:0:
208,248,239465,1,0,0:0:0:0:
364,140,239615,2,0,P|384:216|360:264,1,105.000004005432
136,316,239915,6,0,P|112:260|120:216,1,105.000004005432,0|0,1:0|0:0,1:0:0:0:
180,108,240215,5,0,0:0:0:0:
208,232,240365,1,0,0:0:0:0:
268,120,240515,5,0,1:0:0:0:
80,140,240665,1,0,0:0:0:0:
236,36,240815,5,0,0:0:0:0:
92,244,240965,1,0,0:0:0:0:
340,188,241115,5,0,1:0:0:0:
56,52,241265,1,0,0:0:0:0:
364,272,241415,6,0,P|408:244|376:104,1,210.000008010865,4|0,0:0|1:0,0:0:0:0:
216,192,241865,1,0,0:0:0:0:
340,188,242015,2,0,P|400:192|432:328,1,210.000008010865,0|0,0:0|1:0,0:0:0:0:
316,352,242465,2,0,P|276:304|272:260,1,105.000004005432
336,84,242765,5,0,0:0:0:0:
364,272,242915,1,0,1:0:0:0:
256,116,243065,1,0,0:0:0:0:
424,204,243215,1,0,0:0:0:0:
236,196,243365,2,0,P|184:156|176:120,1,105.000004005432,0|0,0:0|1:0,0:0:0:0:
428,116,243665,1,0,0:0:0:0:
240,284,243815,6,0,P|176:268|88:136,1,210.000008010865,4|0,0:0|1:0,0:0:0:0:
344,172,244265,1,0,0:0:0:0:
264,72,244415,2,0,P|192:104|164:132,1,105.000004005432
76,40,244715,5,0,1:0:0:0:
72,292,244865,1,0,0:0:0:0:
236,196,245015,1,0,0:0:0:0:
76,40,245165,1,0,0:0:0:0:
236,196,245315,1,0,1:0:0:0:
264,72,245465,1,0,0:0:0:0:
344,172,245615,1,0,0:0:0:0:
300,288,245765,2,0,P|240:304|192:292,2,105.000004005432,0|0|0,0:0|1:0|0:0,0:0:0:0:
452,176,246215,6,0,P|424:248|440:344,1,157.500006008148,4|0,0:0|0:0,0:0:0:0:
432,326,246515,1,0,1:0:0:0:
384,80,246665,1,0,0:0:0:0:
508,104,246815,1,0,0:0:0:0:
136,160,247115,5,0,1:0:0:0:
240,88,247265,1,0,0:0:0:0:
248,276,247415,1,0,0:0:0:0:
164,40,247565,1,0,0:0:0:0:
64,116,247715,1,0,1:0:0:0:
84,240,247865,1,0,0:0:0:0:
172,328,248015,2,0,L|60:348,2,105.000004005432,0|0|0,0:0|0:0|1:0,0:0:0:0:
264,188,248465,1,0,0:0:0:0:
140,160,248615,6,0,P|200:176|384:140,1,210.000008010865,4|0,0:0|1:1,0:0:0:0:
432,68,249065,1,0,0:0:0:0:
352,308,249215,2,0,P|424:288|464:312,1,105.000004005432
260,280,249515,5,0,1:0:0:0:
232,296,249590,1,0,0:0:0:0:
200,296,249665,1,0,0:0:0:0:
176,276,249740,1,0,0:0:0:0:
164,248,249815,1,0,0:0:0:0:
144,272,249890,1,0,0:0:0:0:
116,288,249965,1,0,0:0:0:0:
84,284,250040,1,0,0:0:0:0:
60,264,250115,1,0,0:0:0:0:
48,236,250190,1,0,0:0:0:0:
44,204,250265,1,0,0:0:0:0:
60,176,250340,1,0,0:0:0:0:
92,168,250415,5,0,0:0:0:0:
68,148,250490,1,0,0:0:0:0:
68,116,250565,1,0,0:0:0:0:
92,96,250640,1,0,0:0:0:0:
124,96,250715,1,0,0:0:0:0:
148,120,250790,1,0,0:0:0:0:
152,152,250865,1,0,0:0:0:0:
152,152,251615,6,0,P|200:168|248:152,1,70
288,116,251915,1,0,0:0:0:0:
288,116,252065,1,0,0:0:0:0:
288,116,252215,1,0,0:0:0:0:
364,268,252515,1,0,0:0:0:0:
364,268,252665,1,0,0:0:0:0:
364,268,252815,5,4,0:0:0:0:
336,300,252965,1,0,0:0:0:0:
296,304,253115,1,0,0:0:0:0:
272,268,253265,1,0,0:0:0:0:
236,244,253415,1,0,0:0:0:0:
196,244,253565,1,0,0:0:0:0:
160,268,253715,1,0,0:0:0:0:
148,308,253865,1,0,0:0:0:0:
124,184,254015,6,0,P|192:148|324:208,1,210.000008010865,4|0,0:0|1:0,0:0:0:0:
400,100,254465,1,0,0:0:0:0:
152,68,254615,2,0,P|84:84|32:72,1,105.000004005432
40,204,254915,5,0,1:0:0:0:
244,60,255065,1,0,0:0:0:0:
196,244,255215,1,0,0:0:0:0:
244,60,255365,1,0,0:0:0:0:
112,276,255515,1,0,1:0:0:0:
352,204,255665,1,0,0:0:0:0:
108,140,255815,1,0,0:0:0:0:
356,100,255965,1,0,0:0:0:0:
272,196,256115,2,0,P|300:268|404:268,1,157.500006008148,0|0,1:0|0:0,0:0:0:0:
395,305,256415,5,4,0:0:0:0:
444,188,256565,1,0,0:0:0:0:
356,100,256715,1,0,1:0:0:0:
232,124,256865,1,0,0:0:0:0:
116,72,257015,1,0,0:0:0:0:
64,184,257165,2,0,P|76:240|104:320,1,105.000004005432,0|0,0:0|1:0,0:0:0:0:
208,332,257465,1,0,0:0:0:0:
272,224,257615,2,0,B|284:168|284:168|260:124|260:124|276:-4,1,210.000008010865,0|0,0:0|1:0,0:0:0:0:
400,16,258065,1,0,0:0:0:0:
428,32,258140,1,0,0:0:0:0:
440,60,258215,6,0,L|428:128,1,52.5000020027161
492,224,258365,2,0,L|504:156,1,52.5000020027161
416,96,258515,2,0,L|404:164,1,52.5000020027161,0|0,1:0|0:0,0:0:0:0:
468,260,258665,2,0,L|480:192,1,52.5000020027161
384,124,258815,6,0,L|396:192,1,52.5000020027161
444,292,258965,2,0,L|432:224,1,52.5000020027161
336,112,259115,2,0,L|348:180,1,52.5000020027161,0|0,1:0|0:0,0:0:0:0:
396,280,259265,2,0,L|384:212,1,52.5000020027161
300,104,259415,6,0,L|292:176,1,52.5000020027161
332,276,259565,2,0,L|340:204,1,52.5000020027161,0|0,0:0|0:0,0:0:0:0:
264,72,259715,2,0,L|256:144,1,52.5000020027161,0|0,1:0|0:0,0:0:0:0:
296,244,259865,2,0,L|304:172,1,52.5000020027161,0|0,1:0|0:0,0:0:0:0:
196,32,260015,6,0,L|224:84,1,52.5000020027161,4|0,0:0|0:0,0:0:0:0:
116,148,260165,2,0,L|176:192,1,52.5000020027161,0|0,1:0|0:0,0:0:0:0:
128,56,260315,2,0,L|156:108,1,52.5000020027161,0|0,0:0|0:0,0:0:0:0:
48,172,260465,2,0,L|108:216,1,52.5000020027161,0|0,1:0|0:0,0:0:0:0:
240,320,260615,2,0,P|180:296|28:360,1,210.000008010865,4|0,0:0|1:0,0:0:0:0:
296,244,261215,6,0,P|360:264|472:176,1,210.000008010865,4|0,0:0|1:0,0:0:0:0:
436,64,261665,1,0,0:0:0:0:
380,176,261815,2,0,B|372:232|372:232|392:276|392:276|386:335|324:356,1,210.000008010865,0|0,0:0|1:0,0:0:0:0:
224,284,262265,1,0,0:0:0:0:
244,160,262415,2,0,P|292:136|312:136,1,52.5000020027161
216,32,262565,2,0,P|148:56|124:52,1,52.5000020027161
296,56,262715,2,0,P|336:60|384:52,1,52.5000020027161,0|0,1:0|0:0,0:0:0:0:
172,132,262865,2,0,P|164:176|176:204,1,52.5000020027161
280,332,263015,2,0,P|300:288|248:208,1,105.000004005432,0|0,1:0|0:0,0:0:0:0:
380,320,263315,1,0,0:0:0:0:
368,196,263465,1,0,1:0:0:0:
468,276,263615,6,0,L|480:96,1,157.500006008148,0|0,1:0|0:0,0:0:0:0:
472,100,263915,2,0,P|424:72|372:80,1,105.000004005432,0|0,1:0|0:0,0:0:0:0:
264,24,264215,1,0,0:0:0:0:
248,148,264365,1,0,0:0:0:0:
136,88,264515,1,0,1:0:0:0:
112,212,264665,1,0,0:0:0:0:
20,296,264815,1,0,0:0:0:0:
136,348,264965,1,0,0:0:0:0:
236,272,265115,6,0,P|292:296|352:304,1,105.000004005432,0|0,1:0|0:0,0:0:0:0:
460,300,265415,2,0,P|480:232|480:176,1,105.000004005432
440,80,265715,2,0,P|368:60|316:72,1,105.000004005432,0|0,1:0|0:0,0:0:0:0:
224,120,266015,6,0,P|156:148|56:116,1,157.500006008148,4|0,0:0|0:0,0:0:0:0:
56,116,266315,2,0,L|84:8,1,105.000004005432,0|0,1:0|0:0,0:0:0:0:
148,256,266615,2,0,L|120:364,1,105.000004005432
52,252,266915,1,0,1:0:0:0:
292,176,267065,1,0,0:0:0:0:
160,40,267215,6,0,P|228:12|344:60,1,157.500006008148,4|0,0:0|0:0,0:0:0:0:
328,24,267515,2,0,L|340:88,1,52.5000020027161,0|0,1:0|0:0,0:0:0:0:
460,116,267665,2,0,L|432:200,1,52.5000020027161
472,288,267815,2,0,L|408:312,1,52.5000020027161,0|0,0:0|0:0,0:0:0:0:
300,272,267965,2,0,L|232:264,1,52.5000020027161
148,340,268115,2,0,L|80:356,3,52.5000020027161,0|0|0|0,1:0|0:0|1:0|0:0,0:0:0:0:
80,228,268415,6,0,L|32:192,3,52.5000020027161,0|0|0|0,0:0|0:0|0:0|0:0,0:0:0:0:
120,108,268715,2,0,L|92:24,3,52.5000020027161,0|0|0|0,1:0|0:0|0:0|0:0,0:0:0:0:
236,152,269015,2,0,L|264:76,3,52.5000020027161,0|0|0|0,0:0|0:0|0:0|0:0,0:0:0:0:
360,136,269315,2,0,L|352:64,3,52.5000020027161,0|0|0|0,1:0|0:0|1:1|0:0,0:0:0:0:
476,88,269615,2,0,L|504:32,3,52.5000020027161,0|0|0|0,1:0|0:0|0:0|0:0,0:0:0:0:
460,212,269915,2,0,L|508:248,3,52.5000020027161,0|0|0|0,1:0|0:0|0:0|0:0,0:0:0:0:
400,324,270215,2,0,P|344:292|200:344,1,210.000008010865,0|0,0:0|1:0,0:0:0:0:
148,220,270665,1,0,0:0:0:0:
68,124,270815,6,0,P|60:192|36:304,1,167.999994873047,4|0,0:0|1:0,0:0:0:0:
39,289,271265,1,0,0:0:0:0:
32,36,271415,2,0,P|96:28|128:48,1,83.9999974365235
180,108,271715,2,0,P|240:124|292:108,1,83.9999974365235,0|0,1:0|0:0,0:0:0:0:
356,84,272015,6,0,L|392:240,1,125.999996154785
384,228,272315,2,0,P|352:240|288:240,1,83.9999974365235,0|0,1:1|0:0,0:0:0:0:
240,324,272615,2,0,P|212:288|200:236,1,83.9999974365235
108,212,272915,1,0,1:0:0:0:
80,116,273065,1,0,0:0:0:0:
128,28,273215,2,0,P|192:16|264:80,1,167.999994873047,0|0,0:0|1:0,0:0:0:0:
356,36,273665,1,0,0:0:0:0:
364,136,273815,2,0,P|384:188|424:224,1,83.9999974365235
460,128,274115,5,0,1:0:0:0:
288,232,274415,2,0,P|240:196|128:216,1,167.999994873047,0|0,0:0|1:0,0:0:0:0:
100,112,274865,1,0,0:0:0:0:
40,192,275015,2,0,B|48:236|48:236|20:304,1,83.9999974365235
100,112,275315,2,0,B|92:68|92:68|120:0,1,83.9999974365235,0|0,1:0|0:0,0:0:0:0:
184,96,275615,6,0,L|196:268,1,167.999994873047,4|0,0:0|1:0,0:0:0:0:
272,332,276065,1,0,0:0:0:0:
364,292,276215,2,0,P|384:236|368:192,1,83.9999974365235
480,192,276515,2,0,P|448:132|408:116,1,83.9999974365235,0|0,1:0|0:0,0:0:0:0:
392,32,276815,6,0,P|324:88|260:36,1,167.999994873047,0|0,0:0|1:0,0:0:0:0:
268,152,277265,1,0,0:0:0:0:
184,96,277415,2,0,P|132:104|92:140,1,83.9999974365235
64,212,277715,2,0,P|60:272|80:312,1,83.9999974365235,0|0,1:0|0:0,0:0:0:0:
144,360,278015,6,0,P|196:364|296:324,1,125.999996154785,4|0,0:0|0:0,0:0:0:0:
288,328,278315,2,0,L|264:240,1,83.9999974365235,0|0,1:0|0:0,0:0:0:0:
344,184,278615,2,0,L|368:272,1,83.9999974365235
444,332,278915,1,0,1:0:0:0:
496,244,279065,1,0,0:0:0:0:
484,144,279215,5,4,0:0:0:0:
416,68,279365,1,0,0:0:0:0:
316,48,279515,1,4,1:0:0:0:
232,104,279665,1,0,0:0:0:0:
248,204,279815,1,4,0:0:0:0:
220,300,279965,1,0,0:0:0:0:
120,324,280115,1,4,1:0:0:0:
48,252,280265,1,0,0:0:0:0:
36,152,280415,6,0,B|60:88|60:88|48:16,1,125.999996154785,4|0,0:0|0:0,0:0:0:0:
56,16,280715,2,0,P|108:24|144:64,1,83.9999974365235
164,140,281015,2,0,L|152:228,1,83.9999974365235
220,300,281315,2,0,P|256:328|328:320,1,83.9999974365235,0|0,1:0|0:0,0:0:0:0:
364,260,281615,6,0,B|356:228|356:228|372:160|372:160|356:112,1,125.999996154785
360,112,281915,2,0,P|408:84|452:112,1,83.9999974365235,0|0,1:0|0:0,0:0:0:0:
292,36,282215,2,0,P|244:64|200:36,1,83.9999974365235
120,64,282515,1,0,1:0:0:0:
90,92,282590,1,0,0:0:0:0:
77,132,282665,1,0,0:0:0:0:
84,173,282740,1,0,0:0:0:0:
110,205,282815,6,0,L|196:188,1,83.9999974365235,4|0,0:0|0:0,0:0:0:0:
332,248,283115,2,0,L|246:265,1,83.9999974365235,0|0,1:0|0:0,0:0:0:0:
384,336,283415,2,0,L|469:318,1,83.9999974365235
492,220,283715,1,0,1:0:0:0:
436,136,283865,1,0,0:0:0:0:
336,148,284015,6,0,P|336:92|440:40,1,167.999994873047,4|0,0:0|1:0,0:0:0:0:
224,80,284465,1,0,0:0:0:0:
224,80,284615,2,0,P|236:136|236:180,1,83.9999974365235
84,176,284915,2,0,P|72:120|72:76,1,83.9999974365235,0|0,1:0|0:0,0:0:0:0:
280,316,285215,6,0,P|180:280|104:312,1,167.999994873047,4|0,0:0|1:0,0:0:0:0:
316,232,285815,2,0,P|416:268|492:236,1,167.999994873047,0|0,0:0|1:0,0:0:0:0:
316,120,286415,2,0,B|256:136|256:136|232:128|232:128|152:148,1,167.999994873047,4|0,0:0|1:0,0:0:0:0:
72,88,286865,1,0,0:0:0:0:
164,48,287015,2,0,L|272:20,1,83.9999974365235
208,224,287315,2,0,L|100:252,1,83.9999974365235,0|0,1:0|0:0,0:0:0:0:
364,56,287615,6,0,P|396:104|380:160,1,83.9999974365235,4|0,0:0|0:0,0:0:0:0:
496,144,287915,2,0,P|472:204|436:224,1,83.9999974365235,0|0,1:0|0:0,0:0:0:0:
256,192,288215,12,4,290015,0:0:0:0:
