osu file format v5

[General]
AudioFilename: guitar.ogg
AudioLeadIn: 0
PreviewTime: 43320
Countdown: 0
SampleSet: Normal
StackLeniency: 0.7
Mode: 0
LetterboxInBreaks: 1
SkinPreference:Default
EditorBookmarks: 43320,122520,132120,193606,212504,289898

[Metadata]
Title:Canon Rock
Artist:JerryC
Creator:Echo
Version:Hard
Source:
Tags:

[Difficulty]
HPDrainRate:7
CircleSize:4
OverallDifficulty:6
SliderMultiplier:1.5
SliderTickRate:1

[Events]
//Background and Video events
//Break Periods
2,122713,130912
2,193731,211304
//Storyboard Layer 0 (Background)
//Storyboard Layer 1 (Failing)
//Storyboard Layer 2 (Passing)
//Storyboard Layer 3 (Foreground)
4,3,1,"hitcircle.png",320,128 F,0,100510,101070,0,1 S,0,100510,102720,0.57,0.57 C,0,100510,102720,5,240,5,5,240,5 F,0,101070,102720,1,1
4,3,1,"hitcircleoverlay.png",320,128 F,0,100510,101070,0,1 S,0,100510,102720,0.57,0.57 F,0,101070,102720,1,1
4,3,1,"default-1.png",320,128 F,0,100510,101070,0,1 S,0,100510,102720,0.45,0.45 F,0,101070,102720,1,1
4,3,1,"approachcircle.png",320,128 F,0,100510,101070,0,1 S,0,100510,100920,3,2.22 C,0,100510,102720,5,240,5,5,240,5 S,0,100920,102120,2.22,2.22 F,0,101070,102720,1,1 S,0,102270,103320,2.22,0.57
4,3,1,"hitcircle.png",320,136 F,0,250400,250870,0,1 S,0,250400,252500,0.57,0.57 C,0,250400,252500,5,240,5,5,240,5 F,0,250870,252500,1,1
4,3,1,"hitcircleoverlay.png",320,136 F,0,250400,250870,0,1 S,0,250400,252500,0.57,0.57 F,0,250870,252500,1,1
4,3,1,"default-1.png",320,136 F,0,250400,250870,0,1 S,0,250400,252500,0.45,0.45 F,0,250870,252500,1,1
4,3,1,"approachcircle.png",320,136 F,0,250400,250870,0,1 S,0,250400,250810,3,2.22 C,0,250400,252500,5,240,5,5,240,5 S,0,250810,251500,2.22,2.22 F,0,250870,252500,1,1 S,0,251650,252700,2.22,0.57
//Storyboard Sound Samples
//Background Colour Transformations
3,100,163,162,255

[TimingPoints]
43310,299.973311997601,4,1,0,100,1

[HitObjects]
128,64,43310,5,0
384,320,44509,1,0
128,320,45709,1,0
384,64,46909,1,0
384,320,48109,1,0
128,64,49309,1,0
128,320,50509,1,0
384,64,51709,1,0
128,320,52909,6,0,B|260:176|395:331,1,300
384,64,54109,2,0,B|252:208|117:53,1,300
384,320,55308,6,0,B|240:188|395:53,1,300
128,64,56508,2,0,B|272:196|117:331,1,300
320,128,57708,5,0
192,256,58308,1,0
192,128,58908,1,0
320,256,59508,1,0
192,256,60108,1,0
320,128,60708,1,0
192,128,61308,1,0
320,256,61908,1,0
96,272,62508,5,0
96,192,62808,1,0
96,112,63108,1,0
160,64,63408,1,0
224,112,63708,2,0,B|79:309|353:411|345:130,1,450
416,112,64908,5,0
416,192,65208,1,0
416,272,65508,1,0
352,320,65808,1,0
288,272,66107,2,0,B|433:75|159:-27|167:254,1,450
112,304,67307,6,0,B|71:210|118:52|206:24,1,300
256,72,68207,1,0
296,112,68357,1,0
256,152,68507,1,0
256,232,68807,1,0
256,312,69107,1,0
400,80,69707,6,0,B|441:174|394:332|306:360,1,300
256,312,70607,1,0
216,272,70757,1,0
256,232,70907,1,0
256,152,71207,1,0
256,72,71507,1,0
109,290,72107,6,0,B|269:338|437:282,1,300
256,232,73007,1,0
216,152,73307,2,0,B|10:7|255:74|506:4|287:159,1,450
403,290,74507,6,0,B|243:338|75:282,1,300
256,232,75407,1,0
128,144,75707,5,0
208,96,76007,1,0
304,96,76307,1,0
384,144,76607,1,0
464,232,76907,6,0,B|458:326|344:336,1,150
296,336,77506,1,0
216,336,77806,1,0
140,333,78106,2,0,B|54:326|48:232,1,150
48,152,78706,2,0,B|54:58|168:48,1,150
216,48,79305,1,0
296,48,79605,1,0
372,51,79905,2,0,B|458:58|464:152,1,150
256,192,80506,12,0,81706
352,256,82306,5,0
352,128,82606,1,0
256,120,82906,6,0,B|256:280,1,150
160,256,83506,5,0
160,128,83806,1,0
256,192,84106,5,0
352,256,84406,1,0
312,304,84556,1,0
256,320,84706,1,0
200,304,84856,1,0
160,256,85006,1,0
160,128,85306,2,0,B|255:-86|356:134,2,300
176,208,86806,5,0
256,208,87106,1,0
336,208,87406,1,0
352,304,87706,5,0
304,304,87856,1,0
256,304,88006,1,0
208,304,88156,1,0
160,304,88305,1,0
256,56,88755,6,0,B|256:152,1,75
176,208,89205,1,0
256,208,89505,1,0
336,208,89805,1,0
256,304,90105,1,0
256,208,90405,5,0
256,160,90555,1,0
224,108,90705,1,0
288,108,90855,1,0
256,56,91004,1,0
400,304,91305,5,0
304,304,91605,1,0
208,304,91905,1,0
112,304,92205,1,0
184,224,92505,2,0,B|360:224,1,150
256,144,93105,1,0
256,56,93405,1,0
400,168,93705,5,0
360,192,93855,1,0
320,216,94005,1,0
280,240,94155,1,0
232,240,94305,5,0
192,216,94455,1,0
152,192,94605,1,0
112,168,94755,1,0
176,136,94905,6,0,B|336:136,1,150
256,56,95355,1,0
256,56,95430,1,0
256,56,95505,1,0
152,320,96105,5,0
56,256,96405,1,0
152,192,96705,1,0
56,128,97005,1,0
360,320,97305,5,0
456,256,97605,1,0
360,192,97905,1,0
456,128,98205,1,0
256,128,98505,5,0
152,192,98805,1,0
360,192,99105,1,0
256,256,99405,1,0
152,296,99704,6,0,B|108:77|407:78|360:304,1,450
256,56,103304,5,0
200,136,103604,1,0
256,152,103754,1,0
312,136,103904,1,0
112,272,104204,5,0
168,296,104354,1,0
200,248,104504,1,0
256,232,104654,1,0
312,248,104804,1,0
344,296,104954,1,0
400,272,105104,1,0
256,232,105404,5,0
256,328,105704,5,0
312,248,106004,1,0
256,232,106154,1,0
200,248,106304,1,0
400,112,106604,5,0
344,88,106754,1,0
312,136,106904,1,0
256,152,107054,1,0
200,136,107204,1,0
168,88,107354,1,0
112,112,107504,1,0
256,152,107804,5,0
72,296,108104,6,0,B|144:336,1,75
184,336,108404,1,0
232,304,108554,1,0
280,304,108704,1,0
328,336,108854,1,0
374,332,109005,2,0,B|440:296,1,75
440,248,109304,5,0
328,192,109604,1,0
184,192,109904,1,0
72,248,110204,1,0
440,88,110504,6,0,B|368:48,1,75
328,48,110804,1,0
280,80,110954,1,0
232,80,111104,1,0
184,48,111254,1,0
138,52,111405,2,0,B|72:88,1,75
72,136,111703,5,0
184,192,112003,1,0
328,192,112303,1,0
440,136,112603,1,0
256,328,112903,5,0
200,248,113203,1,0
256,232,113353,1,0
312,248,113503,1,0
112,112,113803,5,0
168,88,113953,1,0
200,136,114103,1,0
256,152,114253,1,0
312,136,114403,1,0
344,88,114553,1,0
400,112,114703,1,0
256,152,115003,5,0
256,56,115303,5,0
312,136,115603,1,0
256,152,115753,1,0
200,136,115903,1,0
400,272,116203,5,0
344,296,116353,1,0
312,248,116503,1,0
256,232,116653,1,0
200,248,116803,1,0
168,296,116953,1,0
112,272,117103,1,0
256,232,117403,5,0
72,120,117703,6,0,B|144:80,1,75
184,80,118003,1,0
232,112,118153,1,0
280,112,118303,1,0
328,80,118453,1,0
374,84,118604,2,0,B|440:120,1,75
440,168,118903,5,0
408,216,119053,1,0
352,232,119203,2,0,B|248:232,1,75
235,232,119503,2,0,B|160:232,1,75
104,216,119802,1,0
72,168,119953,1,0
256,192,120103,12,0,122502
64,64,132102,5,0
192,64,132402,1,0
320,64,132702,1,0
448,64,133002,1,0
480,192,133301,2,0,B|16:192,1,450
128,320,134501,5,0
128,192,134801,1,0
128,64,135101,1,0
256,128,135401,1,0
256,192,135551,1,0
256,256,135701,1,0
384,320,136001,1,0
384,192,136301,1,0
384,64,136601,1,0
32,192,136901,6,0,B|496:192,1,450
448,320,138101,1,0
320,320,138401,1,0
192,320,138701,1,0
64,320,139001,1,0
64,192,139301,5,0
192,192,139601,1,0
320,192,139901,1,0
448,192,140201,1,0
448,64,140501,5,0
400,32,140651,1,0
352,64,140801,1,0
304,32,140951,1,0
256,64,141101,1,0
208,32,141251,1,0
160,64,141401,1,0
112,32,141551,1,0
64,64,141701,1,0
176,320,142601,6,0,B|352:320,1,150
144,192,143501,1,0
200,224,143651,1,0
312,224,143951,1,0
368,192,144101,1,0
312,160,144251,1,0
200,160,144551,1,0
88,112,144850,2,0,B|248:64,1,150
280,68,145300,2,0,B|424:112,1,150
256,192,145900,1,0
112,328,146500,6,0,B|112:176,1,150
112,56,147100,1,0
160,88,147250,1,0
208,120,147400,1,0
400,328,147700,6,0,B|400:176,1,150
400,56,148300,1,0
352,88,148450,1,0
304,120,148600,1,0
120,320,148900,6,0,B|216:320,1,75
256,320,149200,1,0
312,320,149350,1,0
392,240,149500,6,0,B|296:240,1,75
256,240,149800,1,0
200,240,149950,1,0
120,160,150100,6,0,B|216:160,1,75
256,160,150400,1,0
312,160,150550,1,0
328,80,150700,2,0,B|144:80,1,150
144,240,151300,5,0
256,240,151600,1,0
368,240,151900,1,0
448,320,152200,1,0
472,272,152350,1,0
480,216,152500,1,0
472,160,152650,1,0
448,112,152800,1,0
400,80,152950,1,0
344,80,153100,1,0
296,112,153250,1,0
296,168,153400,1,0
336,200,153550,1,0
368,240,153700,5,0
256,240,154000,1,0
144,240,154300,1,0
64,320,154600,1,0
40,272,154750,1,0
32,216,154900,1,0
40,160,155050,1,0
64,112,155200,1,0
112,80,155350,1,0
168,80,155500,1,0
216,112,155650,1,0
216,168,155800,1,0
176,200,155950,1,0
144,240,156099,5,0
256,240,156399,1,0
368,240,156699,1,0
256,240,156999,1,0
368,144,157299,5,0
256,144,157599,1,0
144,144,157899,1,0
256,144,158199,1,0
144,144,158499,5,0
152,192,158649,1,0
168,240,158799,1,0
208,272,158949,1,0
256,288,159099,5,0
256,240,159249,1,0
256,192,159399,1,0
256,144,159549,1,0
256,96,159699,1,0
304,112,159849,5,0
344,144,159999,1,0
360,192,160149,1,0
368,240,160299,1,0
256,288,160599,1,0
