osu file format v9

[General]
AudioFilename: Jerry & Stephy - Bund 18.mp3
AudioLeadIn: 0
PreviewTime: 118647
Countdown: 1
SampleSet: Soft
StackLeniency: 0.7
Mode: 0
LetterboxInBreaks: 1

[Editor]
DistanceSpacing: 1.3
BeatDivisor: 4
GridSize: 8

[Metadata]
Title:Bund 18
Artist:Jerry & Stephy
Creator:Colin Hou
Version:Normal
Source:
Tags:Wai Tan Shiba Hao Yuan Chengjie Qi Wei Nan Cai Nv Mao Shanghai

[Difficulty]
HPDrainRate:4
CircleSize:3
OverallDifficulty:3
ApproachRate:4
SliderMultiplier:1.3
SliderTickRate:1

[Events]
//Background and Video events
0,0,"BG.jpg"
//Break Periods
2,86883,101101
//Storyboard Layer 0 (Background)
//Storyboard Layer 1 (Fail)
//Storyboard Layer 2 (Pass)
//Storyboard Layer 3 (Foreground)
//Storyboard Sound Samples
//Background Colour Transformations
3,100,0,0,0

[TimingPoints]
4061,491.803278688525,4,1,1,60,1,0
21888,-100,4,2,1,60,0,0
67995,-100,4,2,1,40,0,0
68487,-100,4,2,1,50,0,0
68979,-100,4,2,1,60,0,0
132913,-90.9090909090909,4,2,1,60,0,0
134388,-100,4,2,1,60,0,0
144716,-90.9090909090909,4,2,1,60,0,0
145700,-100,4,2,1,60,0,0
149634,-100,4,2,1,30,0,0
150618,-100,4,2,1,45,0,0
151601,-100,4,2,1,60,0,0
158487,-90.9090909090909,4,2,1,60,0,0
159962,-100,4,2,1,60,0,0
165618,-200,4,2,1,60,0,0
167339,-100,4,2,1,60,0,0
181110,-100,4,2,1,50,0,0
181479,-100,4,2,1,55,0,0
181847,-100,4,2,1,60,0,0
209810,606.060606060606,4,2,1,60,1,0
211325,-100,4,2,1,0,0,0
211476,-100,4,2,1,60,0,0
218446,-100,4,2,1,60,0,0
219052,-100,4,2,1,50,0,0
219658,-100,4,2,1,30,0,0
220113,-100,4,2,1,20,0,0
220567,-100,4,2,1,10,0,0
221022,-100,4,2,1,0,0,0

[Colours]
Combo1 : 237,213,44
Combo2 : 11,217,166
Combo3 : 238,47,47

[HitObjects]
384,64,4060,2,0,B|432:192|381:328,1,260
275,274,5536,2,0,B|243:298|203:298,1,65
164,267,6028,2,0,B|117:239|100:188,2,97.5
131,315,7011,1,0
201,221,7503,1,0
313,252,7995,1,0
200,32,8979,5,0
245,139,9470,1,0
245,139,9716,1,0
245,139,9962,2,0,B|139:156,2,97.5
344,200,11192,1,0
344,200,11438,1,0
408,312,11929,6,0,B|292:378|149:353,1,260,4|0
112,248,13405,2,0,B|36:234,2,65
163,173,14265,2,0,B|265:155,1,97.5
304,192,14880,2,0,B|338:210|384:204,1,65
424,192,15372,6,0,B|464:176|480:136,1,65
472,96,15864,2,0,B|416:63|340:61,1,130
243,92,16847,2,0,B|187:125|111:127,1,130
148,241,17831,2,0,B|149:298|118:349,2,97.5
200,272,18815,6,0,B|229:339,1,65
264,288,19306,2,0,B|282:320|306:339,1,65
328,280,19798,2,0,B|379:257|436:285,2,97.5
288,232,20782,2,0,B|308:200|310:162,1,65
309,112,21274,2,0,B|307:83|287:51,1,65
240,16,21765,5,0
224,136,22257,1,0
107,154,22749,1,0
373,258,23733,6,0,B|386:327|458:359,2,130,2|0|0
132,103,25700,5,2
244,71,26192,1,0
132,103,26683,1,0
48,328,27667,6,0,B|101:367|184:360,1,130,2|0
171,360,28651,1,0
445,280,29634,6,0,B|505:154|443:25,1,260,2|0
163,83,31601,5,2
111,188,32093,1,0
59,293,32585,1,0
339,350,33569,6,0,B|404:343|476:350,2,130,2|0|0
467,94,35536,6,0,B|422:141|340:136,1,130,2|0
268,50,36520,1,0
185,132,37011,1,0
283,194,37503,6,0,B|232:335|84:362,1,260,8|2
31,262,38979,2,0,B|99:262,2,65,0|8|0
73,152,39962,1,0
187,177,40454,1,2
238,71,40946,2,0,B|303:48|372:74,1,130,0|8
471,120,41929,5,0
446,234,42421,1,2
333,202,42913,2,0,B|264:216,2,65,0|8|0
280,96,43897,1,0
176,144,44388,2,0,B|104:176|32:136,1,130,2|0
49,262,45372,2,0,B|121:230|193:270,1,130,8|0
288,344,46356,5,2
400,304,46847,1,0
304,232,47339,2,0,B|240:232,2,65,8|0|0
416,192,48323,2,0,B|448:128|416:64,1,130,2|0
320,128,49306,5,8
224,192,49798,1,0
160,96,50290,2,0,B|96:80,2,65,2|0|0
88,184,51274,2,0,B|96:240|72:280,2,97.5,8|8|8
136,144,52257,1,2
240,200,52749,1,0
200,304,53241,6,0,B|260:352|320:304,1,130,8|0
384,208,54224,2,0,B|324:160|264:208,1,130,2|0
151,234,55208,2,0,B|55:258,2,97.5,8|8|8
151,234,56192,5,2
168,123,56683,1,0
280,112,57175,2,0,B|344:144|408:112,1,130,8|0
456,216,58159,2,0,B|392:184|328:216,1,130,2|0
352,272,58897,1,0
352,272,59142,1,8
291,335,59511,2,0,B|188:348,1,97.5,8|8
194,347,60126,1,2
121,255,60618,2,0,B|103:189,1,65,2|0
130,139,61110,6,0,B|255:69|378:139,1,260,8|2
376,255,62585,1,0
376,255,63077,1,8
295,291,63446,2,0,B|183:304,1,97.5,8|8
146,273,64061,2,0,B|98:217|114:145,1,130,2|0
232,72,65044,5,8
232,72,65290,1,0
352,152,65782,1,0
352,152,66028,1,2
280,280,66520,1,0
280,280,66765,1,8
280,280,67011,2,0,B|312:328|368:328,2,97.5,8|8|8
224,256,67995,6,0,B|160:272,1,65,2|0
152,216,68487,2,0,B|80:216,1,65,2|0
96,160,68979,2,0,B|32:128|32:48,1,130,8|0
152,56,69962,2,0,B|216:88|280:56,1,130,2|0
376,120,70946,2,0,B|416:80|480:80,2,97.5,8|8|8
408,168,71929,2,0,B|432:240|376:288,1,130,2|0
240,240,72913,5,8
184,344,73405,1,0
88,272,73897,2,0,B|49:216|88:144,1,130,2|0
199,123,74880,2,0,B|219:72|215:19,2,97.5,8|8|8
308,165,76110,1,0
308,165,76356,1,2
224,248,76847,6,0,B|296:368|448:360,1,260,8|2
476,247,78323,1,0
434,137,78815,2,0,B|327:120,2,97.5,8|8|8
434,137,79798,1,2
337,203,80290,1,2
290,310,80782,6,0,B|245:365|161:366,1,130,8|0
75,305,81765,2,0,B|105:246|73:178,1,130,2|0
159,99,82749,5,8
159,99,83118,1,8
159,99,83487,2,0,B|222:99,2,65,8|2|0
232,192,84470,5,0
232,192,84716,2,0,B|265:256|232:321,1,130,12|0
131,259,85700,1,12
131,259,86192,1,0
232,192,86683,1,12
460,245,102421,6,0,B|440:317|365:341,1,130,8|0
291,255,103405,1,2
326,143,103897,1,0
246,57,104388,2,0,B|184:70|140:50,2,97.5,8|8|8
283,102,105372,2,0,B|214:118|171:173,1,130,2|0
205,308,106356,6,0,B|335:335,1,130,8|0
441,291,107339,1,2
411,177,107831,1,0
321,102,108323,2,0,B|342:44|400:34,2,97.5,8|8|8
297,155,109306,2,0,B|233:192|163:150,2,130,2|2|8
449,333,111274,5,2
292,253,112011,1,8
292,253,112257,2,0,B|191:272,2,97.5,8|8|8
292,253,113241,2,0,B|428:230,1,130,2|0
420,231,114224,5,8
392,117,114716,1,0
284,71,115208,1,2
211,231,115946,1,8
211,231,116192,2,0,B|108:212,2,97.5,8|8|8
211,231,117175,2,0,B|233:323|356:357|434:292,1,260,2|12
341,182,118651,5,0
392,80,119142,2,0,B|464:80,2,65,2|0|0
280,104,120126,2,0,B|184:88,1,97.5,8|8
120,144,120864,2,0,B|193:159,1,65,8|2
208,272,121601,1,0
312,328,122093,6,0,B|448:296|504:168,1,260,8|2
392,144,123569,2,0,B|320:128,2,65,0|8|8
464,88,124429,1,8
464,88,124798,1,8
352,48,125290,5,0
352,48,125536,1,2
344,168,126028,2,0,B|288:224|216:216,1,130,12|0
144,128,127011,1,2
80,224,127503,2,0,B|16:232,2,65,0|0|8
192,248,128487,2,0,B|320:288,1,130,0|2
432,256,129470,6,0,B|448:192,1,65
480,144,129962,2,0,B|408:120|384:64,1,130,8|0
264,48,130946,1,2
272,168,131438,1,0
176,240,131929,6,0,B|64:208,2,97.5,8|8|8
208,288,132913,2,0,B|256:328|288:272|288:272|352:296|360:224|360:224|424:240|424:160,1,285.999991476536,2|12
368,88,134388,6,0,B|416:40,2,65,0|0|2
272,152,135372,1,0
168,96,135864,2,0,B|64:80,2,97.5,8|8|8
168,96,136847,1,2
120,200,137339,2,0,B|120:272|184:304,1,130,2|8
296,256,138323,6,0,B|360:272,1,65
424,288,138815,1,2
392,160,139306,1,0
392,160,139552,1,0
392,160,139798,2,0,B|384:96|432:64,2,97.5,8|8|8
280,96,141028,1,0
280,96,141274,1,2
192,192,141765,6,0,B|48:192,2,130,12|0|2
320,192,143241,1,0
320,192,143487,1,8
320,192,143733,2,0,B|416:192,2,97.5,8|8|8
296,248,144716,6,0,B|244:226|244:144|318:128,1,142.999995738268,2|0
400,80,145700,1,8
400,80,145946,1,0
472,176,146438,1,0
472,176,146683,1,2
400,272,147175,1,2
288,256,147667,6,0,B|240:296|184:288,1,97.5,12|0
136,224,148405,1,0
136,224,148651,2,0,B|136:88,1,130,2|0
240,40,149634,6,0,B|288:96|360:104,1,130,12|8
264,184,150618,1,12
264,184,150864,1,8
264,184,151110,1,8
350,262,151601,2,0,B|287:268|239:324,1,130,12|0
136,280,152585,5,2
80,176,153077,1,0
80,176,153323,1,8
80,176,153569,2,0,B|103:122|76:73,2,97.5,8|8|8
136,176,154552,2,0,B|200:160|264:176,1,130,2|0
352,96,155536,1,12
456,144,156028,5,0
456,264,156520,2,0,B|376:352|272:344,1,195,2|8
248,296,157503,2,0,B|192:312|136:296,2,97.5,8|8|8
280,248,158487,2,0,B|308:203|245:185|245:185|274:118|206:107|206:107|206:43|145:53,1,285.999991476536,2|12
64,136,159962,6,0,B|16:192,2,65,0|0|2
88,248,160946,1,2
200,272,161438,2,0,B|272:184,2,97.5,8|8|8
224,320,162421,2,0,B|352:368|496:312,1,260,2|12
464,200,163897,5,0
376,120,164388,1,2
264,80,164880,1,8
144,88,165372,1,8
144,88,165618,1,12
256,192,166356,12,12,167339
136,64,168323,5,2
168,176,168815,1,0
168,176,169061,1,8
168,176,169306,2,0,B|192:272,1,97.5,8|8
272,304,170044,1,8
272,304,170290,2,0,B|424:312|496:184,1,260,2|12
448,80,171765,5,0
352,144,172257,1,2
256,80,172749,1,0
160,144,173241,2,0,B|80:80,2,97.5,8|8|8
256,80,174470,1,0
256,80,174716,1,2
344,152,175208,6,0,B|384:216|344:280,2,130,12|0|2
243,211,176683,1,0
136,264,177175,2,0,B|136:320|88:360,2,97.5,8|8|8
104,216,178159,2,0,B|128:144|104:80,1,130,2|0
208,32,179142,5,12
208,32,179388,1,0
304,104,179880,1,0
304,104,180126,1,2
224,192,180618,1,0
224,192,180864,1,8
224,192,181110,2,0,B|256:288,2,97.5,12|12|12
256,192,182093,12,12,183077
136,280,184061,6,0,B|208:320|256:280|256:280|304:320|383:279,1,260,2|8
368,192,185413,2,0,B|424:192|456:160,1,97.5,8|8
456,104,186028,2,0,B|400:80|352:24,2,130,2|0|12
448,224,187503,5,0
352,160,187995,2,0,B|280:136|208:168,1,130,2|0
184,272,188979,2,0,B|152:320|96:320,2,97.5,8|8|8
112,184,190208,1,0
112,184,190454,1,2
176,88,190946,6,0,B|312:56|432:144,1,260,12|2
448,256,192421,1,0
336,280,192913,2,0,B|312:384,2,97.5,8|8|8
256,192,194142,1,0
256,192,194388,1,2
167,115,194880,6,0,B|103:147|31:131,1,130,12|0
40,250,195864,2,0,B|102:235|166:267,1,130,2|0
256,192,196847,5,12
256,192,197831,1,2
384,96,198815,2,0,B|480:128,2,97.5,8|8|8
384,96,199798,1,2
376,248,200782,5,8
232,312,201765,1,2
112,208,202749,2,0,B|64:232|40:272,2,97.5,8|8|8
200,128,203979,5,0
200,128,204224,1,2
256,232,204716,2,0,B|392:208|464:88,1,260,12|2
344,80,206192,1,0
416,176,206683,2,0,B|456:224|456:288,2,97.5,8|8|8
416,176,207667,1,2
320,104,208159,6,0,B|248:120,2,65,0|0|12
312,224,209142,1,0
168,248,209810,2,0,B|160:320,2,65
120,178,210719,2,0,B|160:122|235:108,1,130
256,192,213446,12,0,214810
256,192,214961,12,0,221022
