osu file format v9

[General]
AudioFilename: Jerry & Stephy - Bund 18.mp3
AudioLeadIn: 0
PreviewTime: 118647
Countdown: 1
SampleSet: Normal
StackLeniency: 0.7
Mode: 0
LetterboxInBreaks: 1

[Editor]
DistanceSpacing: 1.4
BeatDivisor: 4
GridSize: 8

[Metadata]
Title:Bund 18
Artist:Jerry & Stephy
Creator:Colin Hou
Version:Hard
Source:
Tags:Wai Tan Shiba Hao Yuan Chengjie Qi Wei Nan Cai Nv Mao Shanghai

[Difficulty]
HPDrainRate:5
CircleSize:4
OverallDifficulty:6
ApproachRate:7
SliderMultiplier:1.6
SliderTickRate:1

[Events]
//Background and Video events
0,0,"BG.jpg"
//Break Periods
2,86883,100538
//Storyboard Layer 0 (Background)
//Storyboard Layer 1 (Fail)
//Storyboard Layer 2 (Pass)
//Storyboard Layer 3 (Foreground)
//Storyboard Sound Samples
//Background Colour Transformations
3,100,0,0,0

[TimingPoints]
4061,491.803278688525,4,1,1,60,1,0
21888,-100,4,2,1,60,0,0
67995,-100,4,2,1,40,0,0
68487,-100,4,2,1,50,0,0
68979,-100,4,2,1,60,0,0
149634,-100,4,2,1,30,0,0
150618,-100,4,2,1,45,0,0
151601,-100,4,2,1,60,0,0
165618,-200,4,2,1,60,0,0
167339,-100,4,2,1,60,0,0
181110,-100,4,2,1,50,0,0
181479,-100,4,2,1,55,0,0
181847,-100,4,2,1,60,0,0
209810,606.060606060606,4,2,1,60,1,0
211325,-100,4,2,1,0,0,0
211476,-100,4,2,1,60,0,0
218446,-100,4,2,1,60,0,0
219052,-100,4,2,1,50,0,0
219658,-100,4,2,1,30,0,0
220113,-100,4,2,1,20,0,0
220567,-100,4,2,1,10,0,0
221022,-100,4,2,1,0,0,0

[Colours]
Combo1 : 237,213,44
Combo2 : 11,217,166
Combo3 : 238,47,47

[HitObjects]
72,328,4060,1,0
448,240,5044,1,0
368,64,5536,1,0
408,152,5782,1,0
280,96,6028,5,0
184,232,6397,1,0
304,344,6765,1,0
184,32,7503,1,0
96,240,7995,1,0
456,104,8979,5,0
336,256,9470,1,0
248,288,9716,1,0
328,160,9962,5,0
224,24,10331,1,0
104,144,10700,1,0
280,216,11192,5,0
232,136,11438,1,0
88,304,11929,2,0,B|200:400|401:371,1,320,4|0
312,200,13405,1,0
424,40,13897,5,0
408,208,14265,1,0
272,112,14634,1,0
200,176,14880,2,0,B|120:176,1,80
72,296,15372,5,0
160,264,15618,1,0
232,328,15864,2,0,B|376:328|440:208,1,240
384,136,16847,2,0,B|409:100|447:88,1,80
296,120,17339,2,0,B|305:72|336:45,1,80
328,200,17831,5,0
160,104,18200,1,0
80,280,18569,1,0
184,208,18815,6,0,B|146:224|96:216,1,80
240,264,19306,2,0,B|209:292|160:301,1,80
312,296,19798,1,0
448,192,20167,1,0
352,48,20536,1,0
256,104,20782,2,0,B|219:82|168:72,1,80
96,120,21274,1,0
48,200,21520,1,0
64,296,21765,5,0
157,275,22011,1,0
233,332,22257,1,0
328,323,22503,1,0
453,60,23487,5,0
379,122,23733,2,0,B|301:99,1,80,2|0
243,175,24224,1,0
147,161,24470,1,0
396,355,25700,5,2
419,270,25946,1,0
443,185,26192,1,0
467,100,26438,1,0
79,47,27667,5,2
103,131,27913,1,0
127,215,28159,2,0,B|152:303,1,80
82,350,28651,5,0
221,236,29020,1,0
375,326,29388,1,0
440,272,29634,5,2
464,192,29880,1,0
440,112,30126,1,0
375,58,30372,1,0
80,320,31601,5,2
154,272,31847,1,0
240,254,32093,1,0
327,257,32339,1,0
448,56,33569,5,2
426,141,33815,1,0
361,200,34060,1,0
278,229,34306,1,0
72,65,35536,5,2
147,110,35782,1,0
232,131,36028,1,0
319,124,36274,1,0
400,91,36520,2,0,B|436:120|480:132,1,80
397,178,37011,2,0,B|362:210|311:212,1,80
467,238,37503,6,0,B|340:341|152:308,1,320,8|2
101,145,38979,1,0
131,227,39224,1,8
168,88,39470,5,0
388,49,39962,1,0
427,270,40454,1,2
206,309,40946,1,0
256,56,41438,5,8
471,113,41929,1,0
413,330,42421,1,2
197,272,42913,1,0
256,208,43159,1,8
312,144,43405,5,0
160,56,43897,1,0
160,56,44142,1,0
160,56,44388,5,2
80,192,44757,1,0
184,312,45126,1,0
96,296,45372,6,0,B|224:312|336:256,1,240,8|0
400,208,46356,1,2
464,264,46601,1,0
360,48,47093,1,0
360,48,47339,5,8
120,68,47831,1,0
141,308,48323,1,2
380,287,48815,1,2
400,200,49060,1,0
416,112,49306,6,0,B|384:192|296:224,1,160,8|0
88,120,50290,1,2
272,24,50782,1,0
240,104,51028,1,0
208,184,51274,5,8
392,136,51642,1,8
400,328,52011,1,8
344,256,52257,5,2
344,256,52380,1,2
344,256,52503,1,2
272,304,52749,2,0,B|232:320|184:320,1,80
112,280,53241,2,0,B|128:200|112:120,1,160,8|0
176,48,53979,5,0
256,104,54224,2,0,B|304:112|344:96,1,80,2|0
216,184,54716,2,0,B|258:207|301:206,1,80,0|8
384,184,55208,5,8
296,352,55577,1,8
128,256,55946,1,8
152,160,56192,5,2
152,160,56315,1,0
152,160,56438,1,0
64,128,56683,2,0,B|78:86|80:40,1,80
168,72,57175,2,0,B|248:56|328:96,2,160,8|0|2
376,344,58651,2,0,B|388:309|416:272,1,80
480,216,59142,5,8
360,64,59511,1,8
176,120,59880,1,8
168,208,60126,2,0,B|144:256|104:272,1,80,2|2
32,240,60618,2,0,B|56:192|96:176,1,80,0|2
288,176,61110,6,0,B|272:256|200:320,1,160,8|0
64,64,62093,1,2
232,24,62585,1,0
217,110,62831,1,8
300,80,63077,1,8
400,176,63446,1,8
400,176,63569,1,0
475,130,63815,1,8
429,205,64060,6,0,B|401:248|358:269,1,80,2|0
292,223,64552,1,2
243,296,64798,1,0
159,324,65044,2,0,B|64:267|42:119,1,240,8|0
87,46,66028,2,0,B|127:33|170:35,1,80,2|0
215,107,66520,2,0,B|175:120|132:118,1,80,0|8
165,34,67011,5,8
109,243,67380,1,8
285,367,67749,1,8
297,271,67995,5,2
322,251,68118,1,0
342,226,68241,1,0
358,198,68364,1,0
365,171,68487,5,2
370,143,68610,1,0
370,114,68733,1,0
367,86,68856,1,0
358,59,68979,6,0,B|321:144|356:224,1,160,10|0
141,360,69962,2,0,B|178:275|143:195,1,160,2|0
103,117,70700,1,8
109,212,70946,5,8
287,112,71315,1,8
449,233,71683,1,8
400,304,71929,5,2
400,304,72175,1,0
312,336,72421,1,2
312,336,72667,1,0
216,328,72913,2,0,B|224:240|176:168,1,160,8|0
112,104,73651,1,0
96,200,73897,2,0,B|80:288,1,80,2|0
165,252,74388,2,0,B|180:174,1,80,0|8
264,152,74880,5,8
456,176,75249,1,8
288,272,75618,1,8
320,184,75864,6,0,B|360:160|376:120,1,80,2|2
280,96,76356,2,0,B|317:68|330:27,1,80,0|2
368,272,76847,2,0,B|240:368|48:336,1,320,8|2
113,152,78323,5,0
88,244,78569,1,8
181,222,78815,1,8
297,69,79183,1,8
297,69,79306,1,0
388,96,79552,1,8
374,191,79798,2,0,B|392:229|389:276,1,80,2|0
477,230,80290,2,0,B|459:192|462:145,1,80,2|0
283,164,80782,6,0,B|246:240|151:260,1,160,8|0
67,232,81520,1,0
155,195,81765,1,10
250,201,82011,1,0
334,245,82257,1,0
389,323,82503,1,8
306,371,82749,5,8
324,155,83118,1,8
134,51,83487,1,8
78,129,83733,6,0,B|103:166|147:179,1,80,2|0
232,149,84224,1,0
281,66,84470,1,0
377,68,84716,6,0,B|456:106|478:185,1,160,12|0
288,232,85700,1,12
256,192,85823,12,12,86683
256,192,101438,12,0,102421
168,224,102667,6,0,B|128:256|96:264,2,80
272,99,103651,2,0,B|264:49|273:17,2,80,0|0|8
327,252,104634,1,0
327,252,104757,1,8
327,252,104880,2,0,B|375:270|398:294,1,80,0|8
316,346,105372,1,2
221,361,105618,1,0
118,340,105864,1,2
43,256,106110,2,0,B|46:214|66:174,1,80,0|8
178,67,106601,5,0
254,125,106847,2,0,B|334:98,1,80
410,152,107339,1,2
316,346,107585,5,0
253,273,107831,2,0,B|278:251|297:206,1,80,0|8
282,111,108323,1,8
149,167,108569,5,0
149,167,108692,1,8
149,167,108815,1,0
102,30,109061,1,8
190,67,109306,6,0,B|272:52,1,80,2|0
320,134,109798,2,0,B|332:222|411:264,1,160,2|8
168,358,110782,6,0,B|254:348,2,80,0|0|2
316,76,111765,2,0,B|230:86,2,80,0|0|10
400,192,112626,1,8
400,192,112749,2,0,B|314:202,1,80,0|8
280,288,113241,1,2
188,315,113487,1,0
97,283,113733,1,0
53,197,113979,1,0
53,197,114224,1,8
304,64,114716,5,0
344,152,114962,1,0
344,152,115085,1,0
344,152,115208,2,0,B|432:144,1,80,2|0
360,248,115700,1,0
264,232,115946,1,8
168,216,116192,2,0,B|122:260|64:272,2,120,8|8|8
228,141,117175,1,2
256,192,117298,12,4,118159
340,296,118651,6,0,B|419:279,1,80
443,186,119142,1,2
402,98,119388,1,0
307,112,119634,2,0,B|275:147|222:148,1,80,0|8
87,69,120126,2,0,B|208:62,2,120,8|8|8
32,149,121110,5,2
199,341,121601,1,0
450,292,122093,1,8
358,123,122585,5,0
271,81,122831,1,0
204,150,123077,2,0,B|168:170|120:179,1,80,2|0
50,121,123569,2,0,B|86:101|134:92,1,80,0|8
220,103,124061,5,8
155,283,124429,1,8
328,366,124798,1,8
419,335,125044,1,2
256,192,125167,12,4,126028
84,229,126520,5,0
332,287,127011,1,2
433,51,127503,1,0
434,147,127749,1,8
337,148,127995,2,0,B|298:228|203:235,1,160,8|0
194,139,128733,1,0
164,230,128979,2,0,B|148:279|114:307,1,80,2|0
108,99,129470,6,0,B|124:50|158:22,1,80
412,66,129962,2,0,B|395:198|307:276,1,240,8|0
220,233,130946,1,2
207,328,131192,1,0
113,306,131438,2,0,B|79:332|17:333,1,80,0|8
25,236,131929,5,8
84,28,132298,1,8
274,130,132667,1,8
223,211,132913,6,0,B|176:208|149:185,1,80,2|0
309,168,133405,1,0
348,255,133651,1,0
279,344,133897,6,0,B|200:377|114:340,1,160,12|0
148,251,134634,1,0
67,198,134880,2,0,B|43:165|39:122,1,80,2|0
148,156,135372,2,0,B|147:76,1,80,0|8
232,201,135864,5,8
419,280,136233,1,8
222,331,136601,1,8
267,246,136847,6,0,B|300:216|312:169,1,80,2|0
378,112,137339,1,0
343,22,137585,1,2
313,113,137831,6,0,B|340:192|419:239,1,160,8|0
221,264,138815,2,0,B|183:299|149:307,1,80,2|0
101,225,139306,2,0,B|20:244,1,80,0|10
38,95,139798,6,0,B|155:65,1,120,8|8
340,217,140536,1,8
274,286,140782,1,2
179,301,141028,1,0
90,263,141274,2,0,B|62:222|57:178,1,80,0|2
175,41,141765,6,0,B|234:38|298:51,2,120,12|0|0
220,126,142749,1,2
155,196,142995,1,0
196,282,143241,2,0,B|218:324|261:340,1,80,0|10
366,166,143733,6,0,B|415:122|482:121,2,120,8|8|8
344,259,144716,1,2
266,315,144962,1,0
173,287,145208,2,2,B|135:304|96:305,1,80,2|0
46,221,145700,5,8
91,136,145946,1,0
171,187,146192,2,2,B|215:205|262:198,1,80,2|0
305,121,146683,1,8
399,102,146929,1,0
464,172,147175,1,2
462,268,147421,1,0
401,342,147667,2,0,B|328:342|279:372,2,120,8|8|8
336,269,148651,6,0,B|296:256|246:256,1,80,4|2
127,188,149142,2,0,B|167:175|217:175,1,80,2|0
267,71,149634,5,12
354,110,149880,1,8
412,186,150126,2,0,B|423:229|413:280,1,80,8|8
157,95,150618,5,12
253,165,150864,1,8
296,276,151110,2,0,B|307:319|297:370,1,80,8|8
65,162,151601,5,12
340,77,152093,2,0,B|428:93,1,80
370,174,152585,2,0,B|368:257|405:331,1,160,2|0
311,302,153323,1,8
225,344,153569,2,0,B|168:378|109:381,2,120,8|8|8
236,248,154552,1,2
225,152,154798,1,2
177,68,155044,2,0,B|130:142|151:228,1,160,0|12
429,307,156028,6,0,B|390:336|337:338,1,80
276,281,156520,2,0,B|326:221|422:221,1,160,2|0
459,134,157257,1,8
459,134,157503,5,8
323,15,157872,1,8
294,192,158241,1,8
232,265,158487,6,0,B|194:293|150:307,1,80,2|8
79,253,158979,2,0,B|117:225|161:211,1,80,2|8
232,265,159470,2,0,B|283:328|369:342,1,160,12|0
385,247,160208,1,0
357,155,160454,2,0,B|412:122|428:58,1,120,2|0
103,84,161192,1,8
47,162,161438,6,0,B|23:206|31:251,1,80,10|0
57,253,161806,1,8
84,268,161929,2,0,B|88:318|71:350,1,80,0|8
166,323,162421,2,0,B|200:348|241:352,1,80,2|0
334,335,162913,1,0
410,264,163159,1,0
415,160,163405,2,0,B|412:107|393:72,1,80,12|0
306,17,163897,1,2
256,198,164142,6,0,B|209:225|169:228,1,80,0|2
79,179,164634,1,8
146,89,164880,2,8,B|181:63|226:63,1,80,8|0
411,248,165372,5,12
411,248,165618,2,0,B|400:316|354:356,1,120,8|0
256,192,166479,12,12,167339
171,318,167831,5,0
225,239,168077,1,0
232,143,168323,2,0,B|227:98|199:60,1,80,2|0
112,40,168815,1,0
33,95,169061,1,8
40,190,169306,5,8
231,261,169675,1,8
421,333,170044,1,8
396,240,170290,6,0,B|362:168|361:78,1,160,2|0
433,20,171028,1,0
468,109,171274,1,12
465,148,171397,1,0
450,185,171520,1,0
320,135,171765,6,0,B|272:138|236:162,1,80
270,249,172257,1,2
218,330,172503,1,0
125,302,172749,2,0,B|76:307|44:331,1,80,0|8
63,182,173241,6,0,B|79:124|60:60,2,120,8|8|8
151,218,174224,2,0,B|193:208|229:184,1,80,2|8
320,195,174716,5,0
235,280,174962,1,2
278,76,175208,2,0,B|336:44|404:46,2,120,12|0|0
210,144,176192,6,0,B|168:158|114:160,1,80,2|0
80,77,176683,1,0
49,168,176929,1,8
68,262,177175,1,8
125,338,177421,1,0
163,328,177544,1,8
202,320,177667,2,0,B|243:337|289:329,1,80,0|8
352,266,178159,1,2
310,179,178405,1,0
353,93,178651,2,0,B|375:58|423:44,1,80,0|8
457,279,179142,5,12
457,279,179388,1,0
255,100,179880,1,0
197,177,180126,2,0,B|152:189|107:185,1,80,2|0
63,106,180618,2,0,B|108:94|153:98,1,80,0|8
227,52,181110,5,12
391,236,181479,1,12
149,287,181847,1,12
92,209,182093,5,8
372,308,182462,1,8
372,308,182585,1,10
298,32,182831,1,8
358,108,183077,6,0,B|387:145|389:192,1,80,12|0
310,238,183569,1,0
226,190,183815,1,0
174,271,184061,2,0,B|85:285,1,80,2|0
41,203,184552,1,0
63,109,184798,1,8
157,90,185044,5,8
157,90,185413,1,8
157,90,185782,1,8
229,153,186028,6,0,B|299:194|384:187,1,160,10|0
422,99,186765,1,0
504,148,187011,1,12
184,284,187503,6,0,B|160:325|112:343,1,80
75,254,187995,1,2
83,158,188241,1,0
155,94,188487,2,0,B|202:90|240:108,1,80,0|8
329,273,188979,2,0,B|385:303|452:306,2,120,8|8|8
236,248,189962,6,0,B|201:281|156:289,1,80,2|0
75,256,190454,1,0
153,199,190700,1,8
236,248,190946,2,0,B|281:294|356:296,2,120,12|0|0
226,152,191929,1,8
284,75,192175,1,0
363,128,192421,2,0,B|413:130|452:114,1,80,2|8
469,210,192913,5,8
299,344,193282,1,8
87,300,193651,1,8
137,218,193897,6,0,B|145:176|144:136,1,80,2|0
158,43,194388,1,0
75,92,194634,1,0
240,162,194880,6,0,B|287:167|324:147,1,80,12|0
401,110,195372,1,2
439,197,195618,1,0
305,284,195864,6,0,B|282:330|246:347,1,80,8|0
216,359,196233,1,8
176,366,196356,1,0
73,348,196601,1,8
24,257,196847,2,0,B|37:176|96:118,1,160,12|0
191,136,197585,5,0
279,98,197831,2,0,B|302:58|340:45,1,80,2|0
430,70,198323,2,0,B|407:110|369:123,1,80
279,98,198815,5,8
325,283,199183,1,8
325,283,199306,1,0
147,356,199552,1,8
54,329,199798,5,8
232,256,200167,1,10
186,72,200536,1,10
120,153,200782,6,0,B|197:183|282:183,1,160,8|0
337,98,201520,1,0
431,112,201765,2,0,B|462:138|479:176,1,80,8|0
373,180,202257,2,0,B|405:262,1,80,0|8
348,334,202749,5,8
261,292,202995,1,0
261,292,203118,1,8
261,292,203241,2,0,B|214:321|166:323,1,80,0|8
102,274,203733,1,2
152,192,203979,1,8
86,122,204224,2,0,B|88:80|105:46,1,80,0|8
323,24,204716,6,0,B|369:181|278:345,1,320,12|2
88,261,206192,1,0
150,178,206438,1,8
245,218,206683,2,0,B|305:248|365:217,1,120,8|8
413,71,207421,1,8
312,96,207667,2,0,B|228:82,1,80,2|0
133,51,208159,5,0
164,141,208405,1,0
142,234,208651,1,12
85,311,208897,1,0
176,284,209142,2,0,B|220:307|275:309,1,100
329,184,209810,5,0
419,244,210113,1,0
389,352,210416,1,0
277,353,210719,2,0,B|184:358|120:315,1,160
256,192,213446,12,2,214810
256,192,214961,12,0,221022
