osu file format v12

[General]
AudioFilename: Omission.mp3
AudioLeadIn: 1000
PreviewTime: 76459
Countdown: 0
SampleSet: None
StackLeniency: 0.7
Mode: 0
LetterboxInBreaks: 1

[Editor]
Bookmarks: 11844,22393,27668,32943,55360,65910,76459,87009,97558,108108,118657,129207,139756,151624,162174,172723,183273,193822,204371,214921
DistanceSpacing: 0.4
BeatDivisor: 4
GridSize: 4

[Metadata]
Title:Omission
TitleUnicode:Omission
Artist:Jerico
ArtistUnicode:Jerico
Creator:Reiji-RJ
Version:Vass-RJ
Source:Touhou
Tags:
BeatmapID:230741
BeatmapSetID:83587

[Difficulty]
HPDrainRate:7
CircleSize:4
OverallDifficulty:7
ApproachRate:9
SliderMultiplier:1.6
SliderTickRate:1

[Events]
//Background and Video events
0,0,"bg.png",0,0
//Break Periods
2,22593,27068
2,33142,42892
2,43692,53442
2,97758,107508
//Storyboard Layer 0 (Background)
//Storyboard Layer 1 (Fail)
//Storyboard Layer 2 (Pass)
//Storyboard Layer 3 (Foreground)
//Storyboard Sound Samples
//Background Colour Transformations
3,100,163,162,255

[TimingPoints]
1295,329.67032967033,4,1,1,30,1,0
1295,-100,4,1,1,30,0,0
1377,-100,4,1,1,20,0,0
1542,-100,4,1,1,15,0,0
1707,-100,4,1,1,50,0,0
3355,-100,4,2,0,50,0,0
3437,-100,4,1,1,50,0,0
3520,-100,4,2,0,50,0,0
3602,-100,4,1,1,50,0,0
4014,-100,4,1,1,20,0,0
4179,-100,4,1,1,15,0,0
4344,-100,4,1,1,50,0,0
5827,-100,4,2,0,50,0,0
5910,-100,4,1,1,50,0,0
5992,-100,4,2,0,50,0,0
6075,-100,4,1,1,50,0,0
6240,-50,4,1,1,80,0,0
6569,-100,4,1,1,35,0,0
7146,-100,4,1,1,50,0,0
8630,-100,4,2,1,50,0,0
8712,-100,4,1,1,50,0,0
8795,-100,4,2,1,50,0,0
8877,-100,4,1,1,50,0,0
9289,-100,4,1,1,20,0,0
9454,-100,4,1,1,15,0,0
9619,-100,4,1,1,50,0,0
11102,-100,4,2,1,50,0,0
11185,-100,4,1,1,50,0,0
11267,-100,4,2,1,50,0,0
11349,-100,4,1,1,50,0,0
11514,-50,4,1,1,80,0,0
11844,-133.333333333333,4,1,1,70,0,0
12503,-100,4,1,1,50,0,0
13822,-100,4,1,1,60,0,0
14481,-100,4,1,1,50,0,0
15141,-133.333333333333,4,1,1,60,0,0
15635,-100,4,1,1,70,0,0
16130,-133.333333333333,4,1,1,60,0,0
16459,-100,4,1,1,50,0,0
17119,-133.333333333333,4,1,1,70,0,0
17778,-100,4,1,1,50,0,0
19097,-100,4,1,1,60,0,0
19756,-100,4,1,1,50,0,0
20415,-133.333333333333,4,1,1,80,0,0
20910,-100,4,1,1,70,0,0
21404,-133.333333333333,4,1,1,60,0,0
21734,-100,4,1,1,50,0,0
27668,-100,4,1,1,30,0,0
27751,-100,4,1,1,20,0,0
27915,-100,4,1,1,15,0,0
28245,-100,4,1,1,20,0,0
29234,-100,4,1,1,25,0,0
30223,-100,4,1,1,20,0,0
30388,-100,4,1,1,15,0,0
30718,-100,4,1,1,35,0,0
31377,-100,4,1,1,40,0,0
31871,-100,4,1,1,45,0,0
32613,-50,4,1,1,50,0,0
32860,-50,4,2,1,30,0,0
32943,-100,4,1,1,50,0,0
55360,-76.9230769230769,4,1,1,50,0,0
57338,-76.9230769230769,4,1,0,60,0,0
57998,-76.9230769230769,4,1,1,50,0,0
59976,-76.9230769230769,4,1,0,60,0,0
60635,-76.9230769230769,4,1,1,50,0,0
62613,-50,4,1,0,60,0,0
63273,-76.9230769230769,4,1,1,50,0,0
64921,-100,4,1,1,50,0,0
65333,-100,4,1,1,40,0,0
65910,-100,4,1,1,60,0,0
75141,-76.9230769230769,4,1,1,60,0,0
76459,-133.333333333333,4,1,1,35,0,0
76789,-133.333333333333,4,1,0,50,0,0
78767,-133.333333333333,4,1,0,55,0,0
80086,-133.333333333333,4,1,0,60,0,0
81075,-200,4,1,1,50,0,0
81734,-76.9230769230769,4,1,1,50,0,1
83712,-76.9230769230769,4,1,0,60,0,1
84371,-76.9230769230769,4,1,1,50,0,1
86349,-76.9230769230769,4,1,0,60,0,1
87009,-133.333333333333,4,1,1,50,0,0
87338,-133.333333333333,4,1,0,50,0,0
89234,-133.333333333333,4,1,0,55,0,0
90553,-133.333333333333,4,1,0,60,0,0
91624,-200,4,1,0,50,0,0
92284,-76.9230769230769,4,1,1,55,0,1
94262,-50,4,1,0,60,0,1
94921,-76.9230769230769,4,1,1,55,0,1
97146,-76.9230769230769,4,1,0,40,0,1
97503,-76.9230769230769,4,1,0,60,0,1
97558,-76.9230769230769,4,1,0,50,0,0
108108,-133.333333333333,4,1,0,30,0,0
113053,-133.333333333333,4,1,0,35,0,0
117338,-200,4,1,0,40,0,0
118657,-100,4,1,0,40,0,0
119234,-100,4,1,0,35,0,0
120553,-100,4,1,0,50,0,0
120718,-100,4,1,0,40,0,0
121871,-100,4,1,0,35,0,0
123190,-100,4,1,0,50,0,0
123355,-100,4,1,0,40,0,0
124509,-100,4,1,0,35,0,0
125827,-100,4,1,0,50,0,0
125992,-100,4,1,0,40,0,0
127174,-100,4,1,0,50,0,0
127311,-100,4,1,0,40,0,0
128547,-100,4,1,0,50,0,0
128630,-100,4,1,0,35,0,0
129207,-100,4,1,1,40,0,0
131185,-133.333333333333,4,1,0,50,0,0
131597,-100,4,1,1,40,0,0
133822,-133.333333333333,4,1,0,50,0,0
134234,-100,4,1,1,40,0,0
136459,-133.333333333333,4,1,0,50,0,0
136871,-100,4,1,1,40,0,0
137778,-133.333333333333,4,1,0,50,0,0
139756,-200,4,1,0,45,0,0
140251,-100,4,1,0,50,0,0
142970,-133.333333333333,4,1,0,60,0,0
143465,-100,4,1,0,80,0,0
143959,-133.333333333333,4,1,0,60,0,0
144371,-76.9230769230769,4,1,0,70,0,0
144948,-133.333333333333,4,1,0,70,0,0
145608,-100,4,1,0,50,0,0
148327,-133.333333333333,4,1,0,80,0,0
148657,-100,4,1,0,70,0,0
149316,-133.333333333333,4,1,0,60,0,0
149646,-76.9230769230769,4,1,0,50,0,0
150223,-100,4,1,0,50,0,0

[Colours]
Combo1 : 255,255,255
Combo2 : 244,34,123
Combo3 : 251,170,201
Combo4 : 126,235,197
Combo5 : 47,119,114

[HitObjects]
76,132,1295,37,0,0:0:0:0:
148,124,1459,1,0,0:0:0:0:
160,196,1624,1,0,0:0:0:0:
88,208,1789,5,0,0:0:0:0:
240,328,1954,2,0,P|300:324|372:328,1,120
368,320,2284,1,0,0:0:0:0:
452,256,2448,2,0,P|464:184|468:136,1,120
476,128,2778,1,0,0:0:0:0:
332,184,2943,2,0,P|320:112|316:64,1,120
308,56,3273,1,0,0:0:0:0:
296,52,3355,1,0,0:0:0:0:
284,48,3437,1,0,0:0:0:0:
272,44,3520,1,0,0:0:0:0:
260,40,3602,1,0,0:0:0:0:
144,40,3767,53,0,0:0:0:0:
132,112,3932,1,0,0:0:0:0:
204,124,4097,1,0,0:0:0:0:
216,52,4262,1,0,0:0:0:0:
216,52,4426,5,0,0:0:0:0:
276,200,4591,2,0,P|272:248|260:340,1,120
272,328,4921,1,0,0:0:0:0:
144,256,5086,2,0,P|148:304|160:396,1,120
148,384,5416,1,0,0:0:0:0:
392,368,5580,2,0,P|400:300|404:228,1,120
412,240,5910,1,0,0:0:0:0:
420,232,5992,1,0,0:0:0:0:
428,224,6075,1,0,0:0:0:0:
436,216,6157,1,0,0:0:0:0:
488,132,6240,6,2,B|404:112|404:112|340:128|340:128|248:108,1,240,6|0,0:0|2:0,0:0:0:0:
248,100,6569,37,4,0:0:0:0:
116,16,6734,1,0,0:0:0:0:
136,124,6899,1,0,0:0:0:0:
224,0,7064,1,0,0:0:0:0:
180,64,7229,6,0,P|184:116|184:192,1,120
192,192,7558,1,0,0:0:0:0:
48,216,7723,2,0,P|62:265|90:336,1,120
82,339,8052,1,0,0:0:0:0:
248,340,8218,2,0,P|320:336|392:336,1,120
376,328,8547,1,0,0:0:0:0:
384,320,8630,1,0,0:0:0:0:
392,312,8712,1,0,0:0:0:0:
400,304,8795,1,0,0:0:0:0:
408,296,8877,1,0,0:0:0:0:
496,232,9042,53,0,0:0:0:0:
512,160,9207,1,0,0:0:0:0:
440,144,9371,1,0,0:0:0:0:
424,216,9536,1,0,0:0:0:0:
424,216,9701,5,0,0:0:0:0:
304,184,9866,2,0,L|172:196,1,120
176,188,10196,1,0,0:0:0:0:
16,88,10360,2,0,L|148:76,1,120
144,84,10690,1,0,0:0:0:0:
268,96,10855,2,0,L|392:60,1,120
396,64,11185,1,0,0:0:0:0:
408,68,11267,1,0,0:0:0:0:
420,72,11349,1,0,0:0:0:0:
432,76,11432,1,0,0:0:0:0:
444,80,11514,6,2,P|468:172|420:320,1,240,2|0,0:0|2:0,0:0:0:0:
324,292,11844,6,2,B|260:288|260:288|204:304|204:304|136:300,1,180.000006866455,6|0,0:0|0:0,0:0:0:0:
32,168,12503,6,0,L|116:172,1,80,8|0,0:0|0:0,0:0:0:0:
111,171,12751,1,0,0:0:0:0:
111,171,12833,1,0,0:0:0:0:
260,64,12998,2,0,L|172:60,1,80,8|0,0:0|0:0,0:0:0:0:
180,60,13245,1,0,0:0:0:0:
180,60,13327,1,0,0:0:0:0:
296,172,13492,1,0,0:0:0:0:
488,120,13657,1,0,0:0:0:0:
296,172,13822,54,2,P|292:208|292:256,1,80,4|2,0:0|0:0,0:0:0:0:
392,24,14152,2,2,P|395:79|391:143,1,120,2|0,0:0|2:0,0:0:0:0:
488,120,14481,5,4,0:0:0:0:
212,112,14646,2,2,B|152:96|152:96|48:108,1,160,0|4,0:0|0:0,0:0:0:0:
208,236,15141,54,2,B|268:252|268:252|328:240,1,120.000004577637,0|4,0:0|0:0,0:0:0:0:
456,316,15635,6,2,B|468:264|468:264|444:160,1,160,2|4,0:0|0:0,0:0:0:0:
292,32,16130,54,2,B|288:76|288:76|292:128,1,90.0000034332277,2|0,0:0|2:0,0:0:0:0:
324,240,16459,5,6,0:0:0:0:
84,280,16707,1,2,0:0:0:0:
168,92,16954,1,2,0:0:0:0:
292,120,17119,54,2,B|288:176|288:176|308:232|308:232|304:296,1,180.000006866455,6|0,0:0|0:0,0:0:0:0:
48,208,17778,6,0,L|128:212,1,80,8|0,0:0|0:0,0:0:0:0:
140,224,18025,1,0,0:0:0:0:
152,236,18108,1,0,0:0:0:0:
168,92,18273,2,0,L|248:96,1,80,8|0,0:0|0:0,0:0:0:0:
260,108,18520,1,0,0:0:0:0:
272,120,18603,1,0,0:0:0:0:
392,76,18767,1,8,0:0:0:0:
496,128,18932,1,0,2:0:0:0:
392,324,19097,54,2,P|396:284|396:240,1,80,4|2,0:0|0:0,0:0:0:0:
392,76,19426,2,2,L|272:68,1,120,2|0,0:0|0:0,0:0:0:0:
56,56,19756,5,4,0:0:0:0:
96,176,19921,2,2,B|88:228|88:228|108:280|108:280|100:344,1,160,0|4,0:0|0:0,0:0:0:0:
204,56,20415,54,2,B|216:108|216:108|208:180,1,120.000004577637,0|4,0:0|0:0,0:0:0:0:
336,136,20910,6,2,B|336:188|336:188|312:236|312:236|320:296,1,160,2|4,0:0|0:0,0:0:0:0:
456,48,21404,54,2,B|448:92|448:92|456:144,1,90.0000034332277,2|0,0:0|0:0,0:0:0:0:
440,260,21734,5,6,0:0:0:0:
268,320,21981,1,2,0:0:0:0:
128,232,22229,1,2,0:0:0:0:
36,272,22393,37,4,0:0:0:0:
36,272,27668,37,0,0:0:0:0:
104,256,27833,1,0,0:0:0:0:
88,188,27998,1,0,0:0:0:0:
20,204,28163,1,0,0:0:0:0:
232,184,28327,6,0,P|300:192|376:208,1,120
360,196,28657,1,0,0:0:0:0:
256,56,28822,2,0,P|188:80|128:108,1,120
128,96,29152,1,0,0:0:0:0:
232,184,29316,2,0,P|240:244|236:324,1,120
248,308,29646,1,0,0:0:0:0:
260,312,29729,1,0,2:0:0:0:
272,316,29811,1,0,0:0:0:0:
284,320,29893,1,0,2:0:0:0:
296,324,29976,1,0,0:0:0:0:
464,252,30141,53,0,0:0:0:0:
480,184,30305,1,0,0:0:0:0:
412,168,30470,1,0,0:0:0:0:
396,236,30635,1,0,0:0:0:0:
412,168,30800,5,0,0:0:0:0:
328,72,30965,2,0,L|208:68,1,120
200,60,31295,1,0,0:0:0:0:
60,196,31459,2,0,L|180:192,1,120
188,184,31789,1,0,0:0:0:0:
240,340,31954,2,0,L|360:328,1,120
364,316,32284,1,0,0:0:0:0:
368,304,32366,1,0,2:0:0:0:
372,292,32448,1,0,0:0:0:0:
376,280,32531,1,0,2:0:0:0:
404,168,32613,6,0,B|372:156|372:156|360:164|360:164|332:148|332:148|316:160|316:160|276:132|276:132|272:152|272:152|212:92|128:116,1,320,0|4,2:0|1:0,0:0:0:0:
256,192,43492,69,4,2:0:0:0:
256,192,54042,12,0,55196,2:0:0:0:
392,316,55360,6,2,P|404:236|400:160,1,155.999992858887,4|0,0:0|0:0,0:0:0:0:
400,161,55690,1,10,0:0:0:0:
260,52,55855,2,2,P|259:128|268:212,1,155.999992858887,2|0,0:0|0:0,0:0:0:0:
204,288,56185,1,10,0:0:0:0:
24,240,56349,1,2,0:0:0:0:
204,288,56514,1,2,0:0:0:0:
312,272,56679,2,2,B|380:240|380:240|512:252,1,207.999990478516,4|10,0:0|0:0,0:0:0:0:
400,160,57174,1,0,0:0:0:0:
312,56,57338,54,0,L|272:64,1,25.9999988098145,8|0,0:0|0:0,0:0:0:0:
72,104,57503,2,0,L|100:116,1,25.9999988098145,8|0,0:0|0:0,0:0:0:0:
288,172,57668,2,0,L|263:179,1,25.9999988098145,8|0,0:0|0:0,0:0:0:0:
132,272,57833,2,0,L|155:282,1,25.9999988098145,8|0,0:0|0:0,0:0:0:0:
372,316,57998,22,2,P|412:240|388:124,1,207.999990478516,4|10,0:0|0:0,0:0:0:0:
288,172,58492,2,2,L|128:184,1,155.999992858887,2|0,0:0|0:0,0:0:0:0:
120,196,58822,1,10,0:0:0:0:
208,64,58987,2,2,L|316:56,1,103.999995239258,0|2,0:0|0:0,0:0:0:0:
72,104,59316,1,4,0:0:0:0:
216,72,59481,2,2,L|324:64,1,103.999995239258,0|10,0:0|0:0,0:0:0:0:
420,112,59811,1,0,0:0:0:0:
408,240,59976,38,0,L|436:248,4,25.9999988098145
188,284,60305,1,8,0:0:0:0:
284,200,60470,1,8,0:0:0:0:
80,228,60635,6,2,P|60:172|76:76,1,155.999992858887,4|0,0:0|0:0,0:0:0:0:
88,68,60965,1,10,0:0:0:0:
208,104,61130,2,2,P|280:100|364:96,1,155.999992858887,2|0,0:0|0:0,0:0:0:0:
376,108,61459,1,10,0:0:0:0:
492,144,61624,1,2,0:0:0:0:
456,268,61789,1,2,0:0:0:0:
336,224,61954,2,2,P|320:272|320:328,1,103.999995239258,4|2,0:0|0:0,0:0:0:0:
220,208,62284,2,2,L|208:104,1,103.999995239258,10|0,0:0|0:0,0:0:0:0:
200,312,62613,54,2,P|124:288|44:300,1,160,2|0,0:0|0:0,0:0:0:0:
220,208,62860,2,2,P|296:232|376:220,1,160,8|0,0:0|0:0,0:0:0:0:
492,144,63108,2,2,L|496:64,1,80,8|0,0:0|0:0,0:0:0:0:
368,144,63273,22,2,L|384:300,1,155.999992858887,4|0,0:0|0:0,0:0:0:0:
384,300,63602,1,10,0:0:0:0:
276,340,63767,2,2,B|216:312|216:312|76:332,1,207.999990478516,2|10,0:0|0:0,0:0:0:0:
112,228,64262,2,2,L|9:243,1,103.999995239258,0|2,0:0|0:0,0:0:0:0:
220,208,64591,1,4,0:0:0:0:
344,240,64756,1,2,0:0:0:0:
344,240,64921,54,2,P|360:164|344:84,1,160,10|4,0:0|0:0,0:0:0:0:
328,88,65333,53,0,0:0:0:0:
312,92,65415,1,0,0:0:0:0:
296,96,65498,1,0,0:0:0:0:
280,100,65580,1,0,0:0:0:0:
264,104,65663,1,0,0:0:0:0:
248,108,65745,1,0,0:0:0:0:
232,112,65827,1,0,0:0:0:0:
216,116,65910,38,0,L|112:108,1,80,4|0,0:0|0:0,0:0:0:0:
136,108,66240,1,8,0:0:0:0:
16,200,66404,1,0,0:0:0:0:
32,208,66487,1,0,0:0:0:0:
44,216,66569,2,0,L|56:300,1,80
260,196,66899,2,0,L|248:280,1,80,2|4,2:0|2:0,0:0:0:0:
428,344,67229,6,0,P|424:292|432:224,1,120
444,216,67558,1,0,0:0:0:0:
456,204,67641,1,0,0:0:0:0:
464,192,67723,1,0,0:0:0:0:
468,176,67805,1,0,0:0:0:0:
468,160,67888,2,0,L|476:56,1,80
332,128,68218,2,0,L|240:116,1,80,2|4,2:0|2:0,0:0:0:0:
252,117,68547,53,0,0:0:0:0:
112,160,68712,1,0,0:0:0:0:
252,117,68877,1,8,0:0:0:0:
112,160,69042,1,0,0:0:0:0:
100,168,69124,1,0,0:0:0:0:
88,176,69207,2,0,P|80:224|92:268,1,80
240,360,69536,2,0,P|207:323|165:305,1,80,2|4,2:0|2:0,0:0:0:0:
12,380,69866,2,0,P|56:376|84:352,1,80
84,352,70196,1,0,0:0:0:0:
224,228,70360,1,0,0:0:0:0:
240,224,70443,1,0,0:0:0:0:
256,220,70525,2,0,L|268:128,1,80
392,104,70855,2,0,L|381:183,1,80,2|4,2:0|2:0,0:0:0:0:
308,40,71185,6,0,L|204:28,1,80,4|0,0:0|0:0,0:0:0:0:
228,30,71514,1,0,0:0:0:0:
92,84,71679,1,0,0:0:0:0:
92,84,71762,1,0,0:0:0:0:
92,84,71844,1,0,0:0:0:0:
68,184,72009,1,0,0:0:0:0:
172,152,72174,1,2,2:0:0:0:
92,84,72338,1,4,2:0:0:0:
68,184,72503,54,0,L|64:272,1,80
64,264,72833,1,0,0:0:0:0:
176,352,72998,1,0,0:0:0:0:
192,348,73080,1,0,0:0:0:0:
208,344,73163,1,0,0:0:0:0:
308,304,73327,1,0,0:0:0:0:
228,248,73492,1,2,2:0:0:0:
208,344,73657,1,4,2:0:0:0:
308,304,73822,6,0,L|396:300,1,80
328,200,74152,2,0,L|416:196,1,80,8|0,0:0|0:0,0:0:0:0:
500,96,74481,1,0,0:0:0:0:
384,104,74646,1,0,0:0:0:0:
368,104,74729,1,0,0:0:0:0:
352,104,74811,1,0,0:0:0:0:
336,104,74893,1,0,0:0:0:0:
320,104,74976,1,2,2:0:0:0:
304,104,75058,1,0,0:0:0:0:
284,104,75141,6,2,L|180:84,1,103.999995239258,0|0,0:0|0:0,0:0:0:0:
36,108,75470,1,0,0:0:0:0:
124,212,75635,2,2,B|192:212|192:212|248:200|248:200|332:200,1,207.999990478516,0|2,0:0|2:0,0:0:0:0:
332,200,76130,1,0,0:0:0:0:
332,200,76295,1,2,2:0:0:0:
456,252,76459,38,2,L|448:348,1,90.0000034332277,0|0,0:0|2:0,0:0:0:0:
448,341,76789,38,2,B|400:316|400:316|272:336,1,180.000006866455,4|0,0:0|0:0,0:0:0:0:
168,260,77448,2,0,L|228:252,1,60.0000022888184,2|8,2:0|0:0,0:0:0:0:
60,320,77778,1,0,0:0:0:0:
60,320,78108,2,0,P|40:264|56:144,1,180.000006866455,8|0,0:0|0:0,0:0:0:0:
172,48,78767,6,0,L|108:56,1,60.0000022888184,2|8,2:0|0:0,0:0:0:0:
256,112,79097,1,0,0:0:0:0:
256,112,79426,2,0,B|328:108|328:108|360:124|360:124|432:120,1,180.000006866455,8|0,0:0|0:0,0:0:0:0:
392,224,80086,53,2,2:0:0:0:
500,212,80251,1,8,0:0:0:0:
292,236,80415,2,0,B|231:231|231:231|172:232,1,120.000004577637,0|8,0:0|0:0,0:0:0:0:
72,264,80910,1,0,0:0:0:0:
56,264,80992,1,0,0:0:0:0:
44,264,81075,54,0,P|32:204|36:124,1,140,4|0,0:0|2:0,0:0:0:0:
140,56,81734,6,2,L|296:64,1,155.999992858887,4|0,0:0|0:0,0:0:0:0:
308,76,82064,1,10,0:0:0:0:
400,260,82229,2,2,L|244:252,1,155.999992858887,2|0,0:0|0:0,0:0:0:0:
232,264,82559,1,10,0:0:0:0:
316,164,82723,2,2,L|420:170,1,103.999995239258,0|2,0:0|0:0,0:0:0:0:
208,156,83053,1,4,0:0:0:0:
56,188,83218,1,2,0:0:0:0:
208,156,83382,2,2,P|220:236|204:312,1,155.999992858887,10|0,0:0|0:0,0:0:0:0:
308,336,83712,54,0,L|336:332,1,25.9999988098145,8|0,0:0|0:0,0:0:0:0:
468,252,83877,2,0,L|442:246,1,25.9999988098145,8|0,0:0|0:0,0:0:0:0:
316,164,84042,2,0,L|341:157,1,25.9999988098145,8|0,0:0|0:0,0:0:0:0:
464,68,84207,2,0,L|438:64,1,25.9999988098145,8|0,0:0|0:0,0:0:0:0:
328,40,84371,22,2,B|256:60|256:60|172:48,1,155.999992858887,4|0,0:0|0:0,0:0:0:0:
64,104,84701,1,10,0:0:0:0:
64,104,84866,2,2,P|52:204|80:312,1,207.999990478516,2|10,0:0|0:0,0:0:0:0:
284,324,85360,2,2,B|232:312|232:312|180:324,1,103.999995239258,0|2,0:0|0:0,0:0:0:0:
284,224,85690,2,0,B|336:236|336:236|388:224,1,103.999995239258,4|2,0:0|0:0,0:0:0:0:
468,272,86020,2,2,P|480:216|464:172,1,103.999995239258,10|0,0:0|0:0,0:0:0:0:
380,76,86349,38,0,L|392:52,4,25.9999988098145
252,84,86679,1,8,0:0:0:0:
124,92,86844,1,8,0:0:0:0:
44,192,87009,6,2,L|56:284,1,90.0000034332277,0|0,0:0|2:0,0:0:0:0:
168,348,87338,22,0,B|240:336|240:336|272:344|272:344|348:332,1,180.000006866455,4|0,0:0|0:0,0:0:0:0:
468,272,87998,2,0,L|480:192,1,60.0000022888184,2|8,2:0|0:0,0:0:0:0:
344,248,88327,2,0,L|276:260,1,60.0000022888184,0|0,0:0|2:0,0:0:0:0:
168,348,88657,2,0,P|132:296|152:184,1,180.000006866455,8|0,0:0|0:0,0:0:0:0:
276,88,89316,5,2,2:0:0:0:
164,76,89481,1,8,0:0:0:0:
150,187,89646,1,0,0:0:0:0:
264,200,89811,1,0,2:0:0:0:
264,200,89976,2,0,B|384:176|316:224|460:196,1,180.000006866455,8|0,0:0|0:0,0:0:0:0:
441,199,90635,54,0,L|452:120,1,60.0000022888184,2|8,2:0|0:0,0:0:0:0:
264,200,90965,2,0,L|271:259,1,60.0000022888184,0|0,0:0|2:0,0:0:0:0:
376,348,91295,1,8,0:0:0:0:
156,324,91459,1,0,0:0:0:0:
144,328,91542,1,0,0:0:0:0:
132,332,91624,22,0,B|116:288|116:288|92:264|92:264|76:204,1,140,4|0,0:0|2:0,0:0:0:0:
104,44,92284,54,2,B|120:96|120:96|152:128|152:128|160:208,1,155.999992858887,4|0,0:0|0:0,0:0:0:0:
168,192,92613,1,10,0:0:0:0:
268,312,92778,2,2,B|292:244|292:244|360:192,1,155.999992858887,2|0,0:0|2:0,0:0:0:0:
360,180,93108,1,10,0:0:0:0:
484,188,93273,1,2,2:0:0:0:
432,72,93437,1,2,0:0:0:0:
360,180,93602,2,0,L|240:164,1,103.999995239258,8|2,0:0|0:0,0:0:0:0:
408,304,93932,2,0,L|528:288,1,103.999995239258,2|0,0:0|0:0,0:0:0:0:
268,312,94262,6,2,P|208:296|104:332,1,155.999992858887,10|0,0:0|2:0,0:0:0:0:
48,224,94509,2,2,L|36:56,1,160,10|0,0:0|2:0,0:0:0:0:
180,120,94756,2,2,L|192:288,1,160,10|8,0:0|0:0,0:0:0:0:
191,279,95086,37,0,0:0:0:0:
336,260,95251,1,10,0:0:0:0:
476,232,95415,2,2,P|488:160|472:72,1,155.999992858887,2|0,0:0|0:0,0:0:0:0:
364,92,95745,2,0,B|312:88|312:88|272:56,1,103.999995239258,2|2,0:0|2:0,0:0:0:0:
88,84,96075,2,2,B|140:88|140:88|180:120,1,103.999995239258,2|0,0:0|0:0,0:0:0:0:
364,92,96404,1,2,0:0:0:0:
180,120,96569,1,0,0:0:0:0:
364,92,96734,1,8,0:0:0:0:
392,280,96899,6,0,L|416:272,4,25.9999988098145
372,284,97146,1,0,0:0:0:0:
352,280,97229,1,0,0:0:0:0:
332,276,97311,1,0,0:0:0:0:
312,280,97393,1,2,2:0:0:0:
292,284,97476,1,0,0:0:0:0:
272,288,97558,5,4,0:0:0:0:
272,280,108108,6,0,P|160:236|44:256,2,240.000009155274,0|0|0,0:0|0:0|0:0,0:0:0:0:
276,284,110086,1,0,2:0:0:0:
380,256,110415,1,0,0:0:0:0:
188,320,110745,5,0,0:0:0:0:
48,272,111075,1,0,0:0:0:0:
100,136,111404,1,0,0:0:0:0:
240,184,111734,1,0,0:0:0:0:
356,268,112064,54,2,P|384:184|352:100,1,180.000006866455,0|0,0:0|0:0,0:0:0:0:
353,101,112723,2,2,P|404:96|472:88,1,120.000004577637,0|2,0:0|0:0,0:0:0:0:
272,48,113218,1,2,0:0:0:0:
232,136,113382,6,2,P|148:108|60:128,1,180.000006866455,2|0,0:0|0:0,0:0:0:0:
172,256,114042,2,2,P|256:284|344:264,1,180.000006866455,2|0,0:0|0:0,0:0:0:0:
448,312,114701,2,2,P|456:193|464:68,1,240.000009155274,2|0,0:0|0:0,0:0:0:0:
463,72,115608,1,0,2:0:0:0:
463,72,115690,1,0,0:0:0:0:
320,60,116020,53,0,0:0:0:0:
212,120,116349,1,0,0:0:0:0:
320,184,116679,1,0,0:0:0:0:
320,60,117009,1,0,0:0:0:0:
80,156,117338,54,0,P|80:236|92:316,1,160,4|4,0:0|2:0,0:0:0:0:
256,192,118080,12,4,118657,0:0:0:0:
212,88,118987,38,0,L|296:84,1,80,0|0,2:0|0:0,0:0:0:0:
384,144,119316,2,0,P|392:206|396:264,1,120
412,272,119646,1,0,0:0:0:0:
284,364,119811,2,0,P|275:301|272:244,1,120
256,235,120141,1,0,0:0:0:0:
140,216,120305,1,0,0:0:0:0:
160,104,120470,1,0,0:0:0:0:
268,116,120635,1,12,0:0:0:0:
272,112,120965,6,0,L|356:104,1,80
140,216,121295,2,0,P|72:212|4:216,1,120
20,200,121624,2,0,L|4:112,1,80
140,216,121954,54,0,P|136:272|160:352,1,120
140,344,122284,1,0,0:0:0:0:
284,228,122448,2,0,P|287:172|263:92,1,120
283,100,122778,1,0,0:0:0:0:
380,16,122943,1,0,0:0:0:0:
288,16,123108,1,0,0:0:0:0:
376,108,123273,1,12,0:0:0:0:
380,112,123602,5,0,0:0:0:0:
432,208,123767,1,0,0:0:0:0:
396,316,123932,2,0,P|348:312|260:328,1,120
184,344,124262,2,0,L|88:324,1,80
60,180,124591,54,0,B|92:228|92:228|160:244,1,120
164,252,124921,1,0,0:0:0:0:
128,128,125086,2,0,B|96:80|96:80|28:64,1,120
24,56,125416,1,0,0:0:0:0:
112,44,125580,1,0,0:0:0:0:
200,32,125745,1,0,0:0:0:0:
288,20,125910,1,12,0:0:0:0:
292,24,126240,6,0,L|380:20,1,80
476,92,126569,2,0,P|476:148|452:236,1,120
448,216,126899,1,0,0:0:0:0:
376,320,127064,1,0,0:0:0:0:
360,316,127146,1,0,0:0:0:0:
344,312,127229,1,12,0:0:0:0:
216,236,127393,1,0,0:0:0:0:
320,204,127558,1,0,0:0:0:0:
244,336,127723,1,0,0:0:0:0:
216,236,127888,5,0,0:0:0:0:
184,124,128053,1,0,0:0:0:0:
176,116,128135,1,0,0:0:0:0:
288,96,128300,1,0,0:0:0:0:
288,96,128382,1,0,0:0:0:0:
288,96,128465,2,0,L|320:88,2,20,0|0|12,0:0|0:0|0:0,0:0:0:0:
32,200,128877,38,0,P|32:244|48:284,1,80
164,336,129207,38,0,P|240:320|328:324,1,160,4|0,0:0|0:0,0:0:0:0:
440,344,129701,1,0,0:0:0:0:
400,232,129866,2,0,L|408:112,1,120,8|8,0:0|0:0,0:0:0:0:
372,44,130196,1,0,0:0:0:0:
288,272,130360,2,0,L|296:152,1,120,8|8,0:0|0:0,0:0:0:0:
260,80,130690,1,0,0:0:0:0:
40,144,130855,2,0,P|99:136|155:160,1,120,8|0,0:0|0:0,0:0:0:0:
240,212,131185,2,0,L|232:336,1,120.000004577637,12|2,0:0|2:0,0:0:0:0:
140,356,131679,1,0,0:0:0:0:
328,308,131844,6,0,B|376:292|376:292|484:304,1,160,0|0,0:0|0:0,0:0:0:0:
336,204,132338,1,0,0:0:0:0:
240,212,132503,2,0,L|120:228,1,120,8|8,0:0|0:0,0:0:0:0:
104,244,132833,1,0,0:0:0:0:
296,92,132998,2,0,L|176:108,1,120,8|8,0:0|0:0,0:0:0:0:
160,124,133328,1,0,0:0:0:0:
0,52,133492,2,0,L|80:64,1,80,8|0,0:0|2:0,0:0:0:0:
296,92,133822,2,0,B|344:72|344:72|416:76,1,120.000004577637,12|2,0:0|2:0,0:0:0:0:
488,192,134316,1,0,0:0:0:0:
412,304,134481,53,0,0:0:0:0:
412,304,134811,2,0,L|320:312,1,80,0|0,2:0|0:0,0:0:0:0:
208,288,135141,2,0,P|212:224|200:168,1,120,8|8,0:0|0:0,0:0:0:0:
200,169,135470,1,0,0:0:0:0:
64,72,135635,2,0,P|60:136|72:192,1,120,8|8,0:0|0:0,0:0:0:0:
71,191,135964,1,0,0:0:0:0:
184,52,136130,1,8,0:0:0:0:
300,100,136295,1,0,0:0:0:0:
316,108,136377,1,0,0:0:0:0:
332,116,136459,2,0,L|456:108,1,120.000004577637,12|2,0:0|2:0,0:0:0:0:
452,308,137119,5,0,0:0:0:0:
336,260,137284,1,0,0:0:0:0:
312,260,137366,1,0,0:0:0:0:
288,260,137448,1,8,0:0:0:0:
168,300,137613,1,0,0:0:0:0:
44,264,137778,2,0,P|28:208|36:144,2,120.000004577637,12|2|4,0:0|2:0|0:0,0:0:0:0:
256,192,138520,12,0,139591,2:0:0:0:
72,304,139756,38,2,B|128:312|128:312|192:336,1,120,4|0,0:0|0:0,0:0:0:0:
312,332,140415,38,0,L|320:292,2,40
252,240,140663,2,0,P|244:168|240:116,1,120
352,28,141075,2,0,P|352:72|340:168,1,120
356,160,141404,1,0,0:0:0:0:
368,172,141487,1,0,0:0:0:0:
380,184,141569,1,0,0:0:0:0:
252,240,141734,6,2,L|168:232,1,80,4|2,0:0|0:0,0:0:0:0:
72,176,142064,2,2,P|52:132|80:48,1,120,2|0,0:0|2:0,0:0:0:0:
180,52,142393,53,4,0:0:0:0:
272,104,142558,2,2,B|320:96|320:96|380:108|432:88,1,160,0|4,0:0|0:0,0:0:0:0:
368,240,143053,6,2,B|312:224|312:224|252:240,1,120.000004577637,0|4,0:0|0:0,0:0:0:0:
132,292,143547,54,2,B|120:240|120:240|140:192|128:128,1,160,0|4,0:0|0:0,0:0:0:0:
24,40,144042,6,2,L|28:140,1,90.0000034332277,2|0,0:0|0:0,0:0:0:0:
128,136,144371,6,2,P|208:128|292:120,2,155.999992858887
240,224,145031,38,2,B|304:216|304:216|348:220|348:220|420:212,1,180.000006866455,4|0,0:0|0:0,0:0:0:0:
416,340,145690,6,0,L|472:356,2,40
296,328,145937,2,0,L|176:344,1,120
92,236,146349,2,0,P|76:196|80:108,1,120
64,108,146679,1,0,0:0:0:0:
56,96,146762,1,0,0:0:0:0:
48,84,146844,1,0,0:0:0:0:
200,152,147009,54,2,L|284:128,1,80,4|2,0:0|0:0,0:0:0:0:
412,40,147338,2,2,B|448:80|448:80|448:172,1,120,0|0,0:0|2:0,0:0:0:0:
508,220,147668,5,4,0:0:0:0:
396,296,147833,2,2,B|336:288|336:288|288:304|228:284,1,160,0|4,0:0|0:0,0:0:0:0:
140,184,148327,54,2,B|196:160|196:160|272:168,1,120.000004577637,0|4,0:0|0:0,0:0:0:0:
400,156,148822,6,2,P|416:84|408:-8,1,160,2|4,0:0|0:0,0:0:0:0:
288,60,149316,2,2,L|192:48,1,90.0000034332277,2|0,0:0|0:0,0:0:0:0:
188,168,149646,6,2,P|124:160|12:168,2,155.999992858887
192,164,150305,37,4,0:0:0:0:
256,192,150388,12,4,151624,1:0:0:0:
