osu file format v13

[General]
AudioFilename: --13 [Techno-Electronic----] -- Echoes- --------.mp3
AudioLeadIn: 0
PreviewTime: -1
Countdown: 1
SampleSet: Normal
StackLeniency: 0.7
Mode: 0
LetterboxInBreaks: 1
WidescreenStoryboard: 0

[Editor]
Bookmarks: 76880,101834,143803,155671,199188,209696
DistanceSpacing: 1.2
BeatDivisor: 8
GridSize: 4
TimelineZoom: 1.3

[Metadata]
Title:Echoes
TitleUnicode:Echoes
Artist:Jericho
ArtistUnicode:ジェリコの法則
Creator:Br00tal
Version:Insane
Source:
Tags:
BeatmapID:571309
BeatmapSetID:248382

[Difficulty]
HPDrainRate:7
CircleSize:5
OverallDifficulty:7
ApproachRate:7
SliderMultiplier:1.4
SliderTickRate:1

[Events]
//Background and Video events
0,0,"bg.jpg",0,0
//Break Periods
2,23344,26859
2,37024,42683
2,64882,69057
2,101805,111255
2,134113,134991
//Storyboard Layer 0 (Background)
//Storyboard Layer 1 (Fail)
//Storyboard Layer 2 (Pass)
//Storyboard Layer 3 (Foreground)
//Storyboard Sound Samples

[TimingPoints]
1385.97761745802,329.67032967033,4,1,0,100,1,0
230859,-100,4,1,0,100,0,0

[Colours]
Combo1 : 0,0,160
Combo2 : 0,64,64
Combo3 : 128,0,255
Combo4 : 128,0,128
Combo5 : 0,128,64

[HitObjects]
132,240,1385,5,0,0:0:0:0:
392,324,1880,1,0,0:0:0:0:
316,84,2333,1,8,0:0:0:0:
404,156,2539,1,0,0:0:0:0:
356,232,2704,1,8,0:0:0:0:
244,216,2910,1,0,0:0:0:0:
132,140,3157,2,0,B|156:84|156:88|36:88|36:88|36:120|40:176|80:208|128:228|176:220,1,367.5
392,64,4517,1,0,0:0:0:0:
144,28,4971,1,8,0:0:0:0:
216,80,5135,1,0,0:0:0:0:
164,156,5300,1,8,0:0:0:0:
236,272,5548,1,8,0:0:0:0:
360,212,5795,1,8,0:0:0:0:
260,128,5960,2,0,B|276:56|280:48|280:48|364:112|364:112|392:36|392:36|424:40,1,297.5
452,224,7155,1,8,0:0:0:0:
172,312,7649,1,8,0:0:0:0:
132,256,7814,1,0,0:0:0:0:
56,208,7979,1,8,0:0:0:0:
132,96,8226,1,8,0:0:0:0:
260,44,8473,1,0,0:0:0:0:
448,116,9298,5,0,0:0:0:0:
396,336,9710,1,8,0:0:0:0:
100,328,10245,1,0,0:0:0:0:
84,240,10410,1,0,0:0:0:0:
172,264,10575,1,0,0:0:0:0:
168,128,10822,1,0,0:0:0:0:
84,236,11070,1,0,0:0:0:0:
172,264,11234,1,0,0:0:0:0:
212,268,11935,5,0,0:0:0:0:
211,114,12265,1,0,0:0:0:0:
344,192,12594,1,0,0:0:0:0:
179,263,12924,1,0,0:0:0:0:
232,89,13254,1,0,0:0:0:0:
356,222,13583,1,0,0:0:0:0:
404,48,13913,1,0,0:0:0:0:
268,132,14201,1,0,0:0:0:0:
184,168,14366,1,0,0:0:0:0:
116,108,14531,1,8,0:0:0:0:
296,204,14902,5,0,0:0:0:0:
296,63,15232,1,0,0:0:0:0:
417,134,15561,1,0,0:0:0:0:
280,256,15891,1,0,0:0:0:0:
280,87,16221,1,0,0:0:0:0:
425,172,16550,1,0,0:0:0:0:
284,288,16880,1,0,0:0:0:0:
285,120,17210,1,0,0:0:0:0:
430,204,17539,1,0,0:0:0:0:
264,276,17869,1,0,0:0:0:0:
265,108,18199,1,0,0:0:0:0:
410,193,18528,1,0,0:0:0:0:
240,260,18858,1,0,0:0:0:0:
241,92,19188,1,0,0:0:0:0:
386,177,19517,1,0,0:0:0:0:
204,188,19847,5,0,0:0:0:0:
150,114,20012,1,0,0:0:0:0:
204,40,20177,1,0,0:0:0:0:
290,68,20342,1,0,0:0:0:0:
290,159,20506,1,0,0:0:0:0:
200,172,20671,1,0,0:0:0:0:
146,98,20836,1,0,0:0:0:0:
200,24,21001,1,0,0:0:0:0:
286,52,21166,1,0,0:0:0:0:
286,143,21331,1,0,0:0:0:0:
216,200,21495,1,0,0:0:0:0:
162,126,21660,1,0,0:0:0:0:
216,52,21825,1,0,0:0:0:0:
302,80,21990,1,0,0:0:0:0:
302,171,22155,1,0,0:0:0:0:
256,192,22320,12,0,23144,0:0:0:0:
52,56,27759,6,0,B|204:80|164:176|164:176|240:112|240:108|356:188|328:240|236:268,1,490
224,176,29078,2,0,B|184:112|184:112|268:56|300:136|284:220|284:220|364:164|364:164|420:112|424:72,1,490
468,156,30396,2,0,B|464:224|404:216|404:216|356:256|356:256|348:344|252:312|252:312|200:248|200:248|144:244|116:304,1,490
72,248,31674,2,0,B|116:192|116:192|80:136|80:136|176:124|176:124|216:184|216:184|272:120|272:120|200:32|200:32|184:36,1,507.5
112,64,33034,2,0,P|112:144|412:140,1,490
480,200,34353,2,0,P|336:192|424:232,1,490,0|0,0:0|0:0,0:0:0:0:
412,140,35671,2,0,P|268:148|356:108,1,490,0|0,0:0|0:0,0:0:0:0:
140,116,43583,5,8,0:0:0:0:
160,256,43913,2,0,L|216:120,1,140
88,188,44572,1,0,0:0:0:0:
228,320,45026,1,8,0:0:0:0:
420,200,45561,2,0,L|364:260,1,70
368,152,45891,2,0,L|416:96,1,70
312,108,46221,2,0,L|264:168,2,70,0|0|0,0:0|0:0|0:0,0:0:0:0:
316,232,46839,1,8,0:0:0:0:
240,92,47210,1,0,0:0:0:0:
48,96,47663,1,0,0:0:0:0:
16,176,47869,1,8,0:0:0:0:
76,216,48034,1,0,0:0:0:0:
60,280,48199,1,8,0:0:0:0:
120,316,48363,1,0,0:0:0:0:
176,272,48528,1,8,0:0:0:0:
140,212,48693,1,0,0:0:0:0:
164,148,48858,2,0,P|196:72|224:76,1,122.5
304,188,49476,1,0,0:0:0:0:
400,312,49847,2,0,P|376:248|444:144,1,192.5
216,84,50836,1,8,0:0:0:0:
216,84,51001,2,0,L|144:124,1,70
188,180,51331,2,0,L|260:136,1,70
448,76,51990,1,8,0:0:0:0:
312,40,52320,1,0,0:0:0:0:
340,176,52649,1,0,0:0:0:0:
212,120,52979,1,0,0:0:0:0:
148,148,53144,1,0,0:0:0:0:
120,212,53309,1,0,0:0:0:0:
144,276,53473,1,0,0:0:0:0:
212,288,53638,1,8,0:0:0:0:
276,260,53803,1,0,0:0:0:0:
312,320,53968,1,8,0:0:0:0:
372,288,54133,5,8,0:0:0:0:
368,128,54463,2,0,L|312:264,1,140
280,120,55122,1,0,0:0:0:0:
88,140,55576,1,8,0:0:0:0:
312,180,56111,2,0,L|368:120,1,70
360,220,56441,2,0,L|312:276,1,70
228,284,56771,2,0,L|276:228,2,70,0|0|0,0:0|0:0|0:0,0:0:0:0:
176,172,57389,1,8,0:0:0:0:
132,20,57760,1,0,0:0:0:0:
324,28,58213,1,0,0:0:0:0:
412,40,58419,1,8,0:0:0:0:
460,92,58584,1,0,0:0:0:0:
464,160,58749,1,8,0:0:0:0:
412,204,58913,1,0,0:0:0:0:
356,164,59078,1,8,0:0:0:0:
316,108,59243,1,0,0:0:0:0:
256,140,59408,2,0,P|224:216|196:212,1,122.5
328,268,60026,1,0,0:0:0:0:
200,176,60397,2,0,P|136:244|152:352,1,210
36,176,61385,1,8,0:0:0:0:
36,176,61551,2,0,L|108:136,1,70
92,72,61881,2,0,L|20:112,1,70
240,112,62540,1,8,0:0:0:0:
376,140,62870,1,0,0:0:0:0:
424,272,63199,2,0,B|464:308|472:308|500:268|476:216|476:216|444:208|444:208|392:212|348:232|348:280|360:304|360:304|404:352|404:352|300:312|308:368|272:316|268:368|240:312|240:368|216:332|208:292|200:300|184:340|180:368|180:360,1,630
64,136,69957,6,0,P|24:92|64:140,1,280
140,116,70781,1,0,0:0:0:0:
220,144,70946,1,0,0:0:0:0:
276,204,71111,1,0,0:0:0:0:
228,272,71276,6,0,P|246:328|232:264,1,280
160,220,72100,1,0,0:0:0:0:
168,136,72265,1,0,0:0:0:0:
248,112,72429,1,0,0:0:0:0:
320,156,72594,6,0,P|378:167|316:158,1,280
208,172,73418,1,0,0:0:0:0:
228,92,73583,1,0,0:0:0:0:
308,68,73748,1,0,0:0:0:0:
384,104,73913,2,0,B|352:172|352:172|384:240,1,140
464,228,74407,1,0,0:0:0:0:
404,288,74572,1,0,0:0:0:0:
324,324,74737,1,0,0:0:0:0:
240,308,74902,2,0,B|176:268|176:268|236:224,1,140
256,192,75232,12,0,76550,0:0:0:0:
256,192,76550,12,0,77868,0:0:0:0:
256,192,77869,12,0,79187,0:0:0:0:
312,152,79435,5,0,0:0:0:0:
188,148,79641,1,0,0:0:0:0:
144,244,79847,1,0,0:0:0:0:
160,256,80506,2,0,L|216:120,1,140,0|0,0:0|0:0,0:0:0:0:
44,128,81166,5,8,0:0:0:0:
40,280,81495,1,0,0:0:0:0:
168,112,81949,1,8,0:0:0:0:
316,236,82484,2,0,L|260:296,1,70
316,236,82814,2,0,L|252:184,1,70
316,236,83144,2,0,L|400:236,2,70,0|0|0,0:0|0:0|0:0,0:0:0:0:
184,216,83762,1,8,0:0:0:0:
332,124,84133,1,0,0:0:0:0:
132,56,84586,1,0,0:0:0:0:
40,88,84792,1,8,0:0:0:0:
88,148,84957,1,0,0:0:0:0:
164,132,85122,1,8,0:0:0:0:
220,76,85286,1,0,0:0:0:0:
288,36,85451,1,8,0:0:0:0:
364,36,85616,1,0,0:0:0:0:
328,104,85781,2,0,P|360:28|388:32,1,122.5
252,112,86399,1,0,0:0:0:0:
92,52,86770,2,0,P|68:116|136:220,1,192.5
216,84,87759,1,8,0:0:0:0:
216,84,87924,2,0,L|144:124,1,70
188,180,88254,2,0,L|260:136,1,70
448,76,88913,1,8,0:0:0:0:
312,40,89243,1,0,0:0:0:0:
340,176,89572,1,0,0:0:0:0:
208,256,89902,1,0,0:0:0:0:
133,276,90067,1,0,0:0:0:0:
66,238,90232,1,0,0:0:0:0:
45,164,90396,1,0,0:0:0:0:
83,97,90561,1,0,0:0:0:0:
157,76,90726,1,0,0:0:0:0:
224,115,90891,1,0,0:0:0:0:
245,189,91056,1,0,0:0:0:0:
396,160,91386,2,0,L|340:296,1,140
320,136,92045,1,0,0:0:0:0:
116,80,92499,1,8,0:0:0:0:
264,324,93034,2,0,L|320:264,1,70
360,220,93364,2,0,L|312:276,1,70
256,228,93694,2,0,L|316:276,2,70,0|0|0,0:0|0:0|0:0,0:0:0:0:
136,292,94312,1,8,0:0:0:0:
60,136,94683,1,0,0:0:0:0:
181,192,95177,1,0,0:0:0:0:
256,117,95342,1,0,0:0:0:0:
330,192,95507,1,0,0:0:0:0:
255,266,95671,1,0,0:0:0:0:
203,139,95836,1,0,0:0:0:0:
308,139,96001,1,0,0:0:0:0:
308,244,96166,1,0,0:0:0:0:
203,244,96331,2,0,L|144:304,2,70,0|0|0,0:0|0:0|0:0,0:0:0:0:
256,192,96949,1,0,0:0:0:0:
200,176,97278,2,0,P|136:244|152:352,1,210
36,176,98308,1,8,0:0:0:0:
36,176,98474,2,0,L|108:136,1,70
92,72,98804,2,0,L|20:112,1,70
240,112,99463,1,8,0:0:0:0:
376,140,99793,1,0,0:0:0:0:
424,272,100122,2,0,B|464:308|472:308|500:268|476:216|476:216|444:208|444:208|392:212|348:232|348:280|360:304|360:304|404:352|404:352|300:312|308:368|272:316|268:368|240:312|240:368|216:332|208:292|200:300|184:340|180:368|180:360,1,630
60,204,112155,5,0,0:0:0:0:
60,120,112320,1,8,0:0:0:0:
124,68,112484,1,0,0:0:0:0:
208,52,112649,1,8,0:0:0:0:
460,84,113144,1,0,0:0:0:0:
392,132,113309,1,8,0:0:0:0:
380,216,113473,1,0,0:0:0:0:
280,184,113679,1,8,0:0:0:0:
176,256,113927,1,0,0:0:0:0:
500,24,114751,1,8,0:0:0:0:
396,44,114957,1,0,0:0:0:0:
276,160,115287,1,8,0:0:0:0:
4,64,115699,1,0,0:0:0:0:
16,148,115863,1,8,0:0:0:0:
104,92,116028,1,0,0:0:0:0:
176,164,116276,1,8,0:0:0:0:
276,252,116564,1,0,0:0:0:0:
192,316,116729,1,0,0:0:0:0:
484,184,117347,1,8,0:0:0:0:
424,268,117553,1,0,0:0:0:0:
352,140,117883,1,8,0:0:0:0:
120,44,118336,1,0,0:0:0:0:
60,104,118501,1,8,0:0:0:0:
100,200,118707,1,0,0:0:0:0:
208,136,118954,1,8,0:0:0:0:
192,260,119201,1,0,0:0:0:0:
472,336,119984,1,8,0:0:0:0:
436,236,120190,1,0,0:0:0:0:
392,72,120520,1,8,0:0:0:0:
264,264,120973,1,0,0:0:0:0:
184,232,121138,1,8,0:0:0:0:
148,156,121303,1,0,0:0:0:0:
176,32,121592,1,0,0:0:0:0:
64,92,121880,1,0,0:0:0:0:
148,92,122045,1,8,0:0:0:0:
139,197,122704,1,0,0:0:0:0:
272,94,123034,1,0,0:0:0:0:
295,260,123363,1,0,0:0:0:0:
160,156,123693,1,0,0:0:0:0:
323,118,124023,1,0,0:0:0:0:
274,278,124353,1,0,0:0:0:0:
108,284,124682,1,0,0:0:0:0:
36,132,125012,1,8,0:0:0:0:
92,68,125177,1,8,0:0:0:0:
168,36,125342,1,8,0:0:0:0:
248,184,125671,1,0,0:0:0:0:
411,146,126001,1,0,0:0:0:0:
362,306,126331,1,0,0:0:0:0:
196,276,126660,1,0,0:0:0:0:
340,240,126949,1,8,0:0:0:0:
324,156,127113,1,0,0:0:0:0:
256,104,127278,1,8,0:0:0:0:
68,76,127649,1,0,0:0:0:0:
231,38,127979,1,0,0:0:0:0:
182,198,128309,1,0,0:0:0:0:
68,320,128638,1,0,0:0:0:0:
236,324,128968,1,8,0:0:0:0:
300,272,129133,1,8,0:0:0:0:
348,204,129298,1,0,0:0:0:0:
312,40,129627,1,0,0:0:0:0:
440,148,129957,1,8,0:0:0:0:
284,208,130287,1,0,0:0:0:0:
318,244,130616,1,0,0:0:0:0:
270,272,130781,1,0,0:0:0:0:
215,262,130946,1,0,0:0:0:0:
179,219,131111,1,0,0:0:0:0:
179,163,131276,1,0,0:0:0:0:
215,121,131440,1,0,0:0:0:0:
270,111,131605,1,0,0:0:0:0:
318,139,131770,1,0,0:0:0:0:
337,192,131935,1,0,0:0:0:0:
256,192,132223,1,0,0:0:0:0:
316,276,132429,1,0,0:0:0:0:
396,252,132594,1,0,0:0:0:0:
452,116,132883,1,0,0:0:0:0:
256,192,132924,12,0,133913,0:0:0:0:
44,180,135891,5,0,0:0:0:0:
76,156,135973,1,0,0:0:0:0:
96,260,136180,1,0,0:0:0:0:
128,236,136262,1,0,0:0:0:0:
180,328,136468,1,0,0:0:0:0:
212,300,136550,1,0,0:0:0:0:
296,300,136715,1,0,0:0:0:0:
416,256,136962,1,0,0:0:0:0:
420,172,137127,1,0,0:0:0:0:
276,48,137498,1,0,0:0:0:0:
108,68,137828,1,0,0:0:0:0:
252,152,138157,1,0,0:0:0:0:
396,64,138487,1,0,0:0:0:0:
428,92,138570,1,0,0:0:0:0:
416,216,138817,1,0,0:0:0:0:
416,216,138899,1,0,0:0:0:0:
396,252,138982,1,0,0:0:0:0:
396,252,139064,1,0,0:0:0:0:
276,336,139353,1,0,0:0:0:0:
152,308,139600,1,0,0:0:0:0:
256,236,139847,1,0,0:0:0:0:
356,160,140094,1,0,0:0:0:0:
476,200,140342,1,0,0:0:0:0:
396,296,140589,1,0,0:0:0:0:
280,340,140836,1,0,0:0:0:0:
204,304,141001,1,0,0:0:0:0:
80,192,141331,1,0,0:0:0:0:
116,168,141413,1,0,0:0:0:0:
112,84,141578,1,0,0:0:0:0:
144,56,141660,1,0,0:0:0:0:
228,48,141825,1,0,0:0:0:0:
228,48,141907,1,0,0:0:0:0:
228,48,141990,1,0,0:0:0:0:
264,64,142072,1,0,0:0:0:0:
264,64,142155,1,0,0:0:0:0:
348,80,142320,1,0,0:0:0:0:
396,148,142484,1,0,0:0:0:0:
240,156,142814,1,0,0:0:0:0:
92,236,143144,1,0,0:0:0:0:
232,328,143473,1,0,0:0:0:0:
