osu file format v13

[General]
AudioFilename: Jeremy Zuckerman - Balance.mp3
AudioLeadIn: 0
PreviewTime: 44779
Countdown: 1
SampleSet: None
StackLeniency: 0.7
Mode: 0
LetterboxInBreaks: 1
WidescreenStoryboard: 1

[Editor]
Bookmarks: 1700,103425,137271
DistanceSpacing: 1.7
BeatDivisor: 4
GridSize: 8
TimelineZoom: 1.8

[Metadata]
Title:Balance
TitleUnicode:Balance
Artist:Jeremy Zuckerman
ArtistUnicode:Jeremy Zuckerman
Creator:TTommy
Version:Earth
Source:Legend of Korra
Tags:Avatar Book 4
BeatmapID:587783
BeatmapSetID:256561

[Difficulty]
HPDrainRate:7
CircleSize:4
OverallDifficulty:6
ApproachRate:8
SliderMultiplier:1.49999990463257
SliderTickRate:1

[Events]
//Background and Video events
0,0,"Earth Empire.jpg",0,0
//Break Periods
//Storyboard Layer 0 (Background)
//Storyboard Layer 1 (Fail)
//Storyboard Layer 2 (Pass)
//Storyboard Layer 3 (Foreground)
//Storyboard Sound Samples

[TimingPoints]
1060,365.853658536585,4,2,0,10,1,0
5450,-200,4,2,0,25,0,0
15695,-100,4,2,0,25,0,0
33255,-80,4,2,0,25,0,0
44962,-100,4,1,0,25,0,1
45054,-100,4,3,0,25,0,0
50816,-100,4,1,0,25,0,1
50908,-100,4,3,0,25,0,0
56669,-100,4,1,0,25,0,1
56762,-100,4,3,0,25,0,0
62523,-100,4,1,0,25,0,1
62615,-100,4,3,0,25,0,0
68377,-74.0740740740741,4,1,0,35,0,1
68468,-74.0740740740741,4,3,0,35,0,1
91791,-100,4,2,0,25,0,0
92656,384.615384615385,4,2,0,25,1,0
125732,-200,4,2,0,25,0,0

[Colours]
Combo1 : 160,160,160
Combo2 : 0,140,0

[HitObjects]
256,192,328,5,0,0:0:0:0:
256,192,419,12,0,4352,0:0:0:0:
256,192,5084,5,0,0:0:0:0:
208,296,5817,6,0,B|152:240|152:240|152:144|152:144|208:88|208:88|304:88|304:88|360:144|360:144|360:240|360:240|304:296|304:296|232:296,2,674.999957084657,0|0|0,0:0|0:0|0:0,0:0:0:0:
32,112,14230,5,0,0:0:0:0:
92,51,14505,1,0,0:0:0:0:
108,35,14596,1,0,0:0:0:0:
121,111,14870,1,0,0:0:0:0:
147,110,14962,1,0,0:0:0:0:
99,179,15236,1,0,0:0:0:0:
120,200,15328,1,0,0:0:0:0:
31,212,15602,1,0,0:0:0:0:
31,246,15694,5,2,0:0:0:0:
160,320,16059,2,0,B|184:296|184:296|232:296,1,74.9999952316285
296,321,16426,1,0,0:0:0:0:
366,189,16791,1,0,0:0:0:0:
296,321,17158,1,0,0:0:0:0:
190,215,17523,2,0,B|166:191|166:191|166:143,1,74.9999952316285
238,129,17890,1,0,0:0:0:0:
114,44,18255,1,0,0:0:0:0:
238,129,18621,5,0,0:0:0:0:
343,23,18986,2,0,B|319:-1|319:-1|271:-1,1,74.9999952316285
277,74,19353,1,0,0:0:0:0:
133,117,19719,1,0,0:0:0:0:
277,74,20084,1,0,0:0:0:0:
407,147,20450,2,0,B|383:171|383:171|383:219,1,74.9999952316285
383,287,20816,1,0,0:0:0:0:
506,201,21182,1,0,0:0:0:0:
383,287,21548,5,0,0:0:0:0:
259,371,21913,2,0,B|217:371|217:371|193:347,1,74.9999952316285
122,370,22279,1,0,0:0:0:0:
252,295,22646,1,0,0:0:0:0:
122,370,23011,1,0,0:0:0:0:
68,229,23377,2,0,B|109:229|109:229|133:253,1,74.9999952316285
186,199,23743,1,0,0:0:0:0:
336,199,24109,1,0,0:0:0:0:
186,199,24475,5,0,0:0:0:0:
80,93,24840,2,0,B|39:93|39:93|15:117,2,74.9999952316285,0|0|0,0:0|0:0|0:0,0:0:0:0:
80,243,25573,1,0,0:0:0:0:
185,137,25938,1,0,0:0:0:0:
185,286,26303,2,0,B|226:286|226:286|250:262,2,74.9999952316285,0|0|0,0:0|0:0|0:0,0:0:0:0:
335,286,27036,1,0,0:0:0:0:
392,147,27402,1,0,0:0:0:0:
265,67,27767,2,0,B|265:26|265:26|289:2,2,74.9999952316285,0|0|0,0:0|0:0|0:0,0:0:0:0:
122,19,28499,1,0,0:0:0:0:
16,124,28864,5,0,0:0:0:0:
46,270,29230,2,0,B|70:294|70:294|111:294,2,74.9999952316285,0|0|0,0:0|0:0|0:0,0:0:0:0:
152,163,29962,1,0,0:0:0:0:
302,163,30329,1,0,0:0:0:0:
407,57,30694,2,0,B|383:33|383:33|342:33,1,74.9999952316285
266,33,31060,5,0,0:0:0:0:
228,33,31151,1,0,0:0:0:0:
201,59,31243,1,0,0:0:0:0:
201,96,31335,1,0,0:0:0:0:
227,122,31426,1,0,0:0:0:0:
264,122,31518,1,0,0:0:0:0:
290,148,31609,1,0,0:0:0:0:
290,185,31701,1,0,0:0:0:0:
263,211,31792,5,0,0:0:0:0:
305,314,32066,1,0,0:0:0:0:
318,348,32158,1,0,0:0:0:0:
214,323,32431,1,0,0:0:0:0:
199,361,32522,1,0,0:0:0:0:
139,260,32797,1,0,0:0:0:0:
95,276,32889,1,0,0:0:0:0:
127,152,33163,1,0,0:0:0:0:
82,134,33254,5,4,0:0:0:0:
261,32,33620,2,2,B|309:32|309:32|349:-5,1,93.7499940395356,2|0,0:0|0:0,0:0:0:0:
401,87,33987,1,0,0:0:0:0:
401,293,34353,1,2,0:0:0:0:
401,87,34719,1,0,0:0:0:0:
307,270,35084,2,2,B|307:318|307:318|270:358,1,93.7499940395356,2|0,0:0|0:0,0:0:0:0:
202,278,35450,1,0,0:0:0:0:
2,330,35816,1,2,0:0:0:0:
202,278,36182,5,0,0:0:0:0:
12,198,36547,2,2,B|45:229|45:229|93:229,1,93.7499940395356,2|0,0:0|0:0,0:0:0:0:
166,155,36913,1,0,0:0:0:0:
357,77,37280,1,2,0:0:0:0:
166,155,37646,1,0,0:0:0:0:
368,191,38011,2,2,B|416:191|416:191|448:223,1,93.7499940395356,2|0,0:0|0:0,0:0:0:0:
375,296,38377,1,0,0:0:0:0:
281,112,38743,1,2,0:0:0:0:
375,296,39109,5,0,0:0:0:0:
187,211,39474,2,2,B|155:177|155:177|155:129,2,93.7499940395356,2|0|0,0:0|0:0|0:0,0:0:0:0:
40,64,40207,1,2,0:0:0:0:
242,23,40573,1,0,0:0:0:0:
447,23,40938,2,2,B|478:56|478:56|478:104,2,93.7499940395356,2|0|0,0:0|0:0|0:0,0:0:0:0:
300,169,41669,1,2,0:0:0:0:
93,169,42036,1,0,0:0:0:0:
258,256,42401,1,2,0:0:0:0:
351,256,42584,1,0,0:0:0:0:
351,349,42767,5,0,0:0:0:0:
351,160,43134,1,2,0:0:0:0:
351,160,43500,1,0,0:0:0:0:
351,346,43864,1,2,0:0:0:0:
351,252,44047,1,0,0:0:0:0:
444,252,44230,1,0,0:0:0:0:
384,32,44962,5,4,0:0:0:0:
446,124,45236,1,0,0:0:0:0:
461,158,45328,1,0,0:0:0:0:
350,181,45603,1,0,0:0:0:0:
323,207,45695,1,4,0:0:0:0:
402,286,45969,1,0,0:0:0:0:
415,320,46059,1,0,0:0:0:0:
305,294,46334,1,0,0:0:0:0:
268,286,46425,5,0,0:0:0:0:
162,326,46701,1,0,0:0:0:0:
129,344,46792,1,0,0:0:0:0:
129,231,47066,1,0,0:0:0:0:
144,196,47158,1,0,0:0:0:0:
32,196,47431,1,0,0:0:0:0:
9,165,47523,1,0,0:0:0:0:
57,63,47797,1,0,0:0:0:0:
83,36,47889,5,0,0:0:0:0:
120,36,47980,1,0,0:0:0:0:
146,62,48072,1,0,0:0:0:0:
146,99,48163,1,0,0:0:0:0:
172,125,48255,1,0,0:0:0:0:
209,125,48346,1,0,0:0:0:0:
235,98,48438,1,0,0:0:0:0:
235,60,48529,1,0,0:0:0:0:
261,33,48620,5,4,0:0:0:0:
370,59,48895,1,0,0:0:0:0:
405,70,48986,1,0,0:0:0:0:
325,149,49261,1,0,0:0:0:0:
298,175,49352,1,0,0:0:0:0:
410,175,49627,1,0,0:0:0:0:
436,201,49718,1,0,0:0:0:0:
336,253,49992,1,0,0:0:0:0:
299,262,50084,5,0,0:0:0:0:
359,356,50358,1,0,0:0:0:0:
324,370,50450,1,0,0:0:0:0:
215,339,50724,1,0,0:0:0:0:
188,365,50816,5,4,0:0:0:0:
75,365,51090,1,0,0:0:0:0:
48,338,51181,1,0,0:0:0:0:
48,225,51456,1,0,0:0:0:0:
72,200,51547,1,0,0:0:0:0:
184,200,51822,1,0,0:0:0:0:
210,226,51913,1,0,0:0:0:0:
322,226,52188,1,0,0:0:0:0:
348,199,52279,5,0,0:0:0:0:
348,86,52553,1,0,0:0:0:0:
321,59,52645,1,0,0:0:0:0:
208,59,52919,1,0,0:0:0:0:
181,85,53011,1,0,0:0:0:0:
77,129,53285,1,0,0:0:0:0:
77,166,53377,1,0,0:0:0:0:
112,272,53651,1,0,0:0:0:0:
112,309,53742,5,0,0:0:0:0:
138,335,53834,1,0,0:0:0:0:
164,361,53925,1,0,0:0:0:0:
201,361,54017,1,0,0:0:0:0:
238,361,54108,1,0,0:0:0:0:
264,334,54200,1,0,0:0:0:0:
290,307,54291,1,0,0:0:0:0:
290,269,54383,1,0,0:0:0:0:
290,231,54474,5,4,0:0:0:0:
186,195,54749,1,0,0:0:0:0:
148,195,54840,1,0,0:0:0:0:
68,115,55114,1,0,0:0:0:0:
68,77,55206,1,0,0:0:0:0:
147,0,55480,1,0,0:0:0:0:
184,0,55572,1,0,0:0:0:0:
263,76,55846,1,0,0:0:0:0:
263,113,55938,5,0,0:0:0:0:
342,192,56212,1,0,0:0:0:0:
368,218,56303,1,0,0:0:0:0:
368,330,56578,1,0,0:0:0:0:
341,356,56669,1,4,0:0:0:0:
228,356,56944,1,0,0:0:0:0:
201,329,57035,1,0,0:0:0:0:
201,216,57309,1,0,0:0:0:0:
227,189,57401,5,0,0:0:0:0:
328,238,57675,1,0,0:0:0:0:
365,238,57767,1,0,0:0:0:0:
444,158,58041,1,0,0:0:0:0:
444,120,58133,1,0,0:0:0:0:
364,40,58407,1,0,0:0:0:0:
284,119,58681,1,0,0:0:0:0:
310,145,58773,1,0,0:0:0:0:
347,145,58864,5,0,0:0:0:0:
347,257,59139,1,0,0:0:0:0:
426,336,59413,1,0,0:0:0:0:
399,362,59505,1,0,0:0:0:0:
361,362,59596,1,0,0:0:0:0:
281,282,59870,1,0,0:0:0:0:
281,319,59962,1,0,0:0:0:0:
201,239,60236,1,0,0:0:0:0:
174,265,60328,5,0,0:0:0:0:
174,152,60602,1,0,0:0:0:0:
136,152,60694,1,0,0:0:0:0:
79,55,60968,1,0,0:0:0:0:
41,55,61059,5,0,0:0:0:0:
14,81,61151,1,0,0:0:0:0:
14,118,61242,1,0,0:0:0:0:
40,144,61334,1,0,0:0:0:0:
66,170,61425,1,0,0:0:0:0:
92,196,61517,1,0,0:0:0:0:
92,233,61608,1,0,0:0:0:0:
65,259,61700,1,0,0:0:0:0:
38,285,61791,5,0,0:0:0:0:
138,336,62066,1,0,0:0:0:0:
250,336,62340,1,0,0:0:0:0:
276,309,62431,1,0,0:0:0:0:
302,282,62523,5,4,0:0:0:0:
407,242,62797,1,0,0:0:0:0:
433,215,62889,1,0,0:0:0:0:
433,102,63163,1,0,0:0:0:0:
406,75,63255,1,0,0:0:0:0:
293,75,63529,1,0,0:0:0:0:
266,101,63621,1,0,0:0:0:0:
266,213,63895,1,0,0:0:0:0:
292,239,63987,5,0,0:0:0:0:
349,142,64261,1,0,0:0:0:0:
452,185,64535,1,0,0:0:0:0:
452,147,64627,1,0,0:0:0:0:
452,109,64718,1,0,0:0:0:0:
350,60,64992,1,0,0:0:0:0:
247,107,65267,1,0,0:0:0:0:
247,144,65358,1,0,0:0:0:0:
247,181,65450,5,0,0:0:0:0:
349,226,65724,1,0,0:0:0:0:
389,331,65999,1,0,0:0:0:0:
351,331,66090,1,0,0:0:0:0:
313,331,66181,1,0,0:0:0:0:
203,304,66456,1,0,0:0:0:0:
98,262,66730,1,0,0:0:0:0:
71,235,66822,1,0,0:0:0:0:
71,197,66913,5,0,0:0:0:0:
71,159,67005,1,0,0:0:0:0:
97,132,67096,1,0,0:0:0:0:
123,105,67188,1,0,0:0:0:0:
160,105,67279,1,0,0:0:0:0:
197,105,67370,1,0,0:0:0:0:
223,131,67462,1,0,0:0:0:0:
223,168,67553,1,0,0:0:0:0:
196,194,67645,1,0,0:0:0:0:
320,24,68377,6,0,B|344:24|344:24|424:104|424:104|424:120,1,151.874990923405,4|0,0:0|0:0,0:0:0:0:
424,148,68742,1,2,0:0:0:0:
424,239,69017,1,0,0:0:0:0:
424,269,69108,2,0,B|424:293|424:293|344:373|344:373|328:373,1,151.874990923405,0|0,0:0|0:0,0:0:0:0:
299,373,69473,1,2,0:0:0:0:
207,373,69749,1,0,0:0:0:0:
176,373,69840,2,0,B|152:373|152:373|72:293|72:293|72:277,1,151.874990923405,0|0,0:0|0:0,0:0:0:0:
72,248,70206,1,2,0:0:0:0:
72,156,70480,1,0,0:0:0:0:
72,125,70571,2,4,B|72:101|72:101|152:21|152:21|168:21,1,151.874990923405,0|0,0:0|0:0,0:0:0:0:
196,21,70938,1,2,0:0:0:0:
256,112,71212,1,0,0:0:0:0:
225,112,71303,5,0,0:0:0:0:
203,133,71395,1,0,0:0:0:0:
181,154,71486,1,0,0:0:0:0:
181,184,71578,1,0,0:0:0:0:
181,214,71669,1,2,0:0:0:0:
202,235,71761,1,0,0:0:0:0:
223,256,71852,1,0,0:0:0:0:
253,256,71944,1,0,0:0:0:0:
283,256,72035,6,0,B|358:211|326:115|270:115,1,151.874990923405,0|0,0:0|0:0,0:0:0:0:
272,112,72401,1,2,0:0:0:0:
336,47,72675,1,0,0:0:0:0:
364,75,72767,1,0,0:0:0:0:
449,160,73041,2,0,L|446:220,1,50.6249969744683,0|2,0:0|0:0,0:0:0:0:
324,210,73407,1,0,0:0:0:0:
345,244,73499,1,0,0:0:0:0:
259,329,73773,2,0,L|209:335,1,50.6249969744683,0|2,0:0|0:0,0:0:0:0:
92,371,74139,1,0,0:0:0:0:
63,342,74230,5,2,0:0:0:0:
62,301,74322,1,2,0:0:0:0:
90,272,74413,1,2,0:0:0:0:
128,259,74505,1,2,0:0:0:0:
163,240,74596,1,2,0:0:0:0:
175,201,74688,1,2,0:0:0:0:
158,164,74779,1,2,0:0:0:0:
124,142,74870,1,2,0:0:0:0:
83,142,74962,5,2,0:0:0:0:
186,79,75236,1,0,0:0:0:0:
294,23,75511,1,2,0:0:0:0:
334,23,75602,1,2,0:0:0:0:
362,51,75694,2,0,B|362:123|362:123|418:179,1,151.874990923405,2|2,0:0|0:0,0:0:0:0:
439,298,76242,1,2,0:0:0:0:
410,269,76334,1,2,0:0:0:0:
369,269,76425,2,0,B|313:325|313:325|241:325,1,151.874990923405,2|2,0:0|0:0,0:0:0:0:
118,325,76974,1,2,0:0:0:0:
118,284,77066,1,2,0:0:0:0:
118,243,77157,5,2,0:0:0:0:
146,214,77249,1,0,0:0:0:0:
174,185,77340,1,0,0:0:0:0:
214,185,77431,1,0,0:0:0:0:
254,185,77523,1,2,0:0:0:0:
282,156,77614,1,0,0:0:0:0:
310,127,77706,1,0,0:0:0:0:
310,86,77797,1,0,0:0:0:0:
310,45,77889,6,0,B|190:45|190:45|150:85,1,151.874990923405,0|0,0:0|0:0,0:0:0:0:
138,96,78255,1,2,0:0:0:0:
52,181,78529,1,0,0:0:0:0:
52,221,78620,5,0,0:0:0:0:
138,307,78895,2,0,L|178:267,1,50.6249969744683,0|2,0:0|0:0,0:0:0:0:
295,271,79261,1,0,0:0:0:0:
295,311,79352,1,0,0:0:0:0:
416,311,79627,2,0,L|456:271,1,50.6249969744683,0|2,0:0|0:0,0:0:0:0:
511,169,79992,1,0,0:0:0:0:
511,128,80084,2,0,B|511:80|511:80|471:40|471:40|423:40,1,151.874990923405,2|2,0:0|0:0,0:0:0:0:
301,40,80633,1,2,0:0:0:0:
329,68,80724,1,2,0:0:0:0:
338,107,80816,6,0,B|338:155|338:155|298:195|298:195|250:195,1,151.874990923405,2|2,0:0|0:0,0:0:0:0:
336,280,81364,1,2,0:0:0:0:
307,308,81455,1,2,0:0:0:0:
278,336,81547,2,0,B|190:336|190:336|142:288,1,151.874990923405,2|2,0:0|0:0,0:0:0:0:
58,376,82096,1,2,0:0:0:0:
29,347,82187,1,2,0:0:0:0:
29,306,82279,2,0,L|29:146,1,151.874990923405,2|2,0:0|0:0,0:0:0:0:
115,68,82828,1,2,0:0:0:0:
115,108,82919,1,2,0:0:0:0:
115,148,83011,6,0,B|115:220|115:220|171:276,1,151.874990923405,2|0,0:0|0:0,0:0:0:0:
200,305,83377,1,2,0:0:0:0:
321,305,83651,1,0,0:0:0:0:
349,276,83743,2,0,B|405:220|405:220|405:148,1,151.874990923405,0|0,0:0|0:0,0:0:0:0:
405,107,84108,1,2,0:0:0:0:
318,20,84383,1,0,0:0:0:0:
289,48,84474,5,0,0:0:0:0:
260,76,84566,1,0,0:0:0:0:
260,116,84657,1,0,0:0:0:0:
260,156,84749,1,0,0:0:0:0:
231,184,84840,1,2,0:0:0:0:
202,212,84931,1,0,0:0:0:0:
162,220,85023,1,0,0:0:0:0:
121,220,85114,1,0,0:0:0:0:
92,248,85206,6,0,B|92:328|92:328|148:384,1,151.874990923405
183,378,85572,1,2,0:0:0:0:
256,344,85755,1,0,0:0:0:0:
284,315,85846,1,0,0:0:0:0:
306,281,85938,2,0,L|378:209,1,101.249993948937,0|0,0:0|0:0,0:0:0:0:
377,209,86212,2,0,L|449:209,1,50.6249969744683,2|0,0:0|0:0,0:0:0:0:
481,115,86486,1,2,0:0:0:0:
452,86,86578,1,2,0:0:0:0:
423,57,86669,6,0,L|311:57,1,101.249993948937,2|0,0:0|0:0,0:0:0:0:
321,57,86944,2,0,L|273:105,1,50.6249969744683,2|0,0:0|0:0,0:0:0:0:
228,250,87309,1,0,0:0:0:0:
187,250,87401,2,0,B|139:250|139:250|107:218|107:218|107:184,1,101.249993948937
107,210,87675,2,0,L|107:141,1,50.6249969744683,2|0,0:0|0:0,0:0:0:0:
20,73,87950,1,2,0:0:0:0:
20,113,88041,1,2,0:0:0:0:
20,153,88133,2,0,L|20:265,1,101.249993948937
20,254,88407,2,0,L|60:294,1,50.6249969744683,2|0,0:0|0:0,0:0:0:0:
153,338,88681,1,2,0:0:0:0:
193,338,88773,1,2,0:0:0:0:
233,338,88864,6,0,L|345:338,1,101.249993948937,2|0,0:0|0:0,0:0:0:0:
334,338,89139,2,0,L|374:298,1,50.6249969744683,2|0,0:0|0:0,0:0:0:0:
427,244,89413,1,2,0:0:0:0:
455,215,89505,1,2,0:0:0:0:
455,174,89596,2,0,L|455:70,1,101.249993948937,2|0,0:0|0:0,0:0:0:0:
455,72,89870,2,0,L|415:32,1,50.6249969744683,2|0,0:0|0:0,0:0:0:0:
361,93,90145,1,0,0:0:0:0:
339,59,90236,1,0,0:0:0:0:
303,39,90328,5,0,0:0:0:0:
264,26,90419,1,0,0:0:0:0:
226,40,90511,1,0,0:0:0:0:
197,68,90602,1,0,0:0:0:0:
184,106,90694,1,0,0:0:0:0:
192,145,90785,1,0,0:0:0:0:
228,162,90877,1,0,0:0:0:0:
268,162,90968,1,0,0:0:0:0:
290,128,91059,1,0,0:0:0:0:
256,191,92656,5,0,0:0:0:0:
300,80,93040,1,0,0:0:0:0:
256,191,93425,1,0,0:0:0:0:
365,144,93809,1,0,0:0:0:0:
256,191,94194,1,0,0:0:0:0:
367,236,94579,1,0,0:0:0:0:
256,191,94963,1,0,0:0:0:0:
302,301,95348,1,0,0:0:0:0:
256,191,95732,5,0,0:0:0:0:
211,303,96117,1,0,0:0:0:0:
256,191,96502,1,0,0:0:0:0:
145,238,96886,1,0,0:0:0:0:
256,191,97271,1,0,0:0:0:0:
143,146,97656,1,0,0:0:0:0:
256,191,98040,1,0,0:0:0:0:
232,136,98232,1,0,0:0:0:0:
208,80,98425,1,0,0:0:0:0:
254,189,98809,5,0,0:0:0:0:
300,77,99194,1,0,0:0:0:0:
256,191,99579,1,0,0:0:0:0:
311,167,99771,1,0,0:0:0:0:
365,144,99963,1,0,0:0:0:0:
255,190,100348,1,0,0:0:0:0:
365,235,100732,1,0,0:0:0:0:
256,191,101117,1,0,0:0:0:0:
279,246,101309,1,0,0:0:0:0:
302,301,101502,1,0,0:0:0:0:
255,190,101886,5,0,0:0:0:0:
210,301,102271,1,0,0:0:0:0:
256,191,102656,1,0,0:0:0:0:
200,214,102848,1,0,0:0:0:0:
144,237,103040,1,0,0:0:0:0:
256,192,103425,5,0,0:0:0:0:
52,97,103809,2,0,L|-4:41,1,74.9999952316285
111,43,104193,1,0,0:0:0:0:
111,43,104386,1,0,0:0:0:0:
111,43,104578,1,0,0:0:0:0:
111,268,104963,2,0,L|39:340,1,74.9999952316285
170,321,105347,1,0,0:0:0:0:
170,321,105540,1,0,0:0:0:0:
170,321,105732,5,0,0:0:0:0:
395,321,106117,2,0,L|451:265,1,74.9999952316285
335,267,106501,1,0,0:0:0:0:
335,267,106694,1,0,0:0:0:0:
335,267,106886,1,0,0:0:0:0:
494,107,107271,2,0,L|438:51,1,74.9999952316285
361,133,107655,1,0,0:0:0:0:
361,133,107848,1,0,0:0:0:0:
361,133,108040,5,0,0:0:0:0:
161,236,108425,2,0,L|161:156,2,74.9999952316285,0|0|0,0:0|0:0|0:0,0:0:0:0:
240,315,109002,1,0,0:0:0:0:
240,315,109194,1,0,0:0:0:0:
450,236,109579,2,0,L|450:140,2,74.9999952316285,0|0|0,0:0|0:0|0:0,0:0:0:0:
370,315,110156,1,0,0:0:0:0:
370,315,110348,1,0,0:0:0:0:
370,90,110732,6,0,L|370:178,2,74.9999952316285,0|0|0,0:0|0:0|0:0,0:0:0:0:
290,10,111309,1,0,0:0:0:0:
290,10,111502,1,0,0:0:0:0:
80,91,111886,2,0,L|80:179,2,74.9999952316285,0|0|0,0:0|0:0|0:0,0:0:0:0:
159,12,112463,1,0,0:0:0:0:
159,12,112655,5,0,0:0:0:0:
217,229,113040,2,0,L|313:229,1,74.9999952316285
256,121,113425,1,0,0:0:0:0:
256,121,113617,1,0,0:0:0:0:
256,121,113809,1,0,0:0:0:0:
424,24,114194,6,0,B|504:312|80:-72|16:232,1,562.499964237214
20,213,115732,2,0,P|88:368|168:384,1,262.4999833107
165,384,116502,2,0,P|348:349|436:301,1,262.4999833107
414,314,117271,2,0,P|483:205|219:325,1,899.999942779542
392,305,119963,5,0,0:0:0:0:
429,182,120156,1,0,0:0:0:0:
304,208,120348,1,0,0:0:0:0:
304,208,120540,1,0,0:0:0:0:
304,208,120732,5,0,0:0:0:0:
90,253,121117,5,0,0:0:0:0:
178,346,121310,1,0,0:0:0:0:
218,225,121502,1,0,0:0:0:0:
218,225,121694,1,0,0:0:0:0:
218,225,121886,5,0,0:0:0:0:
285,17,122271,5,0,0:0:0:0:
160,47,122464,1,0,0:0:0:0:
245,142,122656,1,0,0:0:0:0:
245,142,122848,1,0,0:0:0:0:
245,142,123040,5,0,0:0:0:0:
80,128,123425,5,0,0:0:0:0:
256,55,123713,1,0,0:0:0:0:
433,128,124002,1,0,0:0:0:0:
256,312,124386,1,0,0:0:0:0:
256,184,124579,1,0,0:0:0:0:
256,384,125732,6,0,B|352:352|256:320|256:320|160:288|256:256|256:256|352:224|256:192|256:192|160:160|256:128|256:128|352:96|256:64|256:64|160:32|256:0,1,712.499954700471
256,192,129579,12,0,137271,0:0:0:0:
