osu file format v12

[General]
AudioFilename: Jeremy Teti Nyanyi! - BBM CAMPURAN (Speech Composing by @EkaGustiwana).mp3
AudioLeadIn: 0
PreviewTime: 37583
Countdown: 0
SampleSet: Soft
StackLeniency: 0.7
Mode: 3
LetterboxInBreaks: 1

[Editor]
DistanceSpacing: 0.8
BeatDivisor: 4
GridSize: 16

[Metadata]
Title:BBM Campuran
TitleUnicode:BBM Campuran
Artist:Jeremy Teti
ArtistUnicode:Jeremy Teti
Creator:Chillarmy2
Version:BBM 4K
Source:
Tags:indonesia jeremy teti bbm campuran eka gustiwana
BeatmapID:262057
BeatmapSetID:98186

[Difficulty]
HPDrainRate:5
CircleSize:4
OverallDifficulty:3
ApproachRate:7
SliderMultiplier:2
SliderTickRate:2

[Events]
//Background and Video events
0,0,"jeremy-teti-2-121109-logo.jpg",0,0
Video,0,"Jeremy Teti Nyanyi! - BBM CAMPURAN (Speech Composing by @EkaGustiwana).avi"
//Break Periods
2,54354,55540
2,90925,98968
2,104068,107825
//Storyboard Layer 0 (Background)
//Storyboard Layer 1 (Fail)
//Storyboard Layer 2 (Pass)
//Storyboard Layer 3 (Foreground)
//Storyboard Sound Samples
//Background Colour Transformations
3,100,163,162,255

[TimingPoints]
10726,571.428571428571,4,2,0,70,1,0
99868,-133.333333333333,4,2,0,70,0,0
108441,-80,4,2,0,70,0,0
109011,-80,4,2,0,70,0,1
152440,-80,4,2,0,70,0,0

[Colours]
Combo1 : 255,255,127
Combo2 : 127,127,255
Combo3 : 255,127,127
Combo4 : 127,255,127

[HitObjects]
64,192,10440,1,8,0:0:0:0:
192,192,10583,1,0,0:0:0:0:
320,192,10726,1,4,0:0:0:0:
64,192,11011,1,8,0:0:0:0:
192,192,11154,1,0,0:0:0:0:
320,192,11297,1,0,0:0:0:0:
320,192,11583,1,0,0:0:0:0:
448,192,11583,1,8,0:0:0:0:
320,192,12154,1,0,0:0:0:0:
448,192,12154,1,8,0:0:0:0:
64,192,12726,1,8,0:0:0:0:
192,192,12868,1,0,0:0:0:0:
320,192,13011,1,0,0:0:0:0:
64,192,13297,1,8,0:0:0:0:
192,192,13440,1,0,0:0:0:0:
320,192,13583,1,0,0:0:0:0:
448,192,13868,1,8,0:0:0:0:
320,192,13868,1,0,0:0:0:0:
448,192,14440,1,8,0:0:0:0:
320,192,14440,1,0,0:0:0:0:
448,192,15011,1,8,0:0:0:0:
448,192,15297,128,2,16440:0:0:0:0:
192,192,15868,128,0,16440:0:0:0:0:
192,192,17011,1,0,0:0:0:0:
448,192,17011,1,2,0:0:0:0:
64,192,17583,128,0,18154:0:0:0:0:
320,192,17583,128,2,18154:0:0:0:0:
64,192,18440,1,0,0:0:0:0:
320,192,18440,1,2,0:0:0:0:
64,192,19583,1,8,0:0:0:0:
192,192,19725,1,0,0:0:0:0:
320,192,19868,1,4,0:0:0:0:
64,192,20154,1,8,0:0:0:0:
192,192,20297,1,0,0:0:0:0:
320,192,20440,1,0,0:0:0:0:
448,192,20725,1,8,0:0:0:0:
320,192,20725,1,0,0:0:0:0:
448,192,21297,1,8,0:0:0:0:
320,192,21297,1,0,0:0:0:0:
64,192,21868,1,8,0:0:0:0:
192,192,22010,1,0,0:0:0:0:
320,192,22153,1,0,0:0:0:0:
64,192,22439,1,8,0:0:0:0:
192,192,22582,1,0,0:0:0:0:
320,192,22725,1,0,0:0:0:0:
320,192,23010,1,0,0:0:0:0:
448,192,23010,1,8,0:0:0:0:
320,192,23582,1,0,0:0:0:0:
448,192,23582,1,8,0:0:0:0:
448,192,24154,1,8,0:0:0:0:
448,192,24440,128,2,25583:0:0:0:0:
192,192,25011,128,0,25583:0:0:0:0:
448,192,26154,1,2,0:0:0:0:
192,192,26154,1,0,0:0:0:0:
320,192,26726,128,2,27297:0:0:0:0:
64,192,26726,128,0,27297:0:0:0:0:
64,192,27583,1,0,0:0:0:0:
320,192,27583,1,2,0:0:0:0:
448,192,28725,1,8,0:0:0:0:
320,192,28868,1,0,0:0:0:0:
448,192,29011,1,4,0:0:0:0:
192,192,29297,1,8,0:0:0:0:
64,192,29440,1,0,0:0:0:0:
192,192,29583,1,0,0:0:0:0:
448,192,29868,1,8,0:0:0:0:
320,192,29868,1,0,0:0:0:0:
192,192,30440,1,0,0:0:0:0:
64,192,30440,1,8,0:0:0:0:
64,192,31011,1,8,0:0:0:0:
192,192,31154,1,0,0:0:0:0:
64,192,31297,1,0,0:0:0:0:
320,192,31583,1,8,0:0:0:0:
448,192,31726,1,0,0:0:0:0:
320,192,31869,1,0,0:0:0:0:
64,192,32154,1,8,0:0:0:0:
192,192,32154,1,0,0:0:0:0:
448,192,32726,1,8,0:0:0:0:
320,192,32726,1,0,0:0:0:0:
320,192,33154,1,0,0:0:0:0:
448,192,33297,1,8,0:0:0:0:
320,192,33440,1,0,0:0:0:0:
448,192,33583,1,0,0:0:0:0:
192,192,33725,1,0,0:0:0:0:
320,192,33868,1,8,0:0:0:0:
192,192,34011,1,0,0:0:0:0:
320,192,34154,1,0,0:0:0:0:
64,192,34297,1,0,0:0:0:0:
192,192,34440,1,8,0:0:0:0:
64,192,34583,1,0,0:0:0:0:
192,192,34725,1,0,0:0:0:0:
192,192,35440,1,0,0:0:0:0:
64,192,35583,1,8,0:0:0:0:
192,192,35726,1,0,0:0:0:0:
64,192,35869,1,0,0:0:0:0:
320,192,36011,1,0,0:0:0:0:
192,192,36154,1,8,0:0:0:0:
320,192,36297,1,0,0:0:0:0:
192,192,36440,1,0,0:0:0:0:
448,192,36583,1,0,0:0:0:0:
320,192,36726,1,8,0:0:0:0:
448,192,36869,1,0,0:0:0:0:
320,192,37011,1,0,0:0:0:0:
64,192,37868,1,8,0:0:0:0:
192,192,38011,1,0,0:0:0:0:
320,192,38154,128,4,38725:0:0:0:0:
448,192,38440,1,8,0:0:0:0:
448,192,38725,1,0,0:0:0:0:
64,192,39011,1,8,0:0:0:0:
192,192,39154,1,0,0:0:0:0:
320,192,39297,128,0,39583:0:0:0:0:
448,192,39583,1,8,0:0:0:0:
64,192,39868,1,0,0:0:0:0:
192,192,39940,1,0,0:0:0:0:
320,192,40011,1,0,0:0:0:0:
448,192,40083,1,0,0:0:0:0:
64,192,40154,1,8,0:0:0:0:
192,192,40225,1,0,0:0:0:0:
320,192,40297,1,0,0:0:0:0:
448,192,40368,1,0,0:0:0:0:
64,192,40440,1,0,0:0:0:0:
192,192,40440,1,0,0:0:0:0:
320,192,40725,1,8,0:0:0:0:
448,192,40725,1,0,0:0:0:0:
64,192,41011,1,0,0:0:0:0:
192,192,41011,1,0,0:0:0:0:
320,192,41297,1,8,0:0:0:0:
448,192,41297,1,0,0:0:0:0:
64,192,41583,1,0,0:0:0:0:
192,192,41583,1,0,0:0:0:0:
64,192,41725,1,0,0:0:0:0:
192,192,41725,1,0,0:0:0:0:
320,192,41868,1,8,0:0:0:0:
448,192,41868,1,0,0:0:0:0:
64,192,42440,1,8,0:0:0:0:
192,192,42583,1,0,0:0:0:0:
320,192,42726,128,0,43297:0:0:0:0:
448,192,43012,1,8,0:0:0:0:
448,192,43297,1,0,0:0:0:0:
64,192,43583,1,8,0:0:0:0:
192,192,43726,1,0,0:0:0:0:
320,192,43869,128,0,44155:0:0:0:0:
448,192,44155,1,8,0:0:0:0:
64,192,44440,1,0,0:0:0:0:
192,192,44512,1,0,0:0:0:0:
320,192,44583,1,0,0:0:0:0:
448,192,44655,1,0,0:0:0:0:
64,192,44726,1,8,0:0:0:0:
192,192,44797,1,0,0:0:0:0:
320,192,44869,1,0,0:0:0:0:
448,192,44940,1,0,0:0:0:0:
192,192,45012,1,0,0:0:0:0:
64,192,45012,1,0,0:0:0:0:
320,192,45297,1,0,0:0:0:0:
448,192,45297,1,8,0:0:0:0:
64,192,45583,1,0,0:0:0:0:
192,192,45583,1,0,0:0:0:0:
320,192,45869,1,0,0:0:0:0:
448,192,45869,1,8,0:0:0:0:
192,192,46155,1,0,0:0:0:0:
64,192,46155,1,0,0:0:0:0:
64,192,46297,1,0,0:0:0:0:
192,192,46297,1,0,0:0:0:0:
448,192,46440,1,8,0:0:0:0:
320,192,46440,1,0,0:0:0:0:
192,192,47011,1,8,0:0:0:0:
320,192,47154,1,0,0:0:0:0:
448,192,47297,128,4,49011:0:0:0:0:
192,192,47583,1,8,0:0:0:0:
64,192,47725,1,0,0:0:0:0:
192,192,47868,1,0,0:0:0:0:
192,192,48154,1,8,0:0:0:0:
64,192,48297,1,0,0:0:0:0:
192,192,48440,1,0,0:0:0:0:
192,192,48725,1,8,0:0:0:0:
64,192,48868,1,0,0:0:0:0:
192,192,49011,1,0,0:0:0:0:
320,192,49297,1,8,0:0:0:0:
192,192,49440,1,0,0:0:0:0:
64,192,49583,128,0,51297:0:0:0:0:
320,192,49868,1,8,0:0:0:0:
448,192,50011,1,0,0:0:0:0:
320,192,50154,1,0,0:0:0:0:
320,192,50440,1,8,0:0:0:0:
448,192,50583,1,0,0:0:0:0:
320,192,50725,1,0,0:0:0:0:
320,192,51011,1,8,0:0:0:0:
448,192,51154,1,0,0:0:0:0:
320,192,51297,1,0,0:0:0:0:
64,192,51725,128,0,51868:0:0:0:0:
192,192,52154,128,0,52297:0:0:0:0:
320,192,52583,128,0,52725:0:0:0:0:
320,192,52868,1,0,0:0:0:0:
448,192,53011,128,0,53297:0:0:0:0:
64,192,53583,1,0,0:0:0:0:
192,192,53583,1,0,0:0:0:0:
192,192,53868,1,0,0:0:0:0:
320,192,53868,1,0,0:0:0:0:
320,192,54154,1,0,0:0:0:0:
448,192,54154,1,4,0:0:0:0:
192,192,56440,5,0,0:0:0:0:
320,192,56440,1,0,0:0:0:0:
64,192,56725,1,0,0:0:0:0:
320,192,56725,1,8,0:0:0:0:
192,192,57011,1,0,0:0:0:0:
320,192,57011,1,0,0:0:0:0:
192,192,57297,1,8,0:0:0:0:
448,192,57297,1,0,0:0:0:0:
64,192,57868,1,8,0:0:0:0:
448,192,57868,1,0,0:0:0:0:
64,192,58440,1,8,0:0:0:0:
448,192,58440,1,0,0:0:0:0:
192,192,58725,1,0,0:0:0:0:
320,192,58725,1,0,0:0:0:0:
64,192,59011,1,0,0:0:0:0:
320,192,59011,1,8,0:0:0:0:
192,192,59297,1,0,0:0:0:0:
320,192,59297,1,0,0:0:0:0:
192,192,59583,1,8,0:0:0:0:
448,192,59583,1,0,0:0:0:0:
64,192,60154,1,0,0:0:0:0:
448,192,60154,1,8,0:0:0:0:
192,192,60725,1,8,0:0:0:0:
64,192,60868,1,0,0:0:0:0:
192,192,61011,1,4,0:0:0:0:
448,192,61297,1,8,0:0:0:0:
320,192,61440,1,0,0:0:0:0:
448,192,61583,1,0,0:0:0:0:
192,192,61868,1,8,0:0:0:0:
64,192,62011,1,0,0:0:0:0:
192,192,62154,1,0,0:0:0:0:
64,192,62297,1,0,0:0:0:0:
192,192,62440,1,8,0:0:0:0:
320,192,63011,1,8,0:0:0:0:
448,192,63154,1,0,0:0:0:0:
320,192,63297,1,0,0:0:0:0:
64,192,63583,1,8,0:0:0:0:
192,192,63726,1,0,0:0:0:0:
64,192,63869,1,0,0:0:0:0:
320,192,64154,1,8,0:0:0:0:
448,192,64297,1,0,0:0:0:0:
320,192,64440,1,0,0:0:0:0:
448,192,64583,1,0,0:0:0:0:
320,192,64726,1,8,0:0:0:0:
448,192,65297,1,8,0:0:0:0:
320,192,65440,1,0,0:0:0:0:
448,192,65583,1,4,0:0:0:0:
192,192,65869,1,8,0:0:0:0:
64,192,66012,1,0,0:0:0:0:
192,192,66155,1,0,0:0:0:0:
448,192,66440,1,0,0:0:0:0:
320,192,66440,1,8,0:0:0:0:
64,192,67012,1,0,0:0:0:0:
192,192,67012,1,8,0:0:0:0:
64,192,67583,1,8,0:0:0:0:
192,192,67726,1,0,0:0:0:0:
64,192,67869,1,0,0:0:0:0:
320,192,68155,1,8,0:0:0:0:
448,192,68298,1,0,0:0:0:0:
320,192,68441,1,0,0:0:0:0:
192,192,68726,1,8,0:0:0:0:
64,192,68726,1,0,0:0:0:0:
320,192,69298,1,0,0:0:0:0:
448,192,69298,1,8,0:0:0:0:
320,192,69725,1,0,0:0:0:0:
448,192,69868,1,8,0:0:0:0:
320,192,70011,1,0,0:0:0:0:
448,192,70154,1,0,0:0:0:0:
192,192,70296,1,0,0:0:0:0:
320,192,70439,1,8,0:0:0:0:
192,192,70582,1,0,0:0:0:0:
320,192,70725,1,0,0:0:0:0:
64,192,70868,1,0,0:0:0:0:
192,192,71011,1,8,0:0:0:0:
64,192,71154,1,0,0:0:0:0:
192,192,71296,1,0,0:0:0:0:
192,192,72011,1,0,0:0:0:0:
64,192,72154,1,8,0:0:0:0:
192,192,72297,1,0,0:0:0:0:
64,192,72440,1,0,0:0:0:0:
320,192,72582,1,0,0:0:0:0:
192,192,72725,1,8,0:0:0:0:
320,192,72868,1,0,0:0:0:0:
192,192,73011,1,0,0:0:0:0:
448,192,73154,1,0,0:0:0:0:
320,192,73297,1,8,0:0:0:0:
448,192,73440,1,0,0:0:0:0:
320,192,73582,1,0,0:0:0:0:
448,192,74154,1,8,0:0:0:0:
320,192,74154,1,0,0:0:0:0:
320,192,74345,1,0,0:0:0:0:
448,192,74345,1,8,0:0:0:0:
320,192,74535,1,0,0:0:0:0:
448,192,74535,1,8,0:0:0:0:
320,192,74726,128,4,75297:0:0:0:0:
448,192,75012,1,8,0:0:0:0:
448,192,75297,1,0,0:0:0:0:
64,192,75583,1,8,0:0:0:0:
192,192,75726,1,0,0:0:0:0:
320,192,75869,128,0,76155:0:0:0:0:
448,192,76155,1,8,0:0:0:0:
64,192,76440,1,0,0:0:0:0:
192,192,76512,1,0,0:0:0:0:
320,192,76583,1,0,0:0:0:0:
448,192,76655,1,0,0:0:0:0:
64,192,76726,1,8,0:0:0:0:
192,192,76797,1,0,0:0:0:0:
320,192,76869,1,0,0:0:0:0:
448,192,76940,1,0,0:0:0:0:
64,192,77012,1,0,0:0:0:0:
192,192,77012,1,0,0:0:0:0:
448,192,77297,1,0,0:0:0:0:
320,192,77297,1,8,0:0:0:0:
192,192,77583,1,0,0:0:0:0:
64,192,77583,1,0,0:0:0:0:
320,192,77869,1,8,0:0:0:0:
448,192,77869,1,0,0:0:0:0:
64,192,78155,1,0,0:0:0:0:
192,192,78155,1,0,0:0:0:0:
192,192,78297,1,0,0:0:0:0:
64,192,78297,1,0,0:0:0:0:
320,192,78440,1,8,0:0:0:0:
448,192,78440,1,0,0:0:0:0:
64,192,79011,1,8,0:0:0:0:
192,192,79154,1,0,0:0:0:0:
320,192,79297,128,0,79868:0:0:0:0:
448,192,79583,1,8,0:0:0:0:
448,192,79868,1,0,0:0:0:0:
64,192,80154,1,8,0:0:0:0:
192,192,80297,1,0,0:0:0:0:
320,192,80440,128,0,80726:0:0:0:0:
448,192,80726,1,8,0:0:0:0:
64,192,81011,1,0,0:0:0:0:
192,192,81083,1,0,0:0:0:0:
320,192,81154,1,0,0:0:0:0:
448,192,81226,1,0,0:0:0:0:
64,192,81297,1,8,0:0:0:0:
192,192,81368,1,0,0:0:0:0:
320,192,81440,1,0,0:0:0:0:
448,192,81511,1,0,0:0:0:0:
64,192,81583,1,0,0:0:0:0:
192,192,81583,1,0,0:0:0:0:
320,192,81868,1,0,0:0:0:0:
448,192,81868,1,8,0:0:0:0:
64,192,82154,1,0,0:0:0:0:
192,192,82154,1,0,0:0:0:0:
320,192,82440,1,0,0:0:0:0:
448,192,82440,1,8,0:0:0:0:
64,192,82726,1,0,0:0:0:0:
192,192,82726,1,0,0:0:0:0:
64,192,82868,1,0,0:0:0:0:
192,192,82868,1,0,0:0:0:0:
320,192,83011,1,0,0:0:0:0:
448,192,83011,1,8,0:0:0:0:
192,192,83583,1,8,0:0:0:0:
320,192,83726,1,0,0:0:0:0:
448,192,83869,128,4,85583:0:0:0:0:
192,192,84155,1,8,0:0:0:0:
64,192,84297,1,0,0:0:0:0:
192,192,84440,1,0,0:0:0:0:
192,192,84726,1,8,0:0:0:0:
64,192,84869,1,0,0:0:0:0:
192,192,85012,1,0,0:0:0:0:
192,192,85297,1,8,0:0:0:0:
64,192,85440,1,0,0:0:0:0:
192,192,85583,1,0,0:0:0:0:
320,192,85868,1,8,0:0:0:0:
192,192,86011,1,0,0:0:0:0:
64,192,86154,128,0,87868:0:0:0:0:
320,192,86440,1,8,0:0:0:0:
448,192,86582,1,0,0:0:0:0:
320,192,86725,1,0,0:0:0:0:
320,192,87011,1,8,0:0:0:0:
448,192,87154,1,0,0:0:0:0:
320,192,87297,1,0,0:0:0:0:
320,192,87582,1,8,0:0:0:0:
448,192,87725,1,0,0:0:0:0:
320,192,87868,1,0,0:0:0:0:
64,192,88297,128,0,88440:0:0:0:0:
192,192,88726,128,0,88869:0:0:0:0:
320,192,89155,128,0,89297:0:0:0:0:
320,192,89440,1,0,0:0:0:0:
448,192,89583,128,0,89869:0:0:0:0:
192,192,90154,1,0,0:0:0:0:
64,192,90154,1,0,0:0:0:0:
320,192,90439,1,0,0:0:0:0:
192,192,90439,1,0,0:0:0:0:
320,192,90725,1,0,0:0:0:0:
448,192,90725,1,4,0:0:0:0:
64,192,99868,5,0,0:0:0:0:
448,192,100440,1,0,0:0:0:0:
192,192,101011,128,0,101583:0:0:0:0:
320,192,101583,128,0,102154:0:0:0:0:
192,192,102154,128,0,103868:0:0:0:0:
64,192,108725,5,8,0:0:0:0:
192,192,108868,1,0,0:0:0:0:
320,192,109011,128,4,109582:0:0:0:0:
448,192,109297,1,8,0:0:0:0:
448,192,109582,1,0,0:0:0:0:
64,192,109868,1,8,0:0:0:0:
192,192,110011,1,0,0:0:0:0:
320,192,110154,128,0,110440:0:0:0:0:
448,192,110440,1,8,0:0:0:0:
64,192,110725,1,0,0:0:0:0:
192,192,110797,1,0,0:0:0:0:
320,192,110868,1,0,0:0:0:0:
448,192,110940,1,0,0:0:0:0:
64,192,111011,1,8,0:0:0:0:
192,192,111082,1,0,0:0:0:0:
320,192,111154,1,0,0:0:0:0:
448,192,111225,1,0,0:0:0:0:
192,192,111297,1,0,0:0:0:0:
64,192,111297,1,0,0:0:0:0:
320,192,111582,1,8,0:0:0:0:
448,192,111582,1,0,0:0:0:0:
64,192,111868,1,0,0:0:0:0:
192,192,111868,1,0,0:0:0:0:
320,192,112154,1,8,0:0:0:0:
448,192,112154,1,0,0:0:0:0:
192,192,112440,1,0,0:0:0:0:
64,192,112440,1,0,0:0:0:0:
64,192,112582,1,0,0:0:0:0:
192,192,112582,1,0,0:0:0:0:
448,192,112725,1,0,0:0:0:0:
320,192,112725,1,8,0:0:0:0:
64,192,113297,1,8,0:0:0:0:
192,192,113440,1,0,0:0:0:0:
320,192,113583,128,0,114154:0:0:0:0:
448,192,113869,1,8,0:0:0:0:
448,192,114154,1,0,0:0:0:0:
64,192,114440,1,8,0:0:0:0:
192,192,114583,1,0,0:0:0:0:
320,192,114726,128,0,115012:0:0:0:0:
448,192,115012,1,8,0:0:0:0:
64,192,115297,1,0,0:0:0:0:
192,192,115369,1,0,0:0:0:0:
320,192,115440,1,0,0:0:0:0:
448,192,115512,1,0,0:0:0:0:
64,192,115583,1,8,0:0:0:0:
192,192,115654,1,0,0:0:0:0:
320,192,115726,1,0,0:0:0:0:
448,192,115797,1,0,0:0:0:0:
64,192,115869,1,0,0:0:0:0:
192,192,115869,1,0,0:0:0:0:
320,192,116154,1,8,0:0:0:0:
448,192,116154,1,0,0:0:0:0:
64,192,116440,1,0,0:0:0:0:
192,192,116440,1,0,0:0:0:0:
320,192,116726,1,8,0:0:0:0:
448,192,116726,1,0,0:0:0:0:
64,192,117012,1,0,0:0:0:0:
192,192,117012,1,0,0:0:0:0:
64,192,117154,1,0,0:0:0:0:
192,192,117154,1,0,0:0:0:0:
320,192,117297,1,8,0:0:0:0:
448,192,117297,1,0,0:0:0:0:
192,192,117868,1,8,0:0:0:0:
320,192,118011,1,0,0:0:0:0:
448,192,118154,128,4,119868:0:0:0:0:
192,192,118440,1,8,0:0:0:0:
64,192,118582,1,0,0:0:0:0:
192,192,118725,1,0,0:0:0:0:
192,192,119011,1,8,0:0:0:0:
64,192,119154,1,0,0:0:0:0:
192,192,119297,1,0,0:0:0:0:
192,192,119582,1,8,0:0:0:0:
64,192,119725,1,0,0:0:0:0:
192,192,119868,1,0,0:0:0:0:
320,192,120154,1,8,0:0:0:0:
192,192,120297,1,0,0:0:0:0:
64,192,120440,128,0,122154:0:0:0:0:
320,192,120726,1,8,0:0:0:0:
448,192,120868,1,0,0:0:0:0:
320,192,121011,1,0,0:0:0:0:
320,192,121297,1,8,0:0:0:0:
448,192,121440,1,0,0:0:0:0:
320,192,121583,1,0,0:0:0:0:
320,192,121868,1,8,0:0:0:0:
448,192,122011,1,0,0:0:0:0:
320,192,122154,1,0,0:0:0:0:
64,192,122583,128,0,122726:0:0:0:0:
192,192,123012,128,0,123155:0:0:0:0:
320,192,123441,128,0,123583:0:0:0:0:
320,192,123726,1,0,0:0:0:0:
448,192,123869,128,0,124155:0:0:0:0:
64,192,124440,1,0,0:0:0:0:
192,192,124440,1,0,0:0:0:0:
192,192,124725,1,0,0:0:0:0:
320,192,124725,1,0,0:0:0:0:
320,192,125011,1,0,0:0:0:0:
448,192,125011,1,4,0:0:0:0:
64,192,127011,1,8,0:0:0:0:
192,192,127154,1,0,0:0:0:0:
320,192,127297,128,4,127868:0:0:0:0:
448,192,127583,1,8,0:0:0:0:
448,192,127868,1,0,0:0:0:0:
64,192,128154,1,8,0:0:0:0:
192,192,128297,1,0,0:0:0:0:
320,192,128440,128,0,128726:0:0:0:0:
448,192,128726,1,8,0:0:0:0:
64,192,129011,1,0,0:0:0:0:
192,192,129083,1,0,0:0:0:0:
320,192,129154,1,0,0:0:0:0:
448,192,129226,1,0,0:0:0:0:
64,192,129297,1,8,0:0:0:0:
192,192,129368,1,0,0:0:0:0:
320,192,129440,1,0,0:0:0:0:
448,192,129511,1,0,0:0:0:0:
64,192,129583,1,0,0:0:0:0:
192,192,129583,1,0,0:0:0:0:
320,192,129868,1,8,0:0:0:0:
448,192,129868,1,0,0:0:0:0:
64,192,130154,1,0,0:0:0:0:
192,192,130154,1,0,0:0:0:0:
320,192,130440,1,8,0:0:0:0:
448,192,130440,1,0,0:0:0:0:
64,192,130726,1,0,0:0:0:0:
192,192,130726,1,0,0:0:0:0:
64,192,130868,1,0,0:0:0:0:
192,192,130868,1,0,0:0:0:0:
320,192,131011,1,8,0:0:0:0:
448,192,131011,1,0,0:0:0:0:
64,192,131583,1,8,0:0:0:0:
192,192,131726,1,0,0:0:0:0:
320,192,131869,128,0,132440:0:0:0:0:
448,192,132155,1,8,0:0:0:0:
448,192,132440,1,0,0:0:0:0:
64,192,132726,1,8,0:0:0:0:
192,192,132869,1,0,0:0:0:0:
320,192,133012,128,0,133298:0:0:0:0:
448,192,133298,1,8,0:0:0:0:
64,192,133583,1,0,0:0:0:0:
192,192,133655,1,0,0:0:0:0:
320,192,133726,1,0,0:0:0:0:
448,192,133798,1,0,0:0:0:0:
64,192,133869,1,8,0:0:0:0:
192,192,133940,1,0,0:0:0:0:
320,192,134012,1,0,0:0:0:0:
448,192,134083,1,0,0:0:0:0:
192,192,134155,1,0,0:0:0:0:
64,192,134155,1,0,0:0:0:0:
448,192,134440,1,0,0:0:0:0:
320,192,134440,1,8,0:0:0:0:
192,192,134726,1,0,0:0:0:0:
64,192,134726,1,0,0:0:0:0:
448,192,135012,1,0,0:0:0:0:
320,192,135012,1,8,0:0:0:0:
192,192,135298,1,0,0:0:0:0:
64,192,135298,1,0,0:0:0:0:
192,192,135440,1,0,0:0:0:0:
64,192,135440,1,0,0:0:0:0:
448,192,135583,1,0,0:0:0:0:
320,192,135583,1,8,0:0:0:0:
192,192,136154,1,8,0:0:0:0:
320,192,136297,1,0,0:0:0:0:
448,192,136440,128,4,138154:0:0:0:0:
192,192,136726,1,8,0:0:0:0:
64,192,136868,1,0,0:0:0:0:
192,192,137011,1,0,0:0:0:0:
192,192,137297,1,8,0:0:0:0:
64,192,137440,1,0,0:0:0:0:
192,192,137583,1,0,0:0:0:0:
192,192,137868,1,8,0:0:0:0:
64,192,138011,1,0,0:0:0:0:
192,192,138154,1,0,0:0:0:0:
320,192,138440,1,8,0:0:0:0:
192,192,138583,1,0,0:0:0:0:
64,192,138726,128,0,140440:0:0:0:0:
320,192,139012,1,8,0:0:0:0:
448,192,139154,1,0,0:0:0:0:
320,192,139297,1,0,0:0:0:0:
320,192,139583,1,8,0:0:0:0:
448,192,139726,1,0,0:0:0:0:
320,192,139869,1,0,0:0:0:0:
320,192,140154,1,8,0:0:0:0:
448,192,140297,1,0,0:0:0:0:
320,192,140440,1,0,0:0:0:0:
64,192,140868,128,0,141011:0:0:0:0:
192,192,141297,128,0,141440:0:0:0:0:
320,192,141726,128,0,141868:0:0:0:0:
320,192,142011,1,0,0:0:0:0:
448,192,142154,128,0,142440:0:0:0:0:
192,192,142725,1,0,0:0:0:0:
64,192,142725,1,0,0:0:0:0:
320,192,143010,1,0,0:0:0:0:
192,192,143010,1,0,0:0:0:0:
320,192,143296,1,0,0:0:0:0:
448,192,143296,1,4,0:0:0:0:
448,192,145440,128,0,145583:0:0:0:0:
320,192,145869,128,0,146012:0:0:0:0:
192,192,146298,128,0,146440:0:0:0:0:
192,192,146583,1,0,0:0:0:0:
64,192,146726,128,0,147012:0:0:0:0:
320,192,147297,1,0,0:0:0:0:
448,192,147297,1,0,0:0:0:0:
192,192,147582,1,0,0:0:0:0:
320,192,147582,1,0,0:0:0:0:
192,192,147868,1,0,0:0:0:0:
64,192,147868,1,4,0:0:0:0:
64,192,150011,1,0,0:0:0:0:
448,192,150154,1,0,0:0:0:0:
448,192,150297,1,0,0:0:0:0:
64,192,150440,1,0,0:0:0:0:
448,192,150583,1,0,0:0:0:0:
448,192,150725,1,0,0:0:0:0:
64,192,150868,1,0,0:0:0:0:
448,192,151011,1,0,0:0:0:0:
448,192,151154,1,0,0:0:0:0:
448,192,151297,1,0,0:0:0:0:
320,192,151583,1,0,0:0:0:0:
192,192,151868,1,0,0:0:0:0:
320,192,152154,1,0,0:0:0:0:
64,192,152440,1,0,0:0:0:0:
448,192,152440,1,4,0:0:0:0:
