osu file format v14

[General]
AudioFilename: Power Rangers Lost Galaxy (Full HD).mp3
AudioLeadIn: 0
PreviewTime: 33280
Countdown: 0
SampleSet: Normal
StackLeniency: 0.7
Mode: 0
LetterboxInBreaks: 1
WidescreenStoryboard: 0

[Editor]
DistanceSpacing: 1.4
BeatDivisor: 4
GridSize: 4
TimelineZoom: 1

[Metadata]
Title:Power Rangers Lost Galaxy opening theme
TitleUnicode:Power Rangers Lost Galaxy opening theme
Artist:Jeremy Sweet
ArtistUnicode:Jeremy Sweet
Creator:przepson
Version:Galaxy
Source:Power Rangers
Tags:Power Rangers Lost Galaxy Megazord jump short
BeatmapID:1083571
BeatmapSetID:509528

[Difficulty]
HPDrainRate:6
CircleSize:4.2
OverallDifficulty:9
ApproachRate:9
SliderMultiplier:1.8
SliderTickRate:1

[Events]
//Background and Video events
0,0,"pr6__galaxy_by_scottasl-d76afx2.jpg",0,0
//Break Periods
//Storyboard Layer 0 (Background)
//Storyboard Layer 1 (Fail)
//Storyboard Layer 2 (Pass)
//Storyboard Layer 3 (Foreground)
//Storyboard Sound Samples

[TimingPoints]
947,333.333333333333,4,1,0,20,1,0
1280,-200,4,1,0,20,0,0
6113,-125,4,1,0,20,0,0
6614,-100,4,1,0,20,0,0
21113,-100,4,3,0,30,0,0
22613,-100,4,1,0,20,0,0
27946,-90.9090909090909,4,1,0,20,0,0
35946,-66.6666666666667,4,1,0,20,0,1
51946,-50,4,1,0,20,0,1
52030,-100,4,1,0,20,0,0
52946,-200,4,1,0,20,0,0

[HitObjects]
124,120,946,5,0,0:0:0:0:
200,232,1113,1,0,0:0:0:0:
280,96,1280,2,0,P|356:56|408:232,1,315
200,274,2613,2,0,P|115:285|126:102,1,315
256,160,3946,1,0,0:0:0:0:
256,160,4113,1,0,0:0:0:0:
256,160,4280,2,0,B|316:136|328:56|328:56|352:92|408:48|504:108|304:276,1,450
306,274,6113,5,0,0:0:0:0:
180,156,6280,1,0,0:0:0:0:
120,228,6446,1,0,0:0:0:0:
48,124,6613,6,0,P|64:104|176:72,1,144
336,148,7280,1,0,0:0:0:0:
336,148,7446,1,0,0:0:0:0:
432,216,7613,1,0,0:0:0:0:
364,312,7780,2,0,P|308:320|280:296,1,90
168,276,8113,2,0,P|112:284|84:260,1,90
428,148,8613,6,0,P|456:124|480:60,2,90
288,232,9113,1,0,0:0:0:0:
288,232,9280,1,0,0:0:0:0:
164,100,9446,1,0,0:0:0:0:
132,212,9613,1,0,0:0:0:0:
356,60,9946,5,0,0:0:0:0:
452,196,10113,1,0,0:0:0:0:
356,60,10280,1,0,0:0:0:0:
336,220,10446,2,0,B|340:268|268:308|268:308|276:244,2,180
160,184,11446,1,0,0:0:0:0:
48,324,11780,5,8,0:0:0:0:
160,88,12280,1,0,0:0:0:0:
212,260,12446,1,0,0:0:0:0:
364,164,12613,2,0,B|432:144|432:144|468:32,1,180
176,40,13280,5,8,0:0:0:0:
404,272,13613,1,0,0:0:0:0:
208,336,13780,1,0,0:0:0:0:
316,160,13946,2,0,B|288:108|252:100|252:100|184:168,1,180
472,52,14613,5,8,0:0:0:0:
132,88,14946,1,0,0:0:0:0:
52,300,15113,1,0,0:0:0:0:
276,320,15280,2,0,B|288:352|288:352|392:328|392:328|376:272,1,180
36,32,15946,5,0,0:0:0:0:
44,40,16863,5,0,0:0:0:0:
104,272,17280,6,0,P|152:320|272:328,1,180
448,248,17946,1,0,0:0:0:0:
376,144,18113,1,0,0:0:0:0:
264,200,18280,1,0,0:0:0:0:
208,88,18446,2,0,P|168:64|128:112,1,90
84,200,18780,2,0,P|64:244|92:288,1,90
328,340,19280,5,0,0:0:0:0:
432,216,19446,1,0,0:0:0:0:
288,216,19613,1,0,0:0:0:0:
360,80,19780,2,0,B|420:56|420:56|368:0|216:64,1,270
88,176,20613,2,0,P|56:248|52:296,2,90
172,48,21113,5,8,0:0:0:0:
172,48,21196,1,8,0:0:0:0:
172,48,21280,1,8,0:0:0:0:
320,88,21447,1,8,0:0:0:0:
172,48,21613,1,8,0:0:0:0:
232,204,21780,1,8,0:0:0:0:
172,48,21947,1,8,0:0:0:0:
344,100,22113,1,8,0:0:0:0:
172,48,22280,1,8,0:0:0:0:
244,228,22447,1,8,0:0:0:0:
172,48,22613,5,8,0:0:0:0:
76,300,22946,6,0,L|76:208,1,90
188,248,23280,2,0,P|208:312|296:272,1,180
32,36,23946,5,8,0:0:0:0:
439,293,24280,6,0,L|359:339,1,90
338,222,24614,2,0,P|383:173|305:117,1,180
36,344,25280,5,0,0:0:0:0:
72,90,25613,6,0,L|152:44,1,90
173,161,25947,2,0,P|128:210|206:266,1,180
472,36,26613,5,0,0:0:0:0:
460,48,27196,5,0,0:0:0:0:
80,116,27946,5,0,0:0:0:0:
80,116,28113,1,0,0:0:0:0:
104,244,28280,2,0,P|116:304|168:324,1,99.0000030212403
432,300,28613,5,0,0:0:0:0:
432,300,28780,1,0,0:0:0:0:
432,172,28946,2,0,P|445:125|420:84,1,99.0000030212403
252,344,29280,5,0,0:0:0:0:
364,280,29446,1,0,0:0:0:0:
448,184,29613,2,0,P|476:140|476:76,1,99.0000030212403
260,40,29946,5,0,0:0:0:0:
148,104,30112,1,0,0:0:0:0:
63,200,30279,2,0,P|37:240|31:289,1,99.0000030212403
288,248,30613,6,0,L|384:208,1,99.0000030212403
264,152,30946,1,0,0:0:0:0:
240,168,31030,1,0,0:0:0:0:
220,188,31113,1,0,0:0:0:0:
356,220,31280,1,0,0:0:0:0:
472,144,31446,1,0,0:0:0:0:
452,116,31530,1,0,0:0:0:0:
424,96,31613,1,0,0:0:0:0:
296,40,31780,1,0,0:0:0:0:
60,56,31946,6,0,P|40:88|32:148,1,99.0000030212403
148,116,32280,2,0,P|168:148|176:208,1,99.0000030212403
296,204,32613,2,0,P|276:236|268:296,1,99.0000030212403
380,260,32946,2,0,P|400:292|408:352,1,99.0000030212403
456,128,33280,6,0,B|428:104|480:56|480:56|452:52|408:24|408:24|340:64,1,198.000006042481
380,40,33780,1,0,0:0:0:0:
256,120,33946,2,0,P|232:144|232:188,2,49.5000015106202
132,204,34280,2,0,P|108:228|108:272,2,49.5000015106202
280,304,34613,5,0,0:0:0:0:
428,248,34780,1,0,0:0:0:0:
288,156,34946,1,0,0:0:0:0:
360,320,35113,1,0,0:0:0:0:
360,132,35280,1,0,0:0:0:0:
220,272,35446,1,0,0:0:0:0:
124,88,35613,1,0,0:0:0:0:
256,248,35946,6,0,P|256:192|328:192,1,135.000005149842
256,248,36280,2,0,P|304:276|268:338,1,135.000005149842
255,248,36613,2,0,P|207:275|171:213,1,135.000005149842
256,248,36946,2,0,P|256:192|328:192,1,135.000005149842
40,220,37280,5,0,0:0:0:0:
240,220,37446,1,0,0:0:0:0:
40,220,37613,1,0,0:0:0:0:
308,180,37780,1,0,0:0:0:0:
40,220,37946,1,0,0:0:0:0:
376,140,38113,1,0,0:0:0:0:
40,220,38280,1,0,0:0:0:0:
436,92,38446,1,0,0:0:0:0:
220,60,38613,6,0,P|120:88|64:152,1,135.000005149842
40,260,38946,2,0,P|96:224|162:213,1,135.000005149842
272,316,39280,6,0,P|228:232|326:317,1,405.000015449525
424,164,39946,1,0,0:0:0:0:
372,116,40030,1,0,0:0:0:0:
324,68,40113,1,0,0:0:0:0:
120,56,40280,1,0,0:0:0:0:
64,248,40446,1,0,0:0:0:0:
104,192,40530,1,0,0:0:0:0:
144,136,40613,1,0,0:0:0:0:
284,280,40780,1,0,0:0:0:0:
436,192,40946,1,0,0:0:0:0:
292,108,41280,6,0,P|336:108|420:60,1,135.000005149842
340,228,41613,2,0,P|340:272|387:356,1,135.000005149842
220,276,41946,2,0,P|176:276|92:324,1,135.000005149842
172,156,42280,2,0,P|172:112|124:28,1,135.000005149842
221,311,42613,5,0,0:0:0:0:
375,226,42780,1,0,0:0:0:0:
290,72,42946,1,0,0:0:0:0:
136,157,43113,1,0,0:0:0:0:
107,277,43280,1,0,0:0:0:0:
170,43,43446,1,0,0:0:0:0:
404,106,43613,1,0,0:0:0:0:
341,340,43780,1,0,0:0:0:0:
288,152,43946,6,0,L|336:104,2,67.5000025749208
140,84,44280,2,0,L|92:36,2,67.5000025749208
87,77,44613,6,0,P|285:61|397:217,1,405.000015449525
244,324,45280,1,0,0:0:0:0:
244,324,45363,1,0,0:0:0:0:
244,324,45446,1,0,0:0:0:0:
56,148,45613,1,0,0:0:0:0:
300,68,45780,1,0,0:0:0:0:
300,68,45863,1,0,0:0:0:0:
300,68,45946,1,0,0:0:0:0:
420,296,46113,1,0,0:0:0:0:
488,120,46280,1,0,0:0:0:0:
48,36,46613,6,0,L|48:176,1,135.000005149842
160,96,46946,2,0,L|135:233,1,135.000005149842
304,156,47280,2,0,L|244:282,1,135.000005149842
472,216,47613,2,0,L|364:305,1,135.000005149842
36,212,47946,5,0,0:0:0:0:
164,312,48113,1,0,0:0:0:0:
36,104,48280,1,0,0:0:0:0:
284,312,48446,1,0,0:0:0:0:
472,88,48613,1,0,0:0:0:0:
196,348,48780,1,0,0:0:0:0:
404,32,48946,1,0,0:0:0:0:
40,332,49113,1,0,0:0:0:0:
220,80,49280,6,0,P|156:104|120:172,1,135.000005149842
292,304,49613,2,0,P|355:280|392:212,1,135.000005149842
160,36,49946,6,0,B|120:68|120:160|120:160|76:148|60:104|60:104|32:168|116:276,1,405.000015449525
136,56,50613,6,0,L|60:32,2,67.5000025749208
416,160,50947,1,0,0:0:0:0:
132,244,51113,2,0,L|64:272,2,67.5000025749208
476,160,51447,1,0,0:0:0:0:
180,160,51613,1,0,0:0:0:0:
404,88,51946,6,0,P|448:72|480:8,1,90
116,324,52946,5,0,0:0:0:0:
256,240,53113,1,0,0:0:0:0:
404,152,53280,2,0,P|480:100|352:88,1,315
208,172,54613,2,0,B|148:204|148:204|136:152|180:112|176:72|176:72|136:56|76:104,1,315
384,192,55946,1,0,0:0:0:0:
384,192,56113,1,0,0:0:0:0:
384,192,56280,1,0,0:0:0:0:
256,192,56446,12,0,58613,0:0:0:0:
