osu file format v5

[General]
AudioFilename: Music_Battlezone.ogg
AudioLeadIn: 1985
PreviewTime: -1
Countdown: 1
SampleSet: Normal
StackLeniency: 0.9
Mode: 0
LetterboxInBreaks: 1
EditorBookmarks: 16020,17070,18556,19756,20956,22156,28770,30570
EditorDistanceSpacing: 0.699999988079071

[Metadata]
Title:Battlezone
Artist:Jeremy Soule
Creator:blissfulyoshi
Version:Normal
Source:Atlantica
Tags:Atlantica

[Difficulty]
HPDrainRate:5
CircleSize:4
OverallDifficulty:3
SliderMultiplier:1.2
SliderTickRate:2

[Events]
//Background and Video events
0,0,"bg3.JPG"
//Break Periods
//Storyboard Layer 0 (Background)
//Storyboard Layer 1 (Failing)
//Storyboard Layer 2 (Passing)
//Storyboard Layer 3 (Foreground)
//Storyboard Sound Samples
//Background Colour Transformations
3,100,163,162,255

[TimingPoints]
556,300,4,1,0,60,1,0

[Colours]
Combo1 : 232,45,84
Combo2 : 194,170,200
Combo3 : 224,203,86
Combo4 : 117,189,213

[HitObjects]
440,40,556,2,4,B|240:40,1,180
80,192,1756,2,4,B|272:192,1,180,0|0
448,344,2956,6,4,B|264:344,1,180,4|0
24,344,4156,2,4,B|216:344,1,180,0|0
203,296,4756,1,8
204,152,5206,1,8
344,152,5656,5,0
392,152,5806,1,0
272,296,6406,2,0,B|344:296,5,60
496,192,7756,1,8
400,192,8056,6,0,B|320:216|312:88|208:48,1,240,0|0
216,104,8806,2,8,B|216:176,5,60
80,304,10156,1,8
176,304,10456,6,0,B|424:304,1,240,0|0
417,208,11356,2,8,B|481:208,4,60,8|8|8|8|8
200,208,12856,6,0,B|264:24|344:128|448:120,1,300,0|0
440,168,13756,1,8
440,264,14056,1,8
352,304,14356,5,8
256,304,14656,1,8
160,304,14956,1,12
440,224,15856,5,0
440,128,16156,2,0,B|416:24|160:32|128:120,1,360,0|0
128,208,17356,1,4
128,304,17656,5,4
176,304,17806,1,4
280,208,18256,1,8
280,112,18556,2,8,B|280:16|280:16|480:16|480:16|480:208,1,480
424,272,20056,6,0,B|153:273,1,240,8|0
88,272,20956,2,0,B|40:360|0:264|0:152|16:0|32:8|152:0|208:48|216:40,1,480,0|8
304,40,22456,5,4
448,40,22906,1,2
448,40,23056,2,0,B|344:120,1,120,0|0
408,192,23656,1,0
328,248,23956,6,6,C|208:40|288:336|136:152,1,780,6|6
144,112,26056,2,6,C|-7:230|184:360,1,420,4|4
173,353,27256,1,8
248,296,27556,2,2,C|376:296,1,120,2|2
368,200,28156,2,2,B|168:200,1,180
136,200,28756,6,6,C|66:48|122:24|218:96|354:56|448:264,1,720
352,280,30856,2,6,C|216:328|152:336|272:160,1,420
264,128,32056,1,0
352,184,32356,1,0
432,128,32656,1,0
352,72,32956,2,0,C|168:72,1,180,0|0
120,72,33556,6,4,B|32:136|0:280|176:304|224:304,1,360
272,304,34606,2,4,B|491:300|499:212|499:100|451:28,1,420
360,37,35956,6,4,B|152:0|16:128,1,360
24,168,37006,2,4,B|32:328|240:344|360:328|440:280,1,480,0|0
464,264,38356,6,4,B|344:48,1,240
264,104,39256,1,8
176,152,39556,1,8
88,200,39856,1,8
88,296,40156,2,0,B|344:312,1,240,0|4
376,312,40906,6,0,B|440:136,1,180,0|0
376,64,41656,1,8
376,64,41806,1,8
224,64,42256,1,8
152,128,42556,2,0,B|200:248|360:168,1,240
440,136,43456,5,8
376,64,43756,1,8
280,64,44056,1,0
184,64,44356,2,0,B|104:80|104:144,1,120
104,232,44956,1,8
200,232,45256,1,8
200,328,45556,6,0,B|304:352|448:320,1,240,0|8
440,224,46456,2,0,B|440:136,2,60
344,224,47056,1,8
248,224,47356,5,0
152,224,47656,1,8
256,192,47956,12,4,49756
