osu file format v7

[General]
AudioFilename: Jeremih - Birthday Sex Uptempo Remix.mp3
AudioLeadIn: 0
PreviewTime: 54341
Countdown: 0
SampleSet: Normal
StackLeniency: 0.7
Mode: 0
LetterboxInBreaks: 1

[Editor]
Bookmarks: 54341,73285,98972,105968
DistanceSpacing: 0.699999988079071
BeatDivisor: 4
GridSize: 8

[Metadata]
Title:Birthday Sex (Uptempo Mix)
Artist:Jeremih
Creator:hybrid579
Version:Easy
Source:
Tags:emaal Teara

[Difficulty]
HPDrainRate:4
CircleSize:3
OverallDifficulty:3
SliderMultiplier:1.3
SliderTickRate:1

[Events]
//Background and Video events
0,0,"wallpaper2_1024.jpg"
//Break Periods
2,68552,72028
2,102503,105049
//Storyboard Layer 0 (Background)
//Storyboard Layer 1 (Fail)
//Storyboard Layer 2 (Pass)
//Storyboard Layer 3 (Foreground)
//Storyboard Sound Samples
//Background Colour Transformations
3,100,163,162,255

[TimingPoints]
439,465.116279069767,4,1,1,45,1,0
23061,-100,4,1,1,0,0,0
24635,465.080226339044,4,1,1,45,1,0
24635,-100,4,1,1,44,0,0
39517,-100,4,1,1,45,0,1
54410,-100,4,1,1,45,0,0
106489,-100,4,1,1,45,0,1
121265,-100,4,1,1,45,0,0

[Colours]
Combo1 : 117,0,0
Combo2 : 255,0,0
Combo3 : 64,0,0
Combo4 : 0,0,160

[HitObjects]
256,192,10206,1,0
192,128,10671,1,8
128,64,11136,2,0,B|64:160|64:256|320:320,1,390,0|8
416,160,13462,1,4
192,160,14392,5,8
192,64,14857,1,0
192,64,15322,1,0
192,64,15787,2,0,B|352:64,2,130,0|8|0
96,64,17183,1,0
96,160,17648,5,0
96,256,18113,1,8
288,192,19043,1,0
320,288,19508,2,0,B|192:320|128:320|128:288|256:88,1,390
320,32,21369,5,0
320,128,21834,1,8
320,264,22764,1,0
320,264,23229,2,0,B|160:264|96:232|32:200|96:40,1,390
192,64,25100,5,8
288,64,25565,1,0
384,64,26030,2,8,B|512:64|480:224|376:224,1,260,8|8
336,144,27425,2,0,B|176:144,2,130,0|8|0
424,144,28820,6,0,B|424:304,1,130,8|0
328,280,29750,2,0,B|40:280,1,260,8|8
72,192,31146,1,0
72,104,31611,1,0
128,256,32541,5,8
224,256,33006,1,0
320,256,33471,2,8,B|480:256|512:128|416:96,2,260,8|8|8
256,192,35796,12,0,39517
192,64,39982,6,0,B|352:64,2,130,8|0|8
192,160,41377,1,0
288,160,41842,2,0,B|448:160,2,130,8|0|8
256,192,43005,12,0,46958
192,288,47423,6,0,B|352:288,2,130,8|0|8
192,184,48819,1,0
296,184,49284,2,0,B|456:184,2,130,8|0|8
256,192,50679,12,0,54400
96,56,54865,6,0,B|360:56,1,260,8|8
360,144,56260,2,0,B|72:144,1,260
104,232,57655,2,0,B|392:232,1,260,8|8
256,192,59516,12,0,61376
48,48,61841,6,0,B|144:112|144:112|64:160|64:160|128:216,1,260,0|8
288,200,63701,2,0,B|384:136|384:136|304:88|304:88|368:32,1,260,0|8
232,200,65562,6,0,B|56:224|-32:160|240:32,2,390,0|0|8
440,48,73468,5,0
352,48,73933,1,0
264,48,74398,1,0
264,136,74863,2,0,B|264:272,3,130
264,344,77189,5,0
264,344,77421,1,0
264,344,77654,1,4
88,288,78584,5,0
176,288,79049,1,0
264,288,79514,2,0,B|416:288|448:208,1,195
432,88,80909,6,0,B|336:24|144:-8|48:56|48:184|48:248,2,520,8|8|8
432,176,85095,1,0
352,216,85560,1,0
272,256,86025,2,0,B|80:192|208:96|240:64,2,260
360,256,88350,6,0,B|360:96,1,130,8|0
360,32,89281,2,0,B|72:32|72:32|72:288,1,520,8|8
160,264,91606,1,4
248,264,92071,6,0,B|384:264,1,130,8|0
376,176,93001,2,0,B|376:32,1,130,8|0
288,48,93931,2,0,B|152:48,2,130,8|0|0
288,232,95792,5,8
287,232,96257,2,0,B|471:232|519:64|253:44,2,390,0|8|0
256,192,99512,12,0,102303
416,320,106489,5,0
328,320,106954,2,0,B|168:320,2,130,8|0|8
328,232,108349,1,0
240,232,108814,2,0,B|80:232,2,130,8|0|8
256,192,109977,12,0,113930
320,64,114395,6,0,B|160:64,2,130,8|0|8
320,152,115790,1,0
232,152,116255,2,0,B|72:152,2,130,8|0|8
256,192,117418,12,0,120906
56,48,121371,6,0,B|472:48,1,390,0|8
448,136,123232,2,0,B|48:136,1,390,0|8
56,224,125092,5,0
144,224,125557,1,8
240,64,126487,6,0,B|528:64|528:256|240:288,1,520,8|0
248,200,128812,6,0,B|248:48,2,130,0|0|8
64,200,130673,2,0,B|64:56,2,130,0|0|8
248,200,132533,6,0,B|560:200|560:40|224:40,2,520,0|0|4
