osu file format v14

[General]
AudioFilename: track.mp3
AudioLeadIn: 0
PreviewTime: 46624
Countdown: 0
SampleSet: Normal
StackLeniency: 0.7
Mode: 0
LetterboxInBreaks: 0
WidescreenStoryboard: 0

[Editor]
DistanceSpacing: 1.2
BeatDivisor: 4
GridSize: 4
TimelineZoom: 3.099999

[Metadata]
Title:Somebody (Nightcore Mix)
TitleUnicode:Somebody (Nightcore Mix)
Artist:Jens O.
ArtistUnicode:Jens O.
Creator:Kazuya
Version:Dance
Source:
Tags:Cc.K Remix trance techno handzup Kazuya-sama
BeatmapID:626001
BeatmapSetID:276041

[Difficulty]
HPDrainRate:7
CircleSize:4
OverallDifficulty:8
ApproachRate:9
SliderMultiplier:1.75
SliderTickRate:1

[Events]
//Background and Video events
0,0,"bg.jpg",0,0
//Break Periods
//Storyboard Layer 0 (Background)
//Storyboard Layer 1 (Fail)
//Storyboard Layer 2 (Pass)
//Storyboard Layer 3 (Foreground)
//Storyboard Sound Samples

[TimingPoints]
13710,342.857142857143,4,2,1,70,1,0
13710,-133.333333333333,4,2,1,70,0,0
35652,-100,4,1,1,70,0,0
46624,-100,4,1,1,70,0,1
56224,-100,4,1,1,70,0,0
57938,-100,4,1,1,70,0,1
68567,-100,4,1,1,70,0,0
87767,-133.333333333333,4,1,1,70,0,0
90852,-133.333333333333,4,2,1,70,0,0
106967,-100,4,2,1,70,0,0
112452,-100,4,1,1,70,0,1
122052,-100,4,1,1,70,0,0
123424,-100,4,1,1,70,0,1
131652,-100,4,1,1,70,0,0
134738,-100,4,3,1,90,0,0
145452,-100,4,2,1,5,0,0

[Colours]
Combo1 : 215,40,163
Combo2 : 33,218,222
Combo3 : 149,186,86
Combo4 : 225,219,104
SliderBorder : 255,255,255

[HitObjects]
120,188,13710,5,4,0:0:0:0:
120,188,14052,2,0,L|108:328,2,131.25000500679,2|2|2,0:0|0:0|0:0,0:0:0:0:
135,97,14909,2,0,P|163:109|219:105,1,65.6250025033952,2|0,0:0|0:0,0:0:0:0:
286,85,15252,2,0,P|348:64|424:80,1,131.25000500679,2|2,0:0|0:0,0:0:0:0:
492,120,15767,1,2,0:0:0:0:
456,204,15938,1,2,0:0:0:0:
372,240,16109,2,0,P|339:231|304:232,1,65.6250025033952,2|0,0:0|0:0,0:0:0:0:
232,284,16452,6,0,L|160:288,1,65.6250025033952,2|0,0:0|0:0,0:0:0:0:
57,227,16795,2,0,L|122:223,1,65.6250025033952,2|0,0:0|0:0,0:0:0:0:
24,296,17138,2,0,L|8:160,1,131.25000500679,2|2,0:0|0:0,0:0:0:0:
52,84,17652,2,0,P|104:112|192:100,1,131.25000500679,2|2,0:0|0:0,0:0:0:0:
256,64,18167,1,0,0:0:0:0:
337,108,18338,2,0,P|402:113|460:84,2,131.25000500679,2|2|0,0:0|0:0|0:0,0:0:0:0:
256,64,19195,5,4,3:0:0:0:
132,200,19538,2,0,P|72:172|-4:188,2,131.25000500679,2|2|2,0:0|0:0|0:0,0:0:0:0:
196,266,20395,2,0,P|232:290|256:294,1,65.6250025033952,2|0,0:0|0:0,0:0:0:0:
345,303,20738,2,0,L|369:167,1,131.25000500679,2|2,0:0|0:0,0:0:0:0:
388,84,21252,1,2,0:0:0:0:
312,32,21424,1,2,0:0:0:0:
246,96,21595,2,0,P|214:108|178:104,1,65.6250025033952,2|0,0:0|0:0,0:0:0:0:
96,76,21938,6,0,L|99:10,1,65.6250025033952,2|0,0:0|0:0,0:0:0:0:
44,151,22281,2,0,L|47:216,1,65.6250025033952,2|0,0:0|0:0,0:0:0:0:
57,308,22624,2,0,P|109:340|189:324,1,131.25000500679,2|2,0:0|0:0,0:0:0:0:
244,269,23138,2,0,P|216:208|240:132,1,131.25000500679,2|2,0:0|0:0,0:0:0:0:
285,74,23652,1,0,0:0:0:0:
285,74,23995,2,0,P|344:92|416:80,1,131.25000500679,2|2,0:0|0:0,0:0:0:0:
491,34,24510,1,2,0:0:0:0:
491,34,24681,5,4,0:0:0:0:
468,216,25024,2,0,L|476:356,2,131.25000500679,2|2|2,0:0|0:0|0:0,0:0:0:0:
416,140,25881,1,2,0:0:0:0:
338,188,26052,2,0,P|306:196|270:196,2,65.6250025033952,4|0|2,3:0|0:0|3:0,0:0:0:0:
416,140,26567,1,0,0:0:0:0:
380,56,26738,1,4,3:0:0:0:
292,28,26910,1,2,0:0:0:0:
226,92,27081,2,0,P|193:103|150:100,1,65.6250025033952,2|2,3:0|0:0,0:0:0:0:
72,84,27424,6,0,L|80:152,1,65.6250025033952,2|0,0:0|0:0,0:0:0:0:
164,250,27767,2,0,L|156:184,1,65.6250025033952,2|0,0:0|0:0,0:0:0:0:
92,300,28110,2,0,P|152:336|220:320,1,131.25000500679,2|2,0:0|0:0,0:0:0:0:
284,272,28624,2,0,L|420:260,1,131.25000500679,2|2,0:0|0:0,0:0:0:0:
488,204,29138,1,0,0:0:0:0:
460,116,29310,2,0,P|428:108|392:112,1,65.6250025033952,2|0,0:0|0:0,0:0:0:0:
281,174,29652,2,0,P|312:181|345:179,2,65.6250025033952,2|0|0,0:0|0:0|0:0,0:0:0:0:
200,129,30167,5,4,3:0:0:0:
48,232,30510,2,0,L|40:368,2,131.25000500679,2|2|2,0:0|0:0|0:0,0:0:0:0:
56,140,31367,1,2,0:0:0:0:
138,181,31538,2,0,L|134:249,2,65.6250025033952,4|0|2,3:0|0:0|3:0,0:0:0:0:
203,116,32052,1,0,0:0:0:0:
288,152,32224,1,4,3:0:0:0:
359,94,32395,2,0,L|347:26,2,65.6250025033952,2|2|2,0:0|3:0|0:0,0:0:0:0:
375,185,32910,6,0,P|408:190|437:204,1,65.6250025033952,2|0,0:0|0:0,0:0:0:0:
298,233,33252,2,0,P|264:227|226:205,1,65.6250025033952,2|0,0:0|0:0,0:0:0:0:
188,136,33595,2,0,L|168:276,1,131.25000500679,2|2,0:0|0:0,0:0:0:0:
95,321,34110,2,0,P|64:324|28:308,1,65.6250025033952,2|0,0:0|0:0,0:0:0:0:
170,266,34452,2,0,P|201:263|237:279,1,65.6250025033952,2|0,0:0|0:0,0:0:0:0:
308,328,34795,1,0,0:0:0:0:
397,304,34967,2,0,L|412:172,1,131.25000500679,2|2,0:0|0:0,0:0:0:0:
420,82,35481,1,2,0:0:0:0:
420,82,35652,6,0,P|376:93|332:88,1,87.5,4|0,0:0|0:0,0:0:0:0:
240,44,35995,1,0,0:0:0:0:
160,112,36167,1,0,0:0:0:0:
72,56,36338,2,0,L|60:236,1,175
56,336,36852,1,0,0:0:0:0:
144,278,37024,6,0,P|217:243|312:248,1,175
404,292,37538,2,0,L|396:380,1,87.5
492,232,37881,2,0,L|484:144,1,87.5
416,64,38224,1,0,0:0:0:0:
416,64,38310,1,0,0:0:0:0:
416,64,38395,6,0,P|375:77|328:72,1,87.5
228,52,38738,1,0,0:0:0:0:
148,120,38910,1,0,0:0:0:0:
160,224,39081,2,0,P|260:244|324:204,1,175
390,131,39595,1,0,0:0:0:0:
484,178,39767,6,0,P|508:256|480:344,1,175,0|0,0:0|0:0,0:0:0:0:
380,312,40281,1,0,0:0:0:0:
380,312,40367,1,0,0:0:0:0:
380,312,40452,2,0,P|337:297|288:304,1,87.5
208,360,40795,1,0,0:0:0:0:
108,328,40967,1,0,0:0:0:0:
108,328,41052,1,0,0:0:0:0:
108,328,41138,6,0,L|80:244,1,87.5,8|0,0:0|0:0,0:0:0:0:
108,72,41481,2,0,L|135:155,1,87.5,8|0,0:0|0:0,0:0:0:0:
184,249,41824,2,0,P|224:260|276:248,1,87.5,8|0,0:0|0:0,0:0:0:0:
399,134,42167,2,0,P|357:122|315:132,1,87.5,8|0,0:0|0:0,0:0:0:0:
465,224,42510,5,8,0:0:0:0:
508,128,42681,1,0,0:0:0:0:
452,39,42852,1,8,0:0:0:0:
347,38,43024,1,0,0:0:0:0:
284,120,43195,2,0,L|280:216,1,87.5,8|0,0:0|0:0,0:0:0:0:
180,352,43538,2,0,L|176:264,1,87.5,8|0,0:0|0:0,0:0:0:0:
169,160,43881,5,8,3:0:0:0:
94,31,44052,1,8,3:0:0:0:
196,58,44224,1,8,3:0:0:0:
67,132,44395,1,8,3:0:0:0:
79,46,44567,5,8,3:0:0:0:
154,175,44738,1,8,3:0:0:0:
52,147,44910,1,8,3:0:0:0:
181,73,45081,1,8,3:0:0:0:
266,136,45252,5,8,3:0:0:0:
298,178,45338,1,8,3:0:0:0:
350,187,45424,1,8,3:0:0:0:
398,165,45510,1,8,3:0:0:0:
443,191,45595,1,8,3:0:0:0:
459,241,45681,1,8,3:0:0:0:
437,289,45767,1,8,3:0:0:0:
387,304,45852,1,8,3:0:0:0:
343,275,45938,1,4,0:0:0:0:
148,352,46281,5,8,0:0:0:0:
12,192,46624,6,0,L|8:104,1,87.5,4|0,0:0|0:0,0:0:0:0:
76,24,46967,1,0,0:0:0:0:
148,100,47138,1,0,0:0:0:0:
248,68,47310,2,0,P|320:28|424:64,1,175
491,111,47824,1,0,0:0:0:0:
416,184,47995,6,0,P|376:196|324:192,1,87.5
256,120,48338,1,0,0:0:0:0:
187,199,48510,2,0,P|196:242|183:284,1,87.5
88,138,48852,2,0,P|80:94|92:54,1,87.5
186,101,49195,1,0,0:0:0:0:
186,101,49367,6,0,P|228:116|280:108,1,87.5
364,64,49710,1,0,0:0:0:0:
440,136,49881,1,0,0:0:0:0:
508,56,50052,2,0,L|492:244,1,175
481,336,50567,1,0,0:0:0:0:
392,280,50738,6,0,P|328:232|232:248,1,175
147,296,51252,1,0,0:0:0:0:
147,296,51338,1,0,0:0:0:0:
147,296,51424,2,0,L|154:383,1,87.5
48,244,51767,2,0,L|55:156,1,87.5
112,68,52110,6,0,P|152:84|200:80,1,87.5
296,52,52452,1,8,0:0:0:0:
380,116,52624,1,0,0:0:0:0:
480,84,52795,2,0,P|504:164|476:248,1,175,0|8,0:0|0:0,0:0:0:0:
416,336,53310,1,0,0:0:0:0:
328,280,53481,6,0,P|288:268|240:276,1,87.5
148,320,53824,1,8,0:0:0:0:
60,264,53995,2,0,L|52:176,1,87.5
152,32,54338,2,0,L|160:120,1,87.5,0|8,0:0|0:0,0:0:0:0:
168,224,54681,1,0,0:0:0:0:
256,280,54852,6,0,P|296:264|348:272,1,87.5
440,300,55195,1,8,0:0:0:0:
504,216,55367,1,0,0:0:0:0:
472,116,55538,2,0,P|396:148|304:136,1,175,0|8,0:0|0:0,0:0:0:0:
220,76,56052,1,8,3:0:0:0:
124,120,56224,6,0,P|120:164|104:204,1,87.5,0|8,0:0|3:0,0:0:0:0:
40,288,56567,1,0,0:0:0:0:
116,360,56738,1,8,3:0:0:0:
184,280,56910,2,0,P|228:276|276:280,1,87.5,0|8,0:0|3:0,0:0:0:0:
399,160,57252,2,0,P|355:164|307:160,1,87.5,0|8,0:0|3:0,0:0:0:0:
473,84,57595,6,0,P|504:146|466:242,1,175,4|8,0:0|0:0,0:0:0:0:
384,304,58110,1,0,0:0:0:0:
296,248,58281,2,0,P|256:212|116:232,1,175,0|8,0:0|0:0,0:0:0:0:
48,264,58795,1,0,0:0:0:0:
48,264,58967,6,0,L|40:176,1,87.5
96,88,59310,1,8,0:0:0:0:
184,144,59481,2,0,P|224:156|268:148,1,87.5
422,64,59824,2,0,P|380:51|337:60,1,87.5,0|8,0:0|0:0,0:0:0:0:
337,236,60167,1,0,0:0:0:0:
337,236,60338,6,0,P|379:244|421:232,1,87.5
508,172,60681,1,8,0:0:0:0:
476,72,60852,1,0,0:0:0:0:
376,40,61024,2,0,P|300:72|204:64,1,175,0|8,0:0|0:0,0:0:0:0:
116,16,61538,1,0,0:0:0:0:
32,80,61710,6,0,L|36:168,1,87.5
44,272,62052,1,8,0:0:0:0:
144,240,62224,1,0,0:0:0:0:
144,240,62310,1,0,0:0:0:0:
144,240,62395,2,0,L|156:140,1,87.5
264,16,62738,2,0,L|274:102,1,87.5,8|0,0:0|0:0,0:0:0:0:
304,276,63081,6,0,P|344:292|392:288,1,87.5,4|0,0:0|0:0,0:0:0:0:
476,232,63424,1,8,0:0:0:0:
444,132,63595,1,0,0:0:0:0:
340,116,63767,2,0,P|264:152|176:140,1,175,0|8,0:0|0:0,0:0:0:0:
96,72,64281,1,0,0:0:0:0:
24,148,64452,6,0,P|18:191|24:236,1,87.5
64,332,64795,1,8,0:0:0:0:
156,280,64967,2,0,P|196:288|244:280,1,87.5
395,196,65310,2,0,P|352:187|309:195,1,87.5,0|8,0:0|0:0,0:0:0:0:
308,371,65652,1,0,0:0:0:0:
308,371,65824,6,0,P|350:378|393:370,1,87.5
484,316,66167,1,8,0:0:0:0:
476,212,66338,1,0,0:0:0:0:
392,148,66510,2,0,P|308:156|220:132,1,175,0|8,0:0|0:0,0:0:0:0:
128,84,67024,1,0,0:0:0:0:
40,140,67195,6,0,P|32:184|40:228,1,87.5
100,312,67538,1,0,0:0:0:0:
184,248,67710,1,0,0:0:0:0:
284,280,67881,2,0,L|296:368,1,87.5
352,200,68224,2,0,L|363:113,1,87.5
284,280,68567,6,0,P|380:301|444:252,1,175,4|0,0:0|0:0,0:0:0:0:
496,172,69081,1,0,0:0:0:0:
440,84,69252,2,0,P|400:72|356:80,1,87.5
191,144,69595,2,0,P|233:156|276:147,1,87.5
131,49,69938,6,0,L|111:229,1,175
168,312,70452,1,0,0:0:0:0:
248,244,70624,2,0,L|336:236,1,87.5
436,92,70967,2,0,L|348:100,1,87.5
501,12,71310,6,0,L|481:192,1,175
470,291,71824,1,0,0:0:0:0:
376,244,71995,2,0,P|336:228|288:232,1,87.5
133,304,72338,2,0,P|173:320|216:317,1,87.5
216,142,72681,6,0,L|40:120,1,175
102,33,73195,1,0,0:0:0:0:
102,33,73367,2,0,L|190:45,1,87.5
302,153,73710,2,0,L|216:142,1,87.5
359,76,74052,6,0,P|396:152|356:232,1,175,0|8,0:0|0:0,0:0:0:0:
285,303,74567,1,0,0:0:0:0:
240,277,74652,1,0,0:0:0:0:
188,284,74738,1,0,0:0:0:0:
96,336,74910,1,0,0:0:0:0:
24,260,75081,1,8,0:0:0:0:
36,156,75252,1,0,0:0:0:0:
128,104,75424,6,0,P|208:136|312:124,1,175,0|8,0:0|0:0,0:0:0:0:
392,88,75938,1,0,0:0:0:0:
434,120,76024,1,0,0:0:0:0:
441,172,76110,1,0,0:0:0:0:
400,268,76281,1,0,0:0:0:0:
296,256,76452,1,8,0:0:0:0:
212,320,76624,1,0,0:0:0:0:
112,288,76795,6,0,L|100:100,1,175,0|8,0:0|0:0,0:0:0:0:
164,28,77310,1,0,0:0:0:0:
205,60,77395,1,0,0:0:0:0:
257,68,77481,1,0,0:0:0:0:
360,48,77652,1,0,0:0:0:0:
428,128,77824,2,0,P|420:172|428:216,1,87.5,8|0,0:0|0:0,0:0:0:0:
508,281,78167,6,0,L|332:261,1,175
248,200,78681,1,0,0:0:0:0:
199,181,78767,1,8,3:0:0:0:
152,203,78852,1,8,3:0:0:0:
49,226,79024,1,0,0:0:0:0:
41,210,79367,1,0,0:0:0:0:
83,50,79538,6,0,P|123:42|171:50,1,87.5,4|0,0:0|0:0,0:0:0:0:
334,108,79881,2,0,P|291:116|248:108,1,87.5,8|0,0:0|0:0,0:0:0:0:
292,12,80224,1,0,0:0:0:0:
396,22,80395,1,0,0:0:0:0:
440,118,80567,1,8,0:0:0:0:
381,205,80738,1,0,0:0:0:0:
276,200,80910,6,0,P|239:177|196:176,1,87.5
18,196,81252,2,0,P|56:219|99:220,1,87.5,8|0,0:0|0:0,0:0:0:0:
196,177,81595,1,0,0:0:0:0:
282,117,81767,1,0,0:0:0:0:
363,183,81938,1,8,0:0:0:0:
318,278,82110,1,0,0:0:0:0:
213,272,82281,6,0,L|113:276,1,87.5
7,178,82624,2,0,L|95:175,1,87.5,8|0,0:0|0:0,0:0:0:0:
188,128,82967,1,0,0:0:0:0:
298,47,83138,1,0,0:0:0:0:
256,176,83310,1,8,0:0:0:0:
214,47,83481,1,0,0:0:0:0:
323,128,83652,6,0,L|414:143,1,87.5
496,270,83995,2,0,L|409:284,1,87.5,8|0,0:0|0:0,0:0:0:0:
323,224,84338,1,0,0:0:0:0:
214,305,84509,1,0,0:0:0:0:
256,176,84681,1,8,0:0:0:0:
298,305,84852,1,0,0:0:0:0:
188,224,85024,6,0,L|100:216,1,87.5
201,99,85367,2,0,L|289:91,1,87.5,8|0,0:0|0:0,0:0:0:0:
380,40,85710,1,0,0:0:0:0:
452,116,85881,1,0,0:0:0:0:
420,216,86052,1,8,0:0:0:0:
316,232,86224,1,0,0:0:0:0:
248,152,86395,6,0,P|256:108|248:64,1,87.5
168,192,86738,2,0,P|160:236|168:280,1,87.5,8|0,0:0|0:0,0:0:0:0:
216,371,87081,1,0,0:0:0:0:
320,356,87252,1,0,0:0:0:0:
336,252,87424,1,8,0:0:0:0:
256,184,87595,1,0,0:0:0:0:
184,263,87767,6,0,P|122:268|66:228,1,131.25000500679
10,175,88281,1,0,0:0:0:0:
10,175,88452,1,8,0:0:0:0:
148,100,88795,2,0,P|180:112|228:108,1,65.6250025033952
288,96,89138,2,0,P|352:80|420:88,2,131.25000500679,0|0|8,0:0|0:0|0:0,0:0:0:0:
108,248,90338,1,0,0:0:0:0:
108,248,90510,5,4,1:0:0:0:
256,300,90852,2,0,L|400:304,2,131.25000500679,2|2|2,0:0|0:0|0:0,0:0:0:0:
183,268,91710,2,0,P|191:232|191:188,1,65.6250025033952,2|0,0:0|0:0,0:0:0:0:
131,154,92052,2,0,L|267:166,1,131.25000500679,2|0,0:0|0:0,0:0:0:0:
329,208,92567,1,8,1:0:0:0:
399,172,92738,1,0,0:0:0:0:
456,228,92910,2,0,L|448:304,1,65.6250025033952
376,316,93252,6,0,P|344:312|308:316,1,65.6250025033952,2|0,0:0|0:0,0:0:0:0:
170,339,93595,2,0,P|203:343|236:340,1,65.6250025033952,2|0,0:0|0:0,0:0:0:0:
232,199,93938,2,0,P|171:185|100:200,1,131.25000500679,8|2,1:0|0:0,0:0:0:0:
61,264,94452,2,0,L|49:116,1,131.25000500679,2|2,0:0|0:0,0:0:0:0:
44,54,94967,1,0,0:0:0:0:
116,86,95138,2,0,P|149:89|188:80,1,65.6250025033952,2|8,0:0|1:0,0:0:0:0:
228,20,95481,2,0,P|212:80|232:152,1,131.25000500679,2|2,0:0|0:0,0:0:0:0:
279,206,95995,5,8,3:0:0:0:
279,206,96338,2,0,L|423:194,2,131.25000500679,2|8|2,0:0|1:0|0:0,0:0:0:0:
212,248,97195,2,0,L|144:252,1,65.6250025033952,2|0,0:0|0:0,0:0:0:0:
119,326,97538,2,0,L|251:318,1,131.25000500679,2|2,0:0|0:0,0:0:0:0:
289,315,97967,1,0,0:0:0:0:
328,312,98052,1,8,1:0:0:0:
403,336,98224,1,2,0:0:0:0:
468,292,98395,2,0,L|472:224,1,65.6250025033952,2|0,0:0|0:0,0:0:0:0:
436,156,98738,6,0,L|364:148,1,65.6250025033952,2|0,0:0|0:0,0:0:0:0:
250,84,99081,2,0,L|316:92,1,65.6250025033952,2|0,0:0|0:0,0:0:0:0:
200,24,99424,2,0,P|172:77|204:148,1,131.25000500679,8|2,1:0|0:0,0:0:0:0:
265,177,99938,2,0,P|202:168|141:205,1,131.25000500679,2|2,0:0|0:0,0:0:0:0:
99,264,100452,1,0,0:0:0:0:
141,337,100624,2,0,L|133:367,3,16.4062506258488
148,326,100795,2,0,P|204:294|267:302,1,131.25000500679,8|2,1:0|0:0,0:0:0:0:
336,344,101310,1,2,0:0:0:0:
336,344,101481,5,4,0:0:0:0:
440,228,101824,2,0,P|464:160|444:104,2,131.25000500679,2|2|2,0:0|0:0|0:0,0:0:0:0:
384,284,102681,2,0,P|352:269|312:272,1,65.6250025033952,2|0,0:0|0:0,0:0:0:0:
244,280,103024,2,0,P|176:296|116:276,1,131.25000500679,2|2,0:0|0:0,0:0:0:0:
56,230,103538,1,0,0:0:0:0:
44,152,103710,2,0,L|35:76,2,65.6250025033952,0|2|0,0:0|0:0|0:0,0:0:0:0:
56,230,104224,6,0,P|88:236|120:232,1,65.6250025033952,2|0,0:0|0:0,0:0:0:0:
260,209,104567,2,0,P|228:203|196:208,1,65.6250025033952,2|0,0:0|0:0,0:0:0:0:
311,271,104910,2,0,P|339:207|315:151,1,131.25000500679,2|2,0:0|0:0,0:0:0:0:
255,105,105424,2,0,L|395:117,1,131.25000500679,2|2,0:0|0:0,0:0:0:0:
456,80,105938,1,2,0:0:0:0:
496,148,106110,2,0,L|492:220,1,65.6250025033952,2|0,0:0|0:0,0:0:0:0:
484,292,106452,2,0,P|424:304|352:292,1,131.25000500679,2|2,0:0|0:0,0:0:0:0:
289,250,106967,6,0,L|200:244,1,87.5,4|0,3:0|0:0,0:0:0:0:
38,180,107310,2,0,L|125:174,1,87.5,4|0,3:0|0:0,0:0:0:0:
168,78,107652,2,0,P|256:98|340:78,1,175,4|4,3:0|3:0,0:0:0:0:
432,32,108167,1,8,3:0:0:0:
432,32,108252,1,8,3:0:0:0:
432,32,108338,6,0,L|440:128,1,87.5,4|0,3:0|0:0,0:0:0:0:
448,224,108681,1,8,3:0:0:0:
372,296,108852,2,0,P|332:280|280:288,1,87.5,0|8,0:0|3:0,0:0:0:0:
188,316,109195,1,0,0:0:0:0:
96,264,109367,1,4,3:0:0:0:
128,164,109538,1,8,3:0:0:0:
128,164,109624,1,8,3:0:0:0:
128,164,109710,6,0,P|172:172|216:164,1,87.5,4|0,3:0|0:0,0:0:0:0:
308,120,110052,1,4,3:0:0:0:
400,172,110224,1,8,3:0:0:0:
400,172,110310,1,8,3:0:0:0:
400,172,110395,2,0,L|396:264,1,87.5,4|0,3:0|0:0,0:0:0:0:
324,336,110738,1,4,3:0:0:0:
232,284,110910,1,8,3:0:0:0:
232,284,110995,1,8,3:0:0:0:
232,284,111081,6,0,L|144:276,1,87.5,4|8,3:0|3:0,0:0:0:0:
27,184,111424,2,0,L|115:176,1,87.5,8|8,3:0|3:0,0:0:0:0:
189,102,111767,1,4,3:0:0:0:
298,181,111938,1,4,3:0:0:0:
256,52,112110,1,4,3:0:0:0:
214,181,112281,1,4,3:0:0:0:
324,101,112452,6,0,P|366:112|419:111,1,87.5,4|0,0:0|0:0,0:0:0:0:
510,144,112795,1,0,0:0:0:0:
461,238,112967,1,0,0:0:0:0:
361,208,113138,2,0,P|285:184|193:216,1,175
118,282,113652,1,0,0:0:0:0:
36,216,113824,6,0,P|28:168|36:128,1,87.5
96,44,114167,1,0,0:0:0:0:
184,100,114338,2,0,L|196:192,1,87.5
261,350,114681,2,0,L|273:264,1,87.5
289,160,115024,1,0,0:0:0:0:
289,160,115195,6,0,P|333:176|377:172,1,87.5
473,140,115538,1,0,0:0:0:0:
512,238,115710,1,0,0:0:0:0:
428,300,115881,2,0,P|352:268|260:276,1,175
164,316,116395,1,0,0:0:0:0:
72,264,116567,6,0,L|64:168,1,87.5
96,76,116910,1,0,0:0:0:0:
196,108,117081,1,0,0:0:0:0:
196,108,117167,1,0,0:0:0:0:
196,108,117252,2,0,P|239:100|284:109,1,87.5
423,196,117595,2,0,P|380:203|337:195,1,87.5
486,120,117938,6,0,L|470:304,1,175,0|8,0:0|0:0,0:0:0:0:
388,360,118452,1,0,0:0:0:0:
320,280,118624,2,0,P|256:244|144:264,1,175,0|8,0:0|0:0,0:0:0:0:
72,316,119138,1,0,0:0:0:0:
8,232,119310,6,0,L|24:136,1,87.5
41,43,119652,1,8,0:0:0:0:
132,96,119824,2,0,P|176:88|220:96,1,87.5
372,159,120167,2,0,P|329:166|286:159,1,87.5,0|8,0:0|0:0,0:0:0:0:
437,88,120510,1,0,0:0:0:0:
437,88,120681,6,0,P|468:169|426:240,1,175,0|8,0:0|0:0,0:0:0:0:
339,300,121195,1,0,0:0:0:0:
255,236,121367,2,0,L|79:220,1,175,0|8,0:0|0:0,0:0:0:0:
0,152,121881,1,0,0:0:0:0:
84,52,122052,5,0,0:0:0:0:
190,130,122224,1,0,0:0:0:0:
322,130,122395,1,0,0:0:0:0:
428,52,122567,1,0,0:0:0:0:
512,152,122738,2,0,L|496:252,1,87.5
413,361,123081,2,0,L|399:274,1,87.5
323,130,123424,6,0,P|274:137|236:132,1,87.5,4|0,0:0|0:0,0:0:0:0:
134,108,123767,1,8,0:0:0:0:
72,192,123938,1,0,0:0:0:0:
124,284,124110,2,0,P|172:256|296:268,1,175,0|8,0:0|0:0,0:0:0:0:
388,296,124624,1,0,0:0:0:0:
468,228,124795,6,0,L|460:136,1,87.5
388,64,125138,1,8,0:0:0:0:
292,106,125310,2,0,P|284:63|292:20,1,87.5
348,192,125652,2,0,P|355:234|347:277,1,87.5,0|8,0:0|0:0,0:0:0:0:
276,356,125995,1,0,0:0:0:0:
208,276,126167,6,0,L|112:264,1,87.5
28,216,126510,1,8,0:0:0:0:
60,116,126681,1,0,0:0:0:0:
60,116,126767,1,0,0:0:0:0:
60,116,126852,2,0,P|143:133|232:104,1,175,0|8,0:0|0:0,0:0:0:0:
320,56,127367,1,0,0:0:0:0:
396,128,127538,6,0,P|388:168|396:216,1,87.5
432,312,127881,1,8,0:0:0:0:
332,344,128052,1,0,0:0:0:0:
332,344,128138,1,0,0:0:0:0:
332,344,128224,2,0,P|288:352|244:344,1,87.5
118,238,128567,2,0,P|160:230|203:237,1,87.5,8|0,0:0|0:0,0:0:0:0:
34,282,128910,6,0,P|24:240|33:196,1,87.5,4|0,0:0|0:0,0:0:0:0:
64,96,129252,1,8,0:0:0:0:
148,160,129424,1,0,0:0:0:0:
220,84,129595,2,0,P|300:112|388:100,1,175,0|8,0:0|0:0,0:0:0:0:
484,56,130110,1,0,0:0:0:0:
484,56,130195,1,0,0:0:0:0:
484,56,130281,6,0,L|480:152,1,87.5
476,249,130624,1,8,0:0:0:0:
390,189,130795,2,0,P|347:179|304:186,1,87.5
152,275,131138,2,0,P|194:283|237:276,1,87.5,0|8,0:0|0:0,0:0:0:0:
304,187,131481,1,0,0:0:0:0:
236,108,131652,6,0,P|244:64|236:20,1,87.5
180,187,131995,2,0,P|172:230|179:273,1,87.5
380,212,132338,1,0,2:0:0:0:
276,231,132510,1,0,0:0:0:0:
408,111,132681,1,0,0:0:0:0:
512,92,132853,1,0,0:0:0:0:
317,60,133024,6,0,P|248:28|137:52,1,175
64,100,133538,1,0,0:0:0:0:
64,100,133624,1,0,0:0:0:0:
64,100,133710,2,0,L|80:288,1,175,8|0,0:0|0:0,0:0:0:0:
164,336,134224,1,0,0:0:0:0:
256,284,134395,5,4,0:0:0:0:
256,284,134738,2,0,L|360:272,1,87.5,2|0,0:0|0:0,0:0:0:0:
490,198,135081,2,0,L|404:188,1,87.5,8|0,3:0|0:0,0:0:0:0:
336,108,135424,1,2,0:0:0:0:
248,164,135595,1,0,0:0:0:0:
164,100,135767,6,0,L|176:8,2,87.5,0|0|2,0:0|0:0|0:0,0:0:0:0:
152,204,136281,1,0,0:0:0:0:
88,287,136452,1,8,1:0:0:0:
88,287,136538,1,0,0:0:0:0:
88,287,136624,2,0,P|44:304|0:296,2,87.5,0|2|0,0:0|0:0|0:0,0:0:0:0:
152,204,137138,6,0,L|164:104,1,87.5,2|0,0:0|0:0,0:0:0:0:
239,275,137481,2,0,L|249:361,1,87.5,2|0,0:0|0:0,0:0:0:0:
317,183,137824,2,0,P|245:215|149:203,1,175,8|2,3:0|0:0,0:0:0:0:
64,144,138338,2,0,L|76:52,2,87.5
48,248,138852,1,2,0:0:0:0:
132,312,139024,2,0,P|172:300|220:304,1,87.5,0|8,0:0|1:0,0:0:0:0:
320,328,139367,1,0,0:0:0:0:
408,272,139538,2,0,P|404:228|408:180,1,87.5,2|0,0:0|0:0,0:0:0:0:
420,80,139881,5,0,0:0:0:0:
320,48,140052,1,0,0:0:0:0:
320,48,140138,1,0,0:0:0:0:
320,48,140224,2,0,P|272:56|216:52,1,87.5,2|0,0:0|0:0,0:0:0:0:
181,49,140481,1,0,0:0:0:0:
131,32,140567,2,0,L|116:212,1,175,8|2,1:0|0:0,0:0:0:0:
111,312,141081,1,0,0:0:0:0:
212,284,141252,6,0,P|256:272|300:276,1,87.5
400,300,141595,1,2,0:0:0:0:
480,232,141767,1,0,0:0:0:0:
448,132,141938,1,8,1:0:0:0:
448,132,142024,1,0,0:0:0:0:
448,132,142110,2,0,L|464:40,2,87.5,0|2|0,0:0|0:0|0:0,0:0:0:0:
368,200,142624,6,0,P|324:208|280:200,1,87.5,2|0,0:0|0:0,0:0:0:0:
94,176,142967,2,0,P|137:168|180:176,1,87.5,2|0,0:0|0:0,0:0:0:0:
32,272,143310,2,0,L|16:96,1,175,8|2,1:0|0:0,0:0:0:0:
92,24,143824,1,0,0:0:0:0:
180,80,143995,2,0,L|276:88,1,87.5
408,192,144338,2,0,L|320:199,1,87.5,2|0,0:0|0:0,0:0:0:0:
480,272,144681,6,0,P|514:184|480:112,1,175,8|0,1:0|0:0,0:0:0:0:
395,56,145195,1,0,0:0:0:0:
395,56,145367,1,4,3:0:0:0:
256,192,145452,12,0,147767,0:0:0:0:
