osu file format v6

[General]
AudioFilename: WWW.BLONDE GIRL (Momo Mix).mp3
AudioLeadIn: 1511
PreviewTime: 33733
Countdown: 0
SampleSet: Normal
StackLeniency: 0.4
Mode: 0
LetterboxInBreaks: 1

[Editor]
DistanceSpacing: 0.899999976158142
BeatDivisor: 4
GridSize: 8

[Metadata]
Title:WWW.Blonde Girl (MOMO MIX)
Artist:Jenny Rom
Creator:ztrot
Version:Heavy
Source:DDR
Tags:cute blonde

[Difficulty]
HPDrainRate:7
CircleSize:4
OverallDifficulty:8
SliderMultiplier:1.8
SliderTickRate:2

[Events]
//Background and Video events
0,0,"anime-girl-fall-cute.jpg"
//Break Periods
//Storyboard Layer 0 (Background)
//Storyboard Layer 1 (Fail)
//Storyboard Layer 2 (Pass)
//Storyboard Layer 3 (Foreground)
//Storyboard Sound Samples
//Background Colour Transformations
3,100,163,162,255

[TimingPoints]
380.497420423275,352.941176470588,4,1,0,80,1,0
78821,-100,4,1,0,0,0,0

[Colours]
Combo1 : 179,107,0
Combo2 : 255,255,0
Combo3 : 179,0,0
Combo4 : 97,48,48

[HitObjects]
56,344,380,2,0,B|160:344|160:224,1,180,4|0
80,256,909,2,0,B|80:144|208:144,1,180
256,200,1439,1,0
320,248,1615,1,0
344,328,1792,2,0,B|448:328|448:200,1,180,4|0
448,128,2321,1,0
48,48,3204,5,4
72,128,3380,1,0
128,72,3556,1,0
176,136,3733,2,0,B|248:72|288:176|352:112,1,180
400,176,4262,1,0
440,104,4439,1,0
384,48,4615,5,4
128,328,4968,5,4
384,328,5321,5,4
128,48,5674,5,4
256,152,6027,5,0
312,216,6204,1,0
256,280,6380,1,0
200,216,6556,2,0,B|136:296|192:328|64:304,1,180
72,224,7086,1,0
72,144,7262,1,0
144,104,7439,2,0,B|232:152|320:104,1,180
400,104,7968,1,0
72,344,8851,5,6
440,40,9556,5,6
112,192,10262,5,6
256,360,10615,1,6
400,192,10968,1,6
256,24,11321,1,6
184,168,11674,5,0
328,168,11851,1,0
208,216,12027,1,8
304,216,12204,1,0
256,64,12556,1,0
256,64,12733,1,8
256,288,13086,5,4
96,288,13439,5,12
96,128,13792,1,4
256,128,14145,1,12
256,288,14498,5,0
216,216,14674,1,0
296,216,14851,1,8
256,144,15027,1,0
392,336,15380,1,0
392,256,15556,1,8
472,120,15909,5,4
320,56,16262,6,4,B|232:96|264:192|352:192,2,180,8|6|10
168,120,17321,5,0
136,48,17498,1,0
64,88,17674,1,8
72,168,17851,2,0,B|40:272|128:328,1,180,0|0
184,264,18380,1,8
336,312,18733,6,0,B|448:304|464:184,1,180,4|8
360,80,19439,2,0,B|347:180|235:188,1,180,4|8
72,192,20145,5,0
64,272,20321,1,0
136,312,20498,1,8
192,248,20674,2,0,B|280:224|312:296|248:352,1,180,0|0
336,344,21204,1,8
432,216,21556,5,4
432,56,21909,1,8
80,56,22262,5,6
80,216,22615,1,6
328,280,22968,5,4
176,112,23321,1,8
336,112,23674,5,4
184,280,24027,1,8
256,48,24556,6,0,B|256:232,1,180
184,280,25086,1,0
328,280,25262,1,4
176,88,25792,5,4
328,280,26145,1,8
328,88,26498,5,4
184,280,26851,1,8
256,48,27380,6,0,B|256:232,1,180
184,280,27909,1,0
112,232,28086,1,0
80,320,28262,1,8
24,248,28439,1,0
112,144,28615,5,4
400,144,28968,1,8
256,328,29321,5,4
256,56,29674,1,8
456,192,30204,6,0,B|400:264|352:192|288:240,1,180
224,200,30733,1,0
176,264,30909,1,4
48,56,31439,5,0
464,56,31792,1,8
96,136,32145,1,0
416,136,32498,1,8
256,344,32851,1,0
200,280,33027,5,0
312,280,33204,1,8
176,216,33380,1,0
336,216,33556,1,0
152,152,33733,1,0
360,152,33909,1,8
256,32,34086,1,0
256,152,34262,5,4
120,312,34615,1,4
392,312,34968,1,4
256,32,35498,5,0
144,144,35851,1,0
144,224,36027,1,8
216,184,36204,1,0
216,264,36380,1,0
408,112,36909,6,2,B|464:216|360:264,1,180
304,192,37439,1,8
248,256,37615,1,0
200,192,37791,1,0
152,256,37968,1,0
96,192,38144,1,8
96,112,38321,5,4
416,112,38674,1,4
256,336,39027,1,4
256,176,39380,5,0
256,96,39556,1,8
256,16,39733,1,0
336,40,39909,2,0,B|432:96|448:208,2,180,0|8|0
256,272,41145,6,0,B|184:344|88:272,1,180
72,200,41674,1,8
128,144,41851,1,0
184,200,42027,1,0
440,200,42556,5,4
352,64,42909,1,0
352,144,43086,1,0
272,144,43262,1,0
272,224,43439,1,4
272,224,43615,1,4
72,200,43968,6,0,B|112:288|224:288,1,180,4|0
208,208,44498,1,4
136,168,44674,1,0
184,104,44851,1,4
264,88,45027,1,0
336,128,45204,1,4
336,208,45380,1,0
256,320,45556,5,4
96,112,45909,1,4
416,112,46262,1,4
256,320,46792,5,0
320,176,47145,1,0
192,176,47321,1,0
352,120,47498,1,0
160,120,47674,1,4
448,192,48204,6,0,B|448:80|320:80,1,180
256,72,48733,1,8
176,80,48909,1,0
136,152,49086,1,0
160,232,49262,1,0
240,240,49439,1,8
160,232,49615,5,6
352,232,49968,1,6
256,24,50321,1,6
128,144,50674,5,0
136,64,50851,1,8
216,64,51027,1,8
256,184,51204,5,4
152,360,51556,1,4
360,360,51909,1,4
256,184,52439,5,0
152,24,52792,1,0
360,24,53145,1,4
64,304,54027,5,4
144,272,54204,1,0
64,232,54380,1,8
144,200,54556,1,0
64,160,54733,1,4
144,128,54909,1,0
64,88,55086,1,8
144,56,55262,1,0
224,88,55439,5,4
304,120,55615,1,0
224,160,55792,1,0
304,192,55968,1,0
224,232,56145,1,0
304,264,56321,1,0
224,304,56497,1,0
304,336,56674,1,0
400,328,56851,5,4
256,128,57204,1,4
112,328,57556,1,4
256,128,58086,5,0
192,280,58439,1,0
320,280,58615,1,8
216,224,58792,1,0
296,224,58968,1,4
56,48,59498,6,0,B|24:144|72:240,1,180
128,176,60027,1,8
128,96,60204,1,0
200,136,60380,1,0
200,56,60556,1,0
272,96,60733,1,8
272,176,60909,6,0,B|272:288|400:288,2,180,4|4|4
120,328,61968,5,0
72,264,62145,1,8
144,224,62321,1,0
80,168,62498,5,4
256,304,62851,1,4
432,168,63204,1,4
256,8,63733,5,4
192,160,64086,1,0
320,160,64262,1,8
216,232,64439,1,0
296,232,64615,1,4
80,336,65145,6,0,B|8:280|24:160,1,180
56,96,65674,1,8
112,160,65851,1,0
160,96,66027,1,0
216,152,66204,1,4
432,336,66556,6,0,B|504:280|488:160,1,180
456,96,67086,1,8
400,160,67262,1,0
352,96,67439,1,0
296,152,67615,1,0
256,224,67792,1,8
216,152,67968,1,0
256,304,68145,5,4
112,144,68498,1,4
400,144,68851,1,4
256,344,69380,5,4
296,192,69733,1,0
216,192,69909,1,8
328,128,70086,1,0
184,128,70262,1,4
56,336,70792,6,0,B|8:256|104:264|48:152,1,180
40,88,71321,1,8
120,96,71498,1,0
144,176,71674,1,0
224,176,71851,1,0
272,240,72027,1,8
320,176,72204,6,4,B|416:176|448:296,2,180
168,320,73262,5,0
96,280,73439,1,8
80,200,73615,1,0
128,136,73792,6,4,B|176:240|240:280,2,180
384,136,75027,6,4,B|336:240|272:280,2,180
64,96,76439,5,0
80,176,76615,1,4
160,200,76792,1,0
224,144,76968,1,8
224,64,77145,1,0
296,32,77321,1,4
368,64,77498,1,0
368,144,77674,1,8
296,184,77851,1,0
256,256,78027,5,6
152,296,78204,1,6
256,352,78380,1,6
360,296,78556,1,6
256,208,78733,12,0,79439
