osu file format v6

[General]
AudioFilename: Jennifer Rostock - Schmutzig! Schmutzig!.mp3
AudioLeadIn: 1974
PreviewTime: 27642
Countdown: 0
SampleSet: Normal
StackLeniency: 0.4
Mode: 0
LetterboxInBreaks: 1

[Editor]
Bookmarks: 214,13928,27856,46499,62142,82285,94285,99856,122356,127071
DistanceSpacing: 2
BeatDivisor: 4
GridSize: 32

[Metadata]
Title:Schmutzig! Schmutzig!
Artist:Jennifer Rostock
Creator:Nharox
Version:Dirty!
Source:
Tags:

[Difficulty]
HPDrainRate:7
CircleSize:4
OverallDifficulty:7
SliderMultiplier:1.8
SliderTickRate:1

[Events]
//Background and Video events
0,0,"Jennifer^Rostock.png"
//Break Periods
2,41582,45625
2,79297,81411
2,92582,93411
2,123868,124911
//Storyboard Layer 0 (Background)
//Storyboard Layer 1 (Fail)
//Storyboard Layer 2 (Pass)
//Storyboard Layer 3 (Foreground)
//Storyboard Sound Samples
//Background Colour Transformations
3,100,163,162,255

[TimingPoints]
240,428.571428571429,4,2,0,80,1,0
13525,-100,4,1,0,70,0,0
30132,-50,4,1,0,70,0,0
30990,-100,4,1,0,70,0,0
33561,-50,4,1,0,70,0,0
34418,-100,4,1,0,70,0,0
46311,-100,4,1,0,49,0,0
48025,-100,4,1,0,70,0,0
64418,-50,4,1,0,70,0,0
65275,-100,4,1,0,70,0,0
67847,-50,4,1,0,70,0,0
68704,-100,4,1,0,70,0,0
75561,-100,4,1,0,49,0,0
77704,-100,4,1,0,40,0,0
82097,-100,4,1,0,70,0,0
96240,-100,4,1,0,40,0,0
99347,-100,4,1,0,60,0,0
102132,-50,4,1,0,60,0,0
102990,-100,4,1,0,60,0,0
105561,-50,4,1,0,60,0,0
106418,-100,4,1,0,60,0,0
108990,-50,4,1,0,60,0,0
109847,-100,4,1,0,60,0,0
112418,-50,4,1,0,60,0,0
113275,-100,4,1,0,60,0,0
115847,-50,4,1,0,60,0,0
116704,-100,4,1,0,60,0,0
127097,-100,4,1,0,60,0,1

[Colours]
Combo1 : 255,255,255
Combo2 : 179,0,0
Combo3 : 0,157,157
Combo4 : 78,78,156

[HitObjects]
128,192,240,1,0
384,192,1097,1,0
128,192,1954,1,0
384,192,2811,1,0
128,64,3668,5,0
384,64,4525,1,0
128,320,5382,1,0
384,320,6239,1,0
256,320,7097,5,0
192,64,7847,1,0
224,72,7954,1,0
256,64,8061,1,0
288,72,8168,1,0
320,64,8275,1,0
256,192,8597,1,0
256,192,8811,1,0
256,192,9668,1,0
352,80,10525,5,0
160,80,10954,1,0
256,272,11275,2,0,B|256:336,4,45
160,80,12025,5,0
160,80,12239,2,0,B|96:16,4,45
352,80,12882,1,0
352,80,13097,2,0,B|416:16,4,45
256,192,13954,5,0
256,128,14168,1,0
320,160,14382,1,8
320,224,14597,1,0
256,256,14811,1,0
192,224,15025,1,0
192,160,15239,1,8
256,192,15454,6,0,B|256:64,1,90
256,192,15882,2,0,B|384:192,1,90,0|8
256,192,16311,2,0,B|256:288,1,90
256,192,16739,2,0,B|160:192,1,90,0|8
448,288,17382,5,0
384,320,17597,1,0
320,288,17811,1,8
256,320,18025,1,0
192,288,18240,1,0
128,320,18454,1,0
64,288,18668,1,8
64,96,19097,5,0
96,80,19204,1,0
128,64,19311,1,0
160,80,19418,1,0
192,96,19525,1,8
256,64,19740,1,0
320,96,19954,1,0
384,64,20168,1,0
448,96,20382,1,8
64,192,20811,5,0
128,192,21025,1,0
192,192,21240,1,8
224,192,21347,1,0
256,192,21454,1,0
288,192,21561,1,0
320,192,21668,1,0
384,192,21882,1,0
448,192,22097,1,8
96,96,22525,6,0,B|160:64|160:128,1,90
96,160,22954,1,8
160,192,23168,1,0
96,224,23382,1,0
96,288,23597,2,0,B|160:320|160:256,1,90,0|8
416,96,24132,5,0
416,96,24240,2,0,B|352:64|352:128,1,90
416,160,24668,1,8
352,192,24882,1,0
416,224,25097,1,0
416,288,25311,2,0,B|352:320|352:256,1,90,0|8
256,192,25740,5,0
176,112,25954,1,0
96,192,26168,1,0
176,272,26382,1,8
256,192,26597,1,0
336,112,26811,1,0
416,192,27025,1,0
336,272,27240,1,12
256,64,27668,5,0
256,64,27882,1,0
192,64,28097,2,0,B|128:64,2,45,8|0|0
256,64,28525,1,0
256,64,28740,1,0
320,64,28954,2,0,B|384:64,2,45,8|0|0
256,64,29382,5,0
320,128,29597,1,0
256,192,29811,1,8
192,128,30025,1,0
192,128,30240,6,4,B|352:288,1,180
320,128,30668,2,4,B|160:288,1,180,12|4
256,128,31311,6,0,B|256:32,1,90,0|8
256,128,31740,2,0,B|352:224,1,90
256,128,32168,2,0,B|160:224,1,90,0|8
256,128,32597,1,0
256,128,32704,1,0
160,288,33025,5,0
160,288,33240,1,8
160,288,33454,1,0
160,288,33668,2,4,B|254:260|350:292,1,180
337,95,34097,2,4,B|254:124|160:96,1,180,12|4
352,160,34740,5,0
320,224,34954,1,8
288,288,35168,1,0
256,352,35382,1,0
224,288,35597,1,0
192,224,35811,1,8
160,160,36025,1,0
224,160,36240,1,0
288,160,36454,1,0
256,224,36668,1,8
256,224,36882,1,0
256,224,36990,2,0,B|256:64,1,135
320,64,37525,6,0,B|416:64,1,90,8|0
192,64,37954,2,0,B|96:64,1,90
320,160,38382,2,0,B|416:160,1,90,8|0
192,160,38811,2,0,B|96:160,1,90,0|0
256,256,39240,2,0,B|256:352,1,90,8|0
256,346,39668,1,0
256,120,40097,5,8
256,120,40311,1,0
256,120,40525,2,0,B|256:280,2,135,0|0|0
256,120,41382,1,4
192,192,46525,6,0,B|128:192,4,45,0|0|0|0|8
256,192,47168,1,0
320,192,47382,2,0,B|384:192,4,45,0|0|0|0|8
256,64,48239,5,4
256,320,49097,1,4
128,192,49954,6,0,B|128:128|64:128,1,90
128,192,50382,2,0,B|64:192|64:256,1,90,8|0
128,192,50811,2,0,B|128:256|192:256,1,90
128,192,51239,2,0,B|192:192|192:128,1,90,8|0
384,192,51668,6,0,B|384:128|448:128,1,90
384,192,52097,2,0,B|448:192|448:256,1,90,8|0
384,192,52525,2,0,B|384:256|320:256,1,90
384,192,52954,2,0,B|320:192|320:128,1,90,8|0
320,141,53382,5,0
320,141,53597,1,0
192,141,53811,1,8
192,141,54025,1,0
256,32,54239,1,0
256,32,54454,1,0
256,32,54668,1,8
128,192,55311,5,0
128,192,55418,1,0
128,192,55525,1,8
192,256,55739,1,0
256,192,55954,1,0
320,256,56168,1,0
384,192,56382,1,8
320,128,56597,6,0,B|384:64,2,45
256,192,57025,1,0
256,192,57239,1,8
192,128,57454,2,0,B|128:64,2,45
256,192,57882,1,0
256,192,58097,1,8
256,192,58311,6,0,B|352:96,1,90
256,192,58739,2,0,B|352:288,1,90,0|8
256,192,59168,2,0,B|160:288,1,90
256,192,59597,2,0,B|160:96,1,90,0|8
48,288,60239,5,0
80,288,60347,1,0
112,288,60454,1,0
144,288,60561,1,0
176,288,60668,1,8
208,288,60775,1,0
240,288,60882,1,0
272,288,60989,1,0
304,288,61097,1,0
336,288,61204,1,0
368,288,61311,2,0,B|464:288,1,90,0|12
256,64,62168,5,0
192,128,62382,2,0,B|128:192,2,45,8|0|0
256,64,62811,1,0
256,64,63025,1,0
320,128,63239,2,0,B|384:192,2,45,8|0|0
256,128,63668,5,0
256,192,63882,1,0
256,256,64097,1,8
256,320,64311,1,0
256,320,64525,6,4,B|368:320|368:192,1,180
256,320,64954,2,4,B|144:320|144:192,1,180,12|4
367,206,65597,5,0
367,206,65811,1,8
320,160,66025,1,0
256,192,66239,1,0
192,160,66454,1,0
144,206,66668,1,8
144,206,66882,1,0
144,206,66989,1,0
256,128,67311,5,0
256,192,67525,1,8
256,256,67739,1,0
196,257,67954,2,4,B|222:338|286:338|325:238,3,180,4|4|12|4
186,128,69025,5,0
256,64,69239,1,8
321,128,69454,1,0
321,128,69561,2,0,B|161:128,1,135
256,192,70097,1,8
323,256,70311,1,0
256,320,70525,1,0
188,256,70739,1,0
256,192,70954,1,8
323,256,71168,1,0
323,256,71275,2,0,B|163:256,1,135
144,144,71811,6,0,B|240:48,1,90,8|0
304,80,72239,2,0,B|368:144,1,90
368,240,72668,2,0,B|304:303,1,90,8|0
207,303,73097,2,0,B|143:240,1,90
256,192,73525,5,8
256,192,73739,1,0
256,192,73954,1,0
96,128,74382,5,8
96,128,74597,1,0
96,128,74811,2,0,B|96:288,2,135
256,192,75668,5,4
256,192,76097,1,8
256,192,76525,1,0
256,192,76954,1,8
256,192,77382,1,0
416,128,77811,5,8
416,128,78025,1,0
416,128,78239,2,0,B|416:288,2,135
416,128,79097,1,4
128,144,82311,5,0
192,80,82525,1,0
256,144,82739,1,0
320,80,82954,1,8
384,144,83168,1,0
320,208,83382,1,0
256,272,83597,1,0
192,208,83811,1,8
256,144,84025,1,0
320,208,84239,1,0
320,208,84347,1,0
320,208,84454,1,0
256,272,84668,1,8
192,208,84882,1,0
96,32,85311,6,0,B|0:128,1,90,0|8
160,128,85739,2,0,B|128:224,1,90
256,192,86168,2,0,B|256:288,1,90,0|8
352,128,86597,2,0,B|384:224,1,90
416,32,87025,2,0,B|512:128,1,90,0|8
352,128,87454,5,0
256,192,87668,1,0
256,192,87775,1,0
256,192,87882,1,0
160,128,88097,1,8
256,64,88311,1,0
64,288,89168,5,0
128,192,89382,1,0
192,288,89597,1,0
256,192,89811,1,8
320,288,90025,1,0
384,192,90239,1,0
448,288,90454,1,0
448,288,90668,1,8
448,288,90775,1,0
256,192,90882,12,4,92382
256,96,94311,5,0
352,192,94525,1,0
256,288,94739,1,0
160,192,94954,1,8
256,64,95168,5,0
384,192,95382,1,0
256,320,95597,1,0
128,192,95811,1,8
256,192,96025,5,0
384,192,96454,5,0
384,192,96668,1,8
384,192,96882,1,0
384,192,96989,1,0
128,192,97311,5,0
128,192,97525,1,8
128,192,97739,1,0
128,192,97847,1,0
256,64,98168,5,0
256,128,98382,1,8
256,192,98597,1,0
256,256,98811,1,0
256,320,99025,1,0
256,256,99239,1,8
256,192,99454,1,4
256,64,99882,5,0
256,64,100097,1,8
256,64,100311,1,0
256,64,100418,1,0
256,320,100739,5,0
256,320,100954,1,8
256,320,101168,1,0
256,320,101275,1,0
192,128,101597,5,0
256,64,101811,1,8
320,128,102025,1,0
384,192,102239,6,4,B|224:352,1,180
129,192,102668,2,4,B|289:352,1,180,12|4
128,64,103311,5,0
192,96,103525,1,8
256,64,103740,2,0,B|256:0,2,45
256,64,104168,1,0
320,96,104382,1,8
384,64,104597,1,0
192,256,105025,5,0
256,320,105239,1,8
320,256,105454,1,0
384,192,105668,6,4,B|224:32,1,180
130,193,106097,2,4,B|290:33,1,180,12|4
392,192,106739,5,0
392,192,106847,1,0
392,192,106954,1,8
392,192,107061,2,0,B|232:192,1,135
256,304,107597,1,0
256,192,107811,1,8
120,192,108025,1,0
120,192,108132,2,0,B|280:192,1,135
256,304,108668,5,8
256,192,108882,1,0
392,192,109097,2,4,B|448:96|352:32,1,180
154,35,109525,2,4,B|64:96|120:192,1,180,12|4
256,304,110168,5,0
256,304,110382,2,0,B|256:368,2,45,8|0|0
256,240,110811,1,0
256,176,111025,1,0
256,112,111240,2,0,B|256:48,2,45,8|0|0
128,272,111882,5,0
128,272,112097,1,8
128,272,112311,1,0
128,272,112525,2,4,B|156:178|124:82,1,180
384,94,112954,2,4,B|356:178|384:272,1,180,12|4
128,272,113597,5,0
192,208,113811,1,8
256,144,114025,1,0
256,144,114132,2,0,B|256:304,1,135
320,208,114668,1,8
384,272,114882,1,0
320,32,115311,5,0
256,96,115525,1,8
192,32,115739,1,0
192,160,115954,2,4,B|352:320,1,180
320,160,116382,2,4,B|160:320,1,180,12|0
320,160,117025,5,0
384,230,117239,1,8
320,295,117454,1,0
320,295,117561,2,0,B|320:135,1,135
256,230,118097,1,8
192,297,118311,1,0
128,230,118525,1,0
192,162,118739,1,0
256,230,118954,1,8
192,297,119168,1,0
192,297,119275,2,0,B|192:137,1,135
256,104,119811,6,0,B|256:8,1,90,8|0
344,192,120239,2,0,B|472:192,1,90
256,280,120668,2,0,B|256:376,1,90,8|0
168,192,121097,2,0,B|72:192,1,90
256,192,121525,5,8
256,192,121739,1,0
256,192,121954,1,0
112,72,122382,5,8
112,72,122597,1,0
112,72,122811,1,0
400,72,123132,1,0
256,312,123454,1,0
256,312,123668,5,4
400,312,125811,5,8
400,312,126025,1,0
400,312,126239,1,0
112,312,126561,1,0
256,72,126882,1,0
256,72,127097,5,4
