osu file format v6

[General]
AudioFilename: Jennifer Rostock - Schmutzig! Schmutzig!.mp3
AudioLeadIn: 1974
PreviewTime: 27642
Countdown: 0
SampleSet: Normal
StackLeniency: 0.4
Mode: 0
LetterboxInBreaks: 1

[Editor]
Bookmarks: 214,13928,27856,48240,62142,82285,94285,99856,122356,127071
DistanceSpacing: 2
BeatDivisor: 1
GridSize: 32

[Metadata]
Title:Schmutzig! Schmutzig!
Artist:Jennifer Rostock
Creator:Nharox
Version:Clean~
Source:
Tags:

[Difficulty]
HPDrainRate:4
CircleSize:3
OverallDifficulty:4
SliderMultiplier:1.6
SliderTickRate:0.5

[Events]
//Background and Video events
0,0,"Jennifer^Rostock.png"
//Break Periods
2,41367,46920
2,79081,80991
2,92582,92991
2,123653,124491
//Storyboard Layer 0 (Background)
//Storyboard Layer 1 (Fail)
//Storyboard Layer 2 (Pass)
//Storyboard Layer 3 (Foreground)
//Storyboard Sound Samples
//Background Colour Transformations
3,100,163,162,255

[TimingPoints]
240,428.571428571429,4,2,0,80,1,0
13525,-100,4,1,0,70,0,0
75561,-100,4,1,0,49,0,0
77704,-100,4,1,0,40,0,0
82097,-100,4,1,0,70,0,0
96240,-100,4,1,0,40,0,0
99347,-100,4,1,0,60,0,0
127097,-100,4,1,0,60,0,1

[Colours]
Combo1 : 255,255,255
Combo2 : 179,0,0
Combo3 : 0,157,157
Combo4 : 78,78,156

[HitObjects]
168,192,12240,1,0
256,104,12668,1,0
344,192,13097,1,0
256,280,13525,1,0
192,128,13954,5,0
320,128,14382,1,8
320,256,14811,1,0
192,256,15240,1,8
192,128,15668,5,0
256,128,15882,1,0
320,128,16097,1,8
320,256,16525,1,0
256,256,16740,1,0
192,256,16954,1,8
192,128,17382,6,8,B|128:64,2,80,0|0|8
320,128,18240,2,0,B|384:64,2,80,0|0|8
320,256,19097,5,0
320,256,19311,1,0
320,256,19525,2,0,B|128:256,1,160,8|0
160,256,20168,1,0
160,256,20382,1,8
192,64,20811,5,0
192,64,21025,2,0,B|192:160,1,80,0|8
256,144,21454,2,0,B|256:24,1,80
320,64,21882,2,0,B|320:160,1,80,0|8
256,320,22525,6,0,B|320:320|320:256,1,80
317,280,22954,2,0,B|320:224|384:224,1,80,8|0
365,225,23382,2,0,B|416:224|416:160,2,80,0|0|8
256,320,24240,6,0,B|192:320|192:256,1,80
195,280,24669,2,0,B|192:224|128:224,1,80,8|0
147,225,25097,2,0,B|96:224|96:160,2,80,0|0|8
192,160,25740,5,0
224,96,25954,1,0
288,96,26168,1,0
320,160,26382,1,8
256,160,26597,2,0,B|256:256,3,80,0|0|0|8
96,128,27882,5,0
96,128,28096,1,8
96,128,28311,2,0,B|32:160|32:224|96:256,1,160
88,251,28954,1,8
88,251,29168,1,0
256,192,29596,5,0
192,192,29811,1,8
128,192,30025,1,0
128,192,30240,2,4,B|32:192,3,80,4|4|12|4
416,128,31311,5,0
416,128,31525,1,8
416,128,31740,2,0,B|480:160|480:224|416:256,1,160
423,251,32382,1,8
423,251,32597,1,0
256,192,33025,5,0
320,192,33240,1,8
384,192,33454,1,0
384,192,33669,2,0,B|480:192,3,80,4|4|12|4
256,64,34740,5,0
256,64,34954,1,8
384,64,35382,1,0
256,64,35811,1,8
128,64,36240,1,0
256,64,36668,1,8
256,128,36882,1,0
256,128,36990,2,0,B|256:256,1,120
256,320,37525,5,8
320,224,37954,1,0
256,128,38382,1,8
192,224,38811,1,0
256,320,39240,1,8
256,320,39668,1,0
288,160,40097,5,8
224,160,40311,1,0
192,96,40525,2,0,B|320:96,2,120
144,192,48240,5,4
367,191,49097,1,4
144,192,49954,6,0,B|208:128,1,80
200,135,50382,2,0,B|272:64,1,80,8|0
256,78,50811,2,0,B|336:160,1,80
311,135,51240,2,0,B|384:208,1,80,8|0
368,192,51668,2,0,B|304:256,1,80
312,249,52096,2,0,B|240:320,1,80,8|0
256,306,52525,2,0,B|176:224,1,80
201,249,52954,2,0,B|128:176,1,80,8|0
144,192,53382,5,0
256,78,53811,1,8
368,192,54240,1,0
255,305,54668,1,8
192,72,55311,6,0,B|222:9|286:9|318:73,2,160
256,96,56382,1,8
256,160,56597,6,0,B|352:160,1,80
256,160,57025,2,0,B|320:256,1,80,0|8
256,160,57454,2,0,B|192:256,1,80
256,160,57882,2,0,B|160:160,1,80,0|8
128,320,58525,5,0
192,320,58740,1,0
256,320,58954,1,8
384,320,59382,5,0
320,320,59597,1,0
256,320,59811,1,8
256,192,60240,12,12,61525
128,304,62168,5,0
128,304,62382,1,8
128,304,62597,2,0,B|128:112,2,160
64,144,63882,6,0,B|10:130|32:48,1,80,0|8
96,80,64311,1,0
160,80,64525,1,4
128,144,64740,1,4
192,144,64954,2,0,B|246:130|224:48,1,80,12|4
384,80,65597,5,0
384,80,65811,1,8
384,80,66026,2,0,B|384:272,2,160
448,240,67311,6,0,B|502:254|480:336,1,80,0|8
416,304,67740,1,0
352,304,67954,1,4
384,240,68169,1,4
320,240,68383,2,0,B|266:254|288:336,1,80,12|4
384,64,69026,5,0
384,64,69240,1,8
256,64,69668,1,0
128,64,70097,1,8
192,160,70525,1,0
320,160,70954,1,8
256,256,71382,1,0
191,136,71811,5,8
191,136,72025,1,0
191,136,72240,2,0,B|146:233|287:264,1,160,0|8
255,256,72882,1,0
254,256,73097,2,0,B|364:233|319:136,2,160,0|8|0
128,192,74383,5,8
128,192,74597,1,0
128,192,74811,2,0,B|128:320,2,120
128,192,75668,5,4
192,96,76097,1,8
256,192,76525,1,0
320,96,76954,1,8
384,192,77382,1,0
384,192,77811,5,8
384,192,78025,1,0
384,192,78239,2,0,B|384:320,2,120
128,192,82311,5,0
128,192,82525,1,0
256,192,82954,1,8
384,192,83382,1,0
256,128,83811,5,8
320,160,84025,1,0
320,224,84240,1,0
256,256,84454,1,0
192,224,84668,1,8
192,160,84882,1,0
256,352,85311,6,0,B|160:352,1,80,0|8
256,352,85739,2,0,B|192:288,1,80
256,352,86168,2,0,B|256:256,1,80,0|8
256,352,86597,2,0,B|352:288,1,80
256,352,87025,2,0,B|352:352,1,80,0|8
256,352,87454,1,0
256,352,87668,2,0,B|256:160,2,160,0|8|0
192,80,89168,5,0
192,80,89382,1,0
320,80,89811,1,8
256,192,90239,1,0
192,80,90668,1,0
256,192,90882,12,4,92382
256,32,94311,6,0,B|256:128,3,80,0|0|0|8
256,112,95168,2,0,B|256:224,3,80,0|0|0|8
256,192,96025,1,0
64,320,96454,5,0
64,320,96668,2,0,B|224:320,1,120,8|0
448,320,97311,5,0
448,320,97525,2,0,B|288:320,1,120,8|0
256,192,98168,6,0,B|160:192,2,80,0|8|0
256,192,98811,2,0,B|352:192,2,80,0|0|8
256,192,99454,1,0
416,128,99882,5,0
416,128,100096,1,8
416,128,100311,2,0,B|480:160|480:224|416:256,1,160
424,251,100954,1,8
424,251,101168,1,0
192,192,101597,5,0
256,224,101811,1,8
320,192,102025,1,0
256,160,102240,1,4
256,32,102668,1,12
256,32,102882,1,4
96,128,103311,5,0
96,128,103525,1,8
96,128,103740,2,0,B|32:160|32:224|96:256,1,160
89,251,104382,1,8
89,251,104597,1,0
320,192,105025,5,0
256,160,105239,1,8
192,192,105453,1,0
256,224,105668,1,4
256,352,106096,1,12
256,352,106310,1,4
140,190,106740,5,0
140,190,106954,2,0,B|204:30,1,160,8|0
199,42,107597,1,0
199,42,107811,2,0,B|268:222,1,160,8|0
256,192,108454,1,0
256,192,108668,2,0,B|332:30,1,160,8|4
323,48,109311,1,4
323,48,109525,2,0,B|396:222,1,160,12|0
384,256,110168,5,0
384,256,110382,1,8
384,256,110597,2,0,B|352:320|288:320|255:259,3,160
256,192,112097,1,8
256,192,112311,1,0
256,128,112525,2,4,B|256:32,3,80,4|4|12|4
131,254,113597,5,0
131,254,113811,1,8
131,254,114026,2,0,B|163:318|227:318|262:260,3,160
256,192,115525,1,8
256,192,115739,1,0
256,128,115954,2,0,B|256:32,3,80,4|4|12|4
352,288,117026,5,0
352,288,117240,1,8
256,192,117668,1,0
352,96,118097,1,8
256,192,118526,1,0
160,96,118954,1,8
256,192,119382,1,0
160,288,119811,5,8
352,288,120240,1,0
352,96,120668,1,8
160,96,121097,1,0
256,192,121525,1,8
256,192,121740,1,0
256,192,121954,1,0
224,64,122383,5,8
288,64,122597,1,0
312,128,122811,2,0,B|152:128,2,120
256,192,125811,12,4,127097
