osu file format v11

[General]
AudioFilename: Dance Again.mp3
AudioLeadIn: 0
PreviewTime: 67147
Countdown: 0
SampleSet: Soft
StackLeniency: 0.6
Mode: 0
LetterboxInBreaks: 0

[Editor]
DistanceSpacing: 1
BeatDivisor: 4
GridSize: 4

[Metadata]
Title:Dance Again
TitleUnicode:Dance Again
Artist:Jennifer Lopez ft. Pitbull
ArtistUnicode:Jennifer Lopez ft. Pitbull
Creator:Andrea
Version:Normal
Source:
Tags:Collab Aleks719 Gonzvlo osuplayer111 Roddie Gabe Mafiamaster Saten hybrid579 Dark_Ai
BeatmapID:207743
BeatmapSetID:72784

[Difficulty]
HPDrainRate:3
CircleSize:3
OverallDifficulty:3
ApproachRate:4
SliderMultiplier:1.2
SliderTickRate:1

[Events]
//Background and Video events
0,0,"BG.jpg"
//Break Periods
2,83284,89265
2,154335,160515
//Storyboard Layer 0 (Background)
//Storyboard Layer 1 (Fail)
//Storyboard Layer 2 (Pass)
//Storyboard Layer 3 (Foreground)
Sprite,Foreground,Centre,"SB\Andrea.png",320,240 M,0,6678,,500,84 F,0,6678,8085,0,1 F,0,22850,23085,1,0 F,0,67850,68085,0,1 F,0,82850,83085,1,0 F,0,135350,135585,0,1 F,0,150350,150585,1,0 F,0,187850,188085,0,1 F,0,202850,203085,1,0 F,0,217850,218085,0,1 F,0,225350,225585,1,0
Sprite,Foreground,Centre,"SB\Gabe.png",320,240 M,0,22850,,500,84 F,0,22850,23085,0,1 F,0,37850,38085,1,0 F,0,90350,90585,0,1 F,0,105350,105585,1,0 F,0,202850,203085,0,1 F,0,217850,218085,1,0
Sprite,Foreground,Centre,"SB\Mafiamaster.png",320,240 M,0,37850,,500,84 F,0,37850,38085,0,1 F,0,52850,53085,1,0 F,0,105350,105585,0,1 F,0,120350,120585,1,0 F,0,161600,161835,0,1 F,0,176600,176835,1,0
Sprite,Foreground,Centre,"SB\Saten.png",320,240 M,0,52850,,500,84 F,0,52850,53085,0,1 F,0,67850,68085,1,0 F,0,120350,120585,0,1 F,0,135350,135585,1,0 F,0,176600,176835,0,1 F,0,187850,188085,1,0 F,0,225350,225585,0,1 F,0,232850,233085,1,0
//Storyboard Sound Samples
//Background Colour Transformations
3,100,255,255,255

[TimingPoints]
8085,468.75,4,2,1,60,1,0
23085,-100,4,1,1,60,0,0
38085,-100,4,2,1,60,0,0
64335,-100,4,1,1,20,0,0
64803,-100,4,1,1,30,0,0
65272,-100,4,1,1,40,0,0
65858,-100,4,1,1,40,0,0
66327,-100,4,1,1,45,0,0
66678,-100,4,1,1,50,0,0
67030,-100,4,1,1,55,0,0
67381,-100,4,1,1,60,0,0
68085,-100,4,1,1,80,0,1
83085,-100,4,1,1,60,0,0
105585,-100,4,2,1,60,0,0
131835,-100,4,1,1,20,0,0
132303,-100,4,1,1,30,0,0
132772,-100,4,1,1,40,0,0
133241,-100,4,1,1,50,0,0
133592,-100,4,1,1,40,0,0
133944,-100,4,1,1,45,0,0
134295,-100,4,1,1,50,0,0
134530,-100,4,1,1,55,0,0
134881,-100,4,1,1,60,0,0
135585,-100,4,1,1,80,0,1
150585,-100,4,2,1,60,0,0
176835,-100,4,2,1,50,0,0
180585,-100,4,1,1,60,0,0
188085,-100,4,2,1,60,0,0
199335,-100,4,1,1,20,0,0
199803,-100,4,1,1,30,0,0
200272,-100,4,1,1,40,0,0
200741,-100,4,1,1,50,0,0
201210,-100,4,1,1,60,0,0
203085,-100,4,1,1,80,0,1
233085,-100,4,2,1,60,0,0

[Colours]
Combo1 : 0,170,85
Combo2 : 170,0,170
Combo3 : 0,85,170
Combo4 : 167,3,3

[HitObjects]
92,96,8085,2,0,P|48:52,2,60,8|0|8,0:0|0:0|0:0,0:0:0
168,192,9022,1,8,0:0:0
244,284,9491,1,8,0:0:0
364,284,9960,6,0,P|424:284,2,60,8|0|8,0:0|0:0|0:0,0:0:0
244,284,10897,2,8,P|184:284|148:328,1,120
28,332,11835,5,8,0:0:0
52,276,12069,1,0,0:0:0
76,220,12303,2,8,P|76:160|120:124,1,120
196,32,13241,1,8,0:0:0
316,32,13710,5,8,0:0:0
392,124,14178,2,8,P|436:160|436:220,1,120
220,328,15585,5,8,0:0:0
220,328,15819,1,0,0:0:0
220,328,16053,2,8,P|160:328|160:328|116:288,1,120
44,192,16991,1,8,0:0:0
116,96,17460,6,0,P|60:60,2,60,8|0|8,0:0|0:0|0:0,0:0:0
220,160,18397,1,8,0:0:0
304,72,18866,1,8,0:0:0
408,132,19335,5,8,0:0:0
408,132,19569,1,0,0:0:0
408,132,19803,2,8,P|424:188|388:232,1,120
268,220,20741,1,8,0:0:0
192,312,21210,5,8,0:0:0
144,348,21444,1,0,0:0:0
84,348,21678,2,8,P|56:304|56:304|40:272|52:232,1,120
148,160,22616,1,8,0:0:0
36,120,23085,6,0,P|76:64|76:64|188:28,1,180,2|0,0:0|0:0,0:0:0
196,88,24022,2,0,P|255:159|255:159|311:91,1,180
328,32,24960,2,0,P|434:67|434:67|474:123,1,180,2|0,0:0|0:0,0:0:0
492,180,25897,1,8,0:0:0
448,292,26366,1,0,0:0:0
396,324,26600,1,0,0:0:0
336,332,26835,6,0,P|300:272|320:168,1,180,2|0,0:0|0:0,0:0:0
344,112,27772,2,0,P|256:92|256:92|168:112,1,180
132,160,28710,2,0,P|40:184,2,90,2|2|2,0:0|0:0|0:0,0:0:0
192,168,29647,2,0,P|212:272|176:332,1,180,8|0,0:0|0:0,0:0:0
120,304,30585,6,2,P|200:208|272:288|336:360|448:272,1,360,0|8,0:0|0:0,0:0:0
480,156,32460,2,0,P|488:56,2,90,2|2|2,0:0|0:0|0:0,0:0:0
420,164,33397,2,0,P|384:80,2,90,8|2|2,0:0|0:0|0:0,0:0:0
360,176,34335,6,0,P|280:272|212:196|144:120|32:208,1,360,0|8,0:0|0:0,0:0:0
96,312,36210,2,0,P|160:320|160:320|212:268,1,120,0|8,0:0|0:0,0:0:0
256,304,36913,1,0,0:0:0
312,280,37147,2,0,P|352:320|352:320|416:312,1,120,0|8,0:0|0:0,0:0:0
468,204,38085,6,0,P|488:164|468:124,2,90,4|0|0,0:0|0:0|0:0,0:0:0
416,236,39022,2,0,P|356:276|308:236|308:236|328:164,1,180,8|0,0:0|0:0,0:0:0
296,124,39960,2,0,P|256:144|216:124,2,90,0|0|0,0:0|0:0|0:0,0:0:0
308,68,40897,2,0,P|280:56|256:36|256:36|232:56|204:68,1,120,8|0,0:0|0:0,0:0:0
112,140,41835,6,0,P|20:140,2,90
148,188,42772,2,0,P|240:188,2,90,8|0|0,0:0|0:0|0:0,0:0:0
112,236,43710,2,0,P|20:236,2,90,0|0|0,0:0|0:0|0:0,0:0:0
148,284,44647,1,8,0:0:0
256,340,45116,5,0,0:0:0
316,332,45350,1,0,0:0:0
376,340,45585,2,0,P|448:296|376:252,1,180,8|0,0:0|0:0,0:0:0
340,236,46522,2,0,P|268:192|340:148,1,180,8|0,0:0|0:0,0:0:0
380,140,47460,6,0,P|428:136|460:104,2,90,8|0|0,0:0|0:0|0:0,0:0:0
336,96,48397,2,0,P|336:55|307:17,2,90,8|0|0,0:0|0:0|0:0,0:0:0
324,156,49335,1,8,0:0:0
256,256,49803,1,8,0:0:0
256,192,50272,12,0,52147,0:0:0
144,192,53085,6,0,P|216:142|256:192|296:241|368:192,2,240,4|2|2,0:0|0:0|0:0,0:0:0
112,320,55428,1,0,0:0:0
240,288,55897,6,0,P|292:264|320:208,1,120,2|0,0:0|0:0,0:0:0
184,220,56835,2,0,P|156:328|256:376,2,240,2|2|2,0:0|0:0|0:0,0:0:0
312,192,59178,1,0,0:0:0
192,140,59647,1,2,0:0:0
320,112,60116,5,0,0:0:0
320,112,60350,1,0,0:0:0
320,112,60585,2,0,P|394:196|320:272,2,240,2|2|2,0:0|0:0|0:0,0:0:0
208,72,62928,1,0,0:0:0
120,152,63397,1,2,0:0:0
232,196,63866,1,0,0:0:0
316,108,64335,6,0,P|372:80,1,60,0|0,0:0|0:0,0:0:0
400,132,64803,2,0,P|460:132,1,60
460,192,65272,2,0,P|512:220,1,60
488,276,65741,2,0,P|496:336,1,60
436,348,66210,2,0,P|270:339|252:176,1,360
292,60,68085,5,4,0:0:0
172,60,68553,2,0,P|120:32,2,60,8|0|0,0:0|0:0|0:0,0:0:0
172,180,69491,2,0,P|112:180|80:228,1,120,8|0,0:0|0:0,0:0:0
84,344,70428,2,0,P|24:344,2,60,8|0|0,0:0|0:0|0:0,0:0:0
204,344,71366,1,8,0:0:0
256,236,71835,5,0,0:0:0
312,132,72303,1,8,0:0:0
312,132,72538,1,0,0:0:0
312,132,72772,2,0,P|436:132,2,120,0|8|0,0:0|0:0|0:0,0:0:0
200,132,74178,1,8,0:0:0
200,132,74413,1,0,0:0:0
200,132,74647,2,0,P|76:132,2,120,0|8|0,0:0|0:0|0:0,0:0:0
256,236,76053,6,0,P|316:236|360:280,1,120,8|0,0:0|0:0,0:0:0
256,340,76991,2,0,P|192:340,2,60,8|0|0,0:0|0:0|0:0,0:0:0
358,276,77928,1,8,0:0:0
464,212,78397,2,0,P|464:152|424:112,1,120,0|8,0:0|0:0,0:0:0
364,112,79100,1,0,0:0:0
304,112,79335,6,0,P|244:112|200:72,1,120,0|8,0:0|0:0,0:0:0
80,76,80272,1,0,0:0:0
52,192,80741,1,8,0:0:0
80,244,80975,1,0,0:0:0
112,296,81210,2,0,P|172:296|208:340,1,120,0|8,0:0|0:0,0:0:0
304,340,82147,2,0,P|340:296|400:296,2,120,0|8|4,0:0|0:0|0:2,0:0:0
116,88,90585,6,0,P|178:55|192:152,1,180,2|0,0:0|0:0,0:0:0
184,192,91522,2,0,P|256:252|256:252|324:192,1,180
304,137,92460,2,0,P|333:55|396:88,1,180,2|0,0:0|0:0,0:0:0
396,88,93397,1,8,0:0:0
456,192,93866,1,0,0:0:0
484,244,94100,1,0,0:0:0
432,276,94335,6,0,P|376:356|376:356|296:340,1,180,2|0,0:0|0:0,0:0:0
256,296,95272,2,0,P|256:196,2,90
216,340,96210,2,0,P|136:356|136:356|80:276,1,180,2|0,0:0|0:0,0:0:0
79,275,97147,1,8,0:0:0
28,168,97616,1,0,0:0:0
80,60,98085,6,2,P|144:60|144:60|192:88|256:104|320:88|368:60|368:60|432:60,1,360,0|8,0:0|0:0,0:0:0
452,176,99960,2,0,P|468:268,2,90,2|2|2,0:0|0:0|0:0,0:0:0
404,144,100897,2,0,P|408:36,2,90,8|2|2,0:0|0:0|0:0,0:0:0
348,164,101835,5,0,0:0:0
349,282,102303,2,0,P|224:168|324:48,1,360,8|0,0:0|0:0,0:0:0
348,164,104178,1,8,0:0:0
404,188,104413,1,0,0:0:0
448,232,104647,2,0,P|456:304|432:356,1,120,0|8,0:0|0:0,0:0:0
312,344,105585,6,0,P|256:364|200:344,1,120,4|8,0:0|0:0,0:0:0
256,252,106522,2,0,P|256:128,1,120,2|8,0:0|0:0,0:0:0
312,40,107460,2,0,P|256:20|200:40,1,120,2|8,0:0|0:0,0:0:0
156,76,108163,1,2,0:0:0
136,132,108397,2,0,P|100:188|176:188|136:244,1,120,2|8,0:0|0:0,0:0:0
200,344,109335,6,0,P|256:364|312:344,1,120,0|8,0:0|0:0,0:0:0
368,240,110272,2,0,P|312:220|256:240,1,120,2|8,0:0|0:0,0:0:0
312,344,111210,2,0,P|368:364|424:344,1,120,2|8,0:0|0:0,0:0:0
464,300,111913,1,2,0:0:0
424,256,112147,2,0,P|388:200|464:200|424:144,1,120,2|8,0:0|0:0,0:0:0
376,112,112850,5,2,0:0:0
324,84,113085,2,0,P|280:44|212:48|212:48|212:168|212:168|100:84,1,360,2|8,0:0|0:0,0:0:0
140,216,114960,2,0,P|60:156,2,90,2|0|2,0:0|0:0|0:0,0:0:0
116,272,115897,2,0,P|188:326,2,90,2|0|2,0:0|0:0|0:0,0:0:0
140,216,116835,2,0,P|196:180|196:256|252:216,1,120,2|2,0:0|0:0,0:0:0
256,192,117538,12,0,119647,0:0:0
388,80,120585,6,0,P|338:152|388:192|437:232|388:304,1,240,4|2,0:0|0:0,0:0:0
124,304,122460,2,0,P|75:232|124:192|174:152|124:80,1,240,2|2,0:0|0:0,0:0:0
256,60,123866,1,0,0:0:0
348,156,124335,6,0,P|340:216|300:256,1,120,2|0,0:0|0:0,0:0:0
164,156,125272,2,0,P|172:216|212:256,1,120,2|0,0:0|0:0,0:0:0
256,132,126210,1,2,0:0:0
140,72,126678,1,0,0:0:0
24,132,127147,1,2,0:0:0
12,264,127616,5,0,0:0:0
12,264,127850,1,0,0:0:0
12,264,128085,2,0,P|104:284|204:192,1,240,2|2,0:0|0:0,0:0:0
500,264,129960,2,0,P|408:284|308:192,1,240,2|2,0:0|0:0,0:0:0
256,72,131366,1,0,0:0:0
384,48,131835,6,0,P|440:68,1,60
440,128,132303,2,0,P|384:148,1,60
380,208,132772,2,0,P|436:228,1,60
436,288,133240,2,0,P|380:308,1,60
320,308,133710,2,0,P|254:153|392:68,1,360
368,184,135585,5,4,0:0:0
424,292,136053,2,0,P|476:320,2,60,8|0|0,0:0|0:0|0:0,0:0:0
368,184,136991,2,0,P|428:184|460:136,1,120,8|0,0:0|0:0,0:0:0
428,40,137928,2,0,P|488:40,2,60,8|0|0,0:0|0:0|0:0,0:0:0
308,40,138866,1,8,0:0:0
256,148,139335,5,0,0:0:0
200,252,139803,1,8,0:0:0
200,252,140038,1,0,0:0:0
200,252,140272,2,0,P|76:252,2,120,0|8|0,0:0|0:0|0:0,0:0:0
312,252,141678,1,8,0:0:0
312,252,141913,1,0,0:0:0
312,252,142147,2,0,P|436:252,2,120,0|8|0,0:0|0:0|0:0,0:0:0
256,148,143553,6,0,P|196:148|152:104,1,120,8|0,0:0|0:0,0:0:0
256,44,144491,2,0,P|320:44,2,60,8|0|0,0:0|0:0|0:0,0:0:0
154,108,145428,1,8,0:0:0
48,172,145897,2,0,P|48:232|88:272,1,120,0|8,0:0|0:0,0:0:0
148,272,146600,1,0,0:0:0
208,272,146835,6,0,P|268:272|312:312,1,120,0|8,0:0|0:0,0:0:0
432,308,147772,1,0,0:0:0
460,192,148241,1,8,0:0:0
432,140,148475,1,0,0:0:0
400,88,148710,2,0,P|340:88|304:44,1,120,0|8,0:0|0:0,0:0:0
208,44,149647,2,0,P|172:88|112:88,2,120,0|8|4,0:0|0:0|0:0,0:0:0
112,108,161835,6,0,P|92:164|112:220,1,120,8|8,0:0|0:0,0:0:0
152,264,162538,1,0,0:0:0
108,304,162772,2,0,P|16:320,2,90,8|2|2,0:0|0:0|0:0,0:0:0
152,344,163710,2,0,P|208:364|264:344,2,120,8|8|8,0:0|0:0|0:0,0:0:0
196,136,165585,6,0,P|176:192|195:246,1,120,8|8,0:0|0:0,0:0:0
316,246,166522,2,0,P|336:192|316:136,1,120,8|8,0:0|0:0,0:0:0
256,132,167225,1,2,0:0:0
256,192,167460,2,0,P|256:312,2,120,8|8|8,0:0|0:0|0:0,0:0:0
256,72,168866,1,8,0:0:0
152,132,169335,6,0,P|96:112|42:131,1,120,8|8,0:0|0:0,0:0:0
41,252,170272,2,0,P|96:272|152:252,1,120,8|8,0:0|0:0,0:0:0
256,192,171210,2,0,P|332:192,2,60,8|0|8,0:0|0:0|0:0,0:0:0
212,80,172147,1,8,0:0:0
316,24,172616,1,8,0:0:0
400,108,173085,6,0,P|420:164|400:220,1,120,8|8,0:0|0:0,0:0:0
360,264,173788,1,0,0:0:0
404,304,174022,2,0,P|496:320,2,90,8|2|2,0:0|0:0|0:0,0:0:0
360,344,174960,2,0,P|304:364|248:344,2,120,8|8|8,0:0|0:0|0:0,0:0:0
256,40,176835,5,8,0:0:0
376,60,177303,1,8,0:0:0
412,176,177772,2,0,P|388:212|352:240,2,90,8|2|0,0:0|0:0|0:0,0:0:0
356,148,178710,2,0,P|292:148,1,60,8|0,0:0|0:0,0:0:0
256,192,179178,2,0,P|300:332|384:344,1,240,8|0,0:0|0:0,0:0:0
464,264,180585,5,0,0:0:0
480,144,181053,1,8,0:0:0
404,52,181522,2,0,P|448:28|496:32,2,90,0|8|0,0:0|0:0|0:0,0:0:0
364,92,182460,2,0,P|376:152,1,60
364,208,182928,1,8,0:0:0
284,296,183397,2,0,P|204:256,2,90,0|8|0,0:0|0:0|0:0,0:0:0
264,352,184335,6,0,P|204:356|144:336,1,120,0|8,0:0|0:0,0:0:0
96,228,185272,2,0,P|48:224|4:232,2,90,0|8|0,0:0|0:0|0:0,0:0:0
152,244,186210,2,0,P|200:208,1,60
256,192,186678,2,0,P|280:240|344:268,2,120,8|0|8,0:0|0:0|0:0,0:0:0
280,76,188085,5,4,0:0:0
160,64,188553,1,8,0:0:0
88,160,189022,1,8,0:0:0
144,268,189491,2,0,P|92:308,2,60,8|0|8,0:0|0:0|0:0,0:0:0
256,308,190428,1,8,0:0:0
368,268,190897,6,8,P|368:208|368:208|412:160,1,120
332,72,191835,1,8,0:0:0
256,164,192303,1,8,0:0:0
180,72,192772,1,8,0:0:0
103,163,193241,2,8,P|144:208|144:208|144:268,1,120
256,312,194178,2,8,P|256:192,1,120
256,72,195116,5,8,0:0:0
256,72,195350,1,0,0:0:0
256,72,195585,1,8,0:0:0
344,152,196053,1,8,0:0:0
256,232,196522,1,8,0:0:0
168,152,196991,2,0,P|108:152,2,60,8|0|8,0:0|0:0|0:0,0:0:0
256,232,197928,5,8,0:0:0
344,152,198397,1,8,0:0:0
256,72,198866,1,8,0:0:0
256,192,199335,12,0,202147,0:0:0
340,124,203085,6,0,P|400:40|460:124,1,240,6|0,0:0|0:0,0:0:0
400,228,204491,1,8,0:0:0
400,228,204725,1,0,0:0:0
400,228,204960,6,0,P|340:312|280:228,1,240,2|0,0:0|0:0,0:0:0
296,108,206366,2,0,P|256:104|220:112,1,60,8|0,0:0|0:0,0:0:0
196,144,206835,6,0,P|156:212|76:176,2,180,2|0|8,0:0|0:0|0:0,0:0:0
316,144,208710,2,0,P|356:212|436:176,2,180,2|0|8,0:0|0:0|0:0,0:0:0
308,80,210350,1,0,0:0:0
256,52,210585,6,0,P|184:112|248:212|176:280,1,240,2|0,0:0|0:0,0:0:0
256,368,211991,2,0,P|304:320,1,60,8|0,0:0|0:0,0:0:0
329,273,212460,6,0,P|264:212|328:112|256:52,1,240,2|0,0:0|0:0,0:0:0
140,88,213866,2,0,P|76:88,1,60,8|0,0:0|0:0,0:0:0
52,140,214335,6,0,P|88:224|88:224|184:276,2,180,2|0|8,0:0|0:0|0:0,0:0:0
80,88,215975,1,0,0:0:0
124,48,216210,2,0,P|196:72|196:136|212:192|256:200|256:200|300:192|316:136|316:72|388:48,1,420,2|0,0:0|0:0,0:0:0
448,48,218085,5,4,0:0:0
448,168,218553,2,8,P|448:284|348:344,1,240
64,168,220428,2,8,P|64:284|164:344,1,240
256,272,221835,5,0,0:0:0
344,192,222303,2,8,P|256:110|256:110|168:192,2,240
256,348,225116,1,8,0:0:0
256,348,225585,22,0,P|208:240|44:280|0:96|140:-4|256:96|256:96|372:-4|512:96|468:280|304:240|280:313,1,960,4|4,0:0|0:0,0:0:0
384,372,229803,37,8,0:0:0
484,304,230272,2,0,P|446:196|336:156,1,240
28,304,232147,2,0,P|66:196|176:156,1,240,0|0,0:0|2:0,0:0:0
