osu file format v11

[General]
AudioFilename: Dance Again.mp3
AudioLeadIn: 0
PreviewTime: 67147
Countdown: 0
SampleSet: Soft
StackLeniency: 0.6
Mode: 0
LetterboxInBreaks: 0

[Editor]
DistanceSpacing: 1.2
BeatDivisor: 2
GridSize: 4

[Metadata]
Title:Dance Again
TitleUnicode:Dance Again
Artist:Jennifer Lopez ft. Pitbull
ArtistUnicode:Jennifer Lopez ft. Pitbull
Creator:Andrea
Version:Hard
Source:
Tags:Collab Aleks719 Gonzvlo osuplayer111 Roddie Gabe Mafiamaster Saten hybrid579 Dark_Ai
BeatmapID:209287
BeatmapSetID:72784

[Difficulty]
HPDrainRate:6
CircleSize:4
OverallDifficulty:6
ApproachRate:7
SliderMultiplier:1.4
SliderTickRate:1

[Events]
//Background and Video events
0,0,"BG.jpg"
//Break Periods
2,83285,89685
2,154335,160935
//Storyboard Layer 0 (Background)
//Storyboard Layer 1 (Fail)
//Storyboard Layer 2 (Pass)
//Storyboard Layer 3 (Foreground)
Sprite,Foreground,Centre,"SB\Andrea.png",320,240 M,0,6678,,500,84 F,0,6678,8085,0,1 F,0,22850,23085,1,0 F,0,37850,38085,0,1 F,0,52850,53085,1,0 F,0,67850,68085,0,1 F,0,82850,83085,1,0 F,0,105350,105585,0,1 F,0,120350,120585,1,0 F,0,135350,135585,0,1 F,0,150350,150585,1,0 F,0,176600,176835,0,1 F,0,187850,188085,1,0 F,0,202850,203085,0,1 F,0,217850,218085,1,0 F,0,225350,225585,0,1 F,0,232850,233085,1,0
Sprite,Foreground,Centre,"SB\Ai.png",320,240 M,0,22850,,500,84 F,0,22850,23085,0,1 F,0,37850,38085,1,0 F,0,52850,53085,0,1 F,0,67850,68085,1,0 F,0,90350,90585,0,1 F,0,105350,105585,1,0 F,0,120350,120585,0,1 F,0,135350,135585,1,0 F,0,161600,161835,0,1 F,0,176600,176835,1,0 F,0,187850,188085,0,1 F,0,202850,203085,1,0 F,0,217850,218085,0,1 F,0,225350,225585,1,0
//Storyboard Sound Samples
//Background Colour Transformations
3,100,255,255,255

[TimingPoints]
8085,468.75,4,2,1,60,1,0
23085,-100,4,1,1,60,0,0
38085,-100,4,2,1,60,0,0
65858,-100,4,1,1,40,0,0
66327,-100,4,1,1,45,0,0
66678,-100,4,1,1,50,0,0
67030,-100,4,1,1,55,0,0
67381,-100,4,1,1,60,0,0
68085,-100,4,1,1,80,0,1
83085,-100,4,1,1,60,0,0
105585,-100,4,2,1,60,0,0
133592,-100,4,1,1,40,0,0
133944,-100,4,1,1,45,0,0
134295,-100,4,1,1,50,0,0
134530,-100,4,1,1,55,0,0
134881,-100,4,1,1,60,0,0
135585,-100,4,1,1,80,0,1
150585,-100,4,2,1,60,0,0
176835,-100,4,2,1,50,0,0
180585,-100,4,1,1,60,0,0
188085,-100,4,2,1,60,0,0
200272,-100,4,1,1,40,0,0
200741,-100,4,1,1,50,0,0
201210,-100,4,1,1,60,0,0
203085,-100,4,1,1,80,0,1
233085,-100,4,2,1,60,0,0

[Colours]
Combo1 : 0,170,85
Combo2 : 170,0,170
Combo3 : 0,85,170
Combo4 : 167,3,3

[HitObjects]
100,56,8085,2,0,P|136:56|164:84,1,70,8|0,0:0|0:0,0:0:0
124,152,8553,1,8,0:0:0
196,192,8788,1,0,0:0:0
124,232,9022,2,8,P|124:304|176:340,2,140
52,192,10194,5,0,0:0:0
124,152,10428,2,8,P|196:152|196:96,1,140
256,36,11131,1,0,0:0:0
314,98,11366,2,8,P|316:152|388:152,1,140
460,192,12069,5,0,0:0:0
460,276,12303,1,8,0:0:0
412,344,12538,1,0,0:0:0
332,344,12772,2,8,P|264:344|264:344|204:300,1,140
68,192,13710,6,0,P|112:136,1,70,8|0,0:0|0:0,0:0:0
164,72,14178,1,8,0:0:0
216,140,14413,1,0,0:0:0
296,140,14647,1,8,0:0:0
348,72,14881,1,0,0:0:0
400,136,15116,2,0,P|444:192,1,70
492,260,15585,5,8,0:0:0
452,332,15819,1,0,0:0:0
368,332,16053,2,8,P|296:332|256:280,1,140
88,292,16991,2,8,P|160:292|200:344,2,140
52,216,18163,1,0,0:0:0
88,140,18397,6,8,P|160:140|160:80,2,140
92,56,19569,1,0,0:0:0
164,86,19803,1,8,0:0:0
232,52,20038,1,0,0:0:0
300,100,20272,6,8,P|344:100|344:100|388:124|388:124|436:124,2,140
256,172,21444,1,0,0:0:0
212,244,21678,2,8,P|168:244|168:244|124:220|124:220|76:220,2,140
256,316,22850,1,0,0:0:0
300,244,23085,6,0,P|344:244|344:244|388:220|388:220|436:220,1,140,4|8,2:0|0:0,0:0:0
316,100,24022,2,0,P|256:124|188:100,1,140,0|8,0:0|0:0,0:0:0
112,136,24725,1,0,0:0:0
88,220,24960,2,0,P|36:352,2,140,0|8|0,0:0|0:0|0:0,0:0:0
256,216,26366,5,8,0:0:0
320,268,26600,1,0,0:0:0
400,288,26835,2,0,P|464:260|496:196,2,140,0|8|0,0:0|0:0|0:0,0:0:0
256,216,28241,1,8,0:0:0
204,152,28475,1,0,0:0:0
156,84,28710,2,0,P|92:112|60:176,2,140,0|8|0,0:0|0:0|0:0,0:0:0
300,168,30116,1,8,0:0:0
368,216,30350,5,0,0:0:0
384,300,30585,2,0,P|256:348|128:300,1,280,0|0,0:0|0:0,0:0:0
32,160,31991,1,8,0:0:0
160,52,32460,2,0,P|224:28|288:52,1,140,0|8,0:0|0:0,0:0:0
224,108,33163,1,0,0:0:0
224,108,33397,2,0,P|288:132|352:108,2,140,0|8|0,0:0|0:0|0:0,0:0:0
256,192,34803,12,8,37616,0:0:0
256,192,38085,6,0,P|328:192|352:136,1,140,4|8,0:0|0:0,0:0:0
272,112,38788,1,0,0:0:0
216,48,39022,2,0,P|144:48,1,70
60,52,39491,2,0,P|60:120|60:120|104:176,2,140,8|0|8,0:0|0:0|0:0,0:0:0
36,220,40897,1,0,0:0:0
104,272,41131,2,0,P|140:272|164:296,1,70,0|8,0:0|0:0,0:0:0
100,352,41600,1,0,0:0:0
180,376,41835,6,0,P|248:368|260:304,2,140,0|8|0,0:0|0:0|0:0,0:0:0
252,224,43241,1,8,0:0:0
328,260,43475,1,0,0:0:0
368,188,43710,2,0,P|440:188|464:132,1,140,0|8,0:0|0:0,0:0:0
384,108,44413,1,0,0:0:0
396,24,44647,2,0,P|324:24|300:80,1,140,0|8,0:0|0:0,0:0:0
256,152,45350,5,0,0:0:0
212,80,45585,2,0,P|188:24|116:24,1,140,0|8,0:0|0:0,0:0:0
128,108,46288,1,0,0:0:0
48,132,46522,2,0,P|72:188|144:188,1,140,0|8,0:0|0:0,0:0:0
196,256,47225,1,0,0:0:0
256,316,47460,6,0,P|300:316|300:316|344:344|344:344|392:344,2,140,0|8|0,0:0|0:0|0:0,0:0:0
196,376,48631,1,0,0:0:0
136,316,48866,2,0,P|64:316|64:316|16:264,1,140,8|0,0:0|0:0,0:0:0
56,192,49569,1,0,0:0:0
17,117,49803,2,0,P|64:68|64:68|136:68,1,140,8|0,0:0|0:0,0:0:0
256,192,50741,6,0,P|396:192,1,140,8|0,0:0|0:0,0:0:0
396,192,51444,1,0,0:0:0
456,136,51678,2,0,P|492:192|456:248,1,140,8|0,0:0|0:0,0:0:0
396,192,52381,1,0,0:0:0
320,232,52616,2,0,P|256:260|256:260|192:232,1,140,8|4,0:0|0:0,0:0:0
256,76,53553,6,0,P|192:56|124:80,2,140,8|8|8,0:0|0:0|0:0,0:0:0
256,160,54725,1,0,0:0:0
256,244,54960,2,0,P|320:264|388:240,2,140,8|8|8,0:0|0:0|0:0,0:0:0
96,192,56366,5,8,0:0:0
128,116,56600,1,0,0:0:0
196,64,56835,2,8,P|268:60|320:100,1,140
352,176,57538,1,0,0:0:0
352,176,57772,2,8,P|356:248|328:312,1,140
172,256,58710,6,0,P|140:228,2,35,8|0|0,0:0|0:0|0:0,0:0:0
256,256,59178,2,0,P|288:228,2,35,8|0|0,0:0|0:0|0:0,0:0:0
212,184,59647,2,0,P|212:140,2,35,8|0|0,0:0|0:0|0:0,0:0:0
256,256,60116,1,8,0:0:0
276,338,60350,1,0,0:0:0
360,328,60585,2,8,P|424:304|460:244,1,140
396,192,61288,1,0,0:0:0
460,140,61522,2,8,P|424:80|360:56,1,140
312,124,62225,1,0,0:0:0
260,192,62460,6,8,P|200:156|176:92,1,140
132,20,63163,1,0,0:0:0
92,92,63397,2,8,P|68:156|8:192,1,140
36,272,64100,1,0,0:0:0
100,324,64335,2,8,P|160:344|240:332,1,140
252,252,65038,1,0,0:0:0
320,300,65272,5,8,0:0:0
400,280,65506,1,0,0:0:0
436,204,65741,1,8,0:0:0
400,128,65975,1,0,0:0:0
320,100,66210,2,0,P|320:52,6,35
240,128,67147,2,0,P|216:144,9,23.3333333333333
148,180,68085,6,0,P|148:252|196:296,1,140,4|8,0:0|0:0,0:0:0
256,356,68788,1,0,0:0:0
316,296,69022,2,0,P|352:296|372:264,1,70
396,192,69491,1,8,0:0:0
370,113,69725,2,0,P|352:88|316:88,1,70
148,92,70428,6,0,P|92:136,1,70,8|0,0:0|0:0,0:0:0
28,192,70897,1,0,0:0:0
92,248,71131,2,0,P|148:292,1,70,0|8,0:0|0:0,0:0:0
216,344,71600,1,0,0:0:0
296,344,71835,6,0,P|364:344|388:284,1,140,0|8,0:0|0:0,0:0:0
308,264,72538,2,0,P|340:196,1,70
256,180,73006,1,0,0:0:0
204,264,73241,2,0,P|172:196,1,70,8|0,0:0|0:0,0:0:0
200,120,73710,6,0,P|256:84|312:120,1,140,0|8,0:0|0:0,0:0:0
340,200,74413,1,0,0:0:0
296,272,74647,1,0,0:0:0
216,272,74881,1,0,0:0:0
172,200,75116,1,8,0:0:0
256,200,75350,1,0,0:0:0
216,124,75585,6,0,P|144:124|100:76,1,140,0|8,0:0|0:0,0:0:0
296,124,76522,2,0,P|368:124|412:76,1,140,0|8,0:0|0:0,0:0:0
332,56,77225,1,0,0:0:0
332,56,77460,2,0,P|396:184,2,140,0|8|0,0:0|0:0|0:0,0:0:0
312,224,78866,5,8,0:0:0
256,288,79100,1,0,0:0:0
200,224,79335,2,0,P|128:224|128:224|80:280,1,140,0|8,0:0|0:0,0:0:0
312,224,80272,2,0,P|384:224|384:224|432:280,1,140,0|8,0:0|0:0,0:0:0
348,304,80975,5,0,0:0:0
348,304,81210,2,0,P|408:172,2,140,0|8|0,0:0|0:0|0:0,0:0:0
192,348,82616,1,8,0:0:0
108,348,82850,1,0,0:0:0
36,304,83085,1,4,0:2:0
64,192,90585,6,0,P|128:220|188:192,1,140,0|8,0:0|0:0,0:0:0
256,144,91288,1,0,0:0:0
324,192,91522,2,0,P|388:220|448:192,1,140,0|8,0:0|0:0,0:0:0
384,136,92225,1,0,0:0:0
384,136,92460,2,0,P|384:280,2,140,0|8|0,0:0|0:0|0:0,0:0:0
256,248,93866,5,8,0:0:0
172,248,94100,1,0,0:0:0
128,320,94335,2,0,P|60:312|28:252,1,140,0|8,0:0|0:0,0:0:0
88,192,95038,1,0,0:0:0
28,130,95272,2,0,P|60:72|128:64,1,140,0|8,0:0|0:0,0:0:0
196,112,95975,1,0,0:0:0
264,64,96210,2,0,P|332:72|364:132,1,140,0|8,0:0|0:0,0:0:0
280,148,96913,1,0,0:0:0
280,148,97147,2,0,P|308:204|380:216,1,140,0|8,0:0|0:0,0:0:0
432,152,97850,5,0,0:0:0
432,152,98085,2,0,P|460:216|432:276,1,140,0|8,0:0|0:0,0:0:0
364,324,98788,1,0,0:0:0
364,324,99022,2,0,P|224:324,1,140,0|8,0:0|0:0,0:0:0
116,192,99960,6,0,P|136:120|184:80,1,140,0|8,0:0|0:0,0:0:0
256,124,100663,1,0,0:0:0
328,80,100897,2,0,P|376:120|396:192,1,140,0|8,0:0|0:0,0:0:0
368,272,101600,1,0,0:0:0
320,340,101835,2,0,P|256:360|188:340,2,140,0|8|0,0:0|0:0|0:0,0:0:0
256,184,103241,6,0,P|300:136|372:120,2,140,8|0|8,0:0|0:0|0:0,0:0:0
196,240,104413,1,0,0:0:0
196,240,104647,2,0,P|256:268|320:240,1,140,0|8,0:0|0:0,0:0:0
344,72,105585,6,0,P|304:132,1,70,4|0,0:0|0:0,0:0:0
256,64,106053,1,8,0:0:0
168,72,106288,2,0,P|208:132,1,70
200,300,106991,1,8,0:0:0
256,236,107225,1,0,0:0:0
312,300,107460,2,0,P|384:300|428:252,1,140,0|8,0:0|0:0,0:0:0
488,192,108163,1,0,0:0:0
427,130,108397,2,0,P|384:84|312:84,1,140,0|8,0:0|0:0,0:0:0
256,148,109100,1,0,0:0:0
200,84,109335,6,0,P|128:84,1,70
48,84,109803,1,8,0:0:0
92,156,110038,1,0,0:0:0
48,228,110272,2,0,P|56:296|112:336,1,140,0|8,0:0|0:0,0:0:0
184,296,110975,1,0,0:0:0
256,336,111210,1,0,0:0:0
328,296,111444,1,0,0:0:0
401,335,111678,6,0,P|456:296|464:228,2,140,8|0|8,0:0|0:0|0:0,0:0:0
328,296,112850,1,0,0:0:0
372,224,113085,1,0,0:0:0
140,224,113553,1,8,0:0:0
184,296,113788,1,0,0:0:0
110,335,114022,2,0,P|56:296|48:228,2,140,0|8|0,0:0|0:0|0:0,0:0:0
184,296,115194,5,0,0:0:0
256,252,115428,2,0,P|256:108,2,140,8|0|8,0:0|0:0|0:0,0:0:0
328,296,116600,1,0,0:0:0
256,336,116835,1,0,0:0:0
48,192,117303,1,8,0:0:0
256,48,117772,5,0,0:0:0
328,88,118006,2,0,P|360:88|392:112,1,70,0|8,0:0|0:0,0:0:0
332,172,118475,1,0,0:0:0
256,208,118710,2,0,P|188:208|144:260,1,140,0|8,0:0|0:0,0:0:0
144,344,119413,1,0,0:0:0
216,300,119647,1,0,0:0:0
296,300,119881,1,0,0:0:0
368,344,120116,2,0,P|420:300|420:228,1,140,8|4,0:0|0:0,0:0:0
256,200,121053,6,8,P|212:140|148:112,2,140
256,284,122225,1,0,0:0:0
256,284,122460,2,8,P|324:300|392:284,2,140
256,116,123866,5,8,0:0:0
184,76,124100,1,0,0:0:0
112,116,124335,2,8,P|84:176|112:240,1,140
172,296,125038,1,0,0:0:0
172,296,125272,2,8,P|232:320|300:296,1,140
348,224,125975,1,0,0:0:0
392,152,126210,6,0,P|412:120,2,35,8|0|0,0:0|0:0|0:0,0:0:0
304,152,126678,2,0,P|284:120,2,35,8|0|0,0:0|0:0|0:0,0:0:0
348,84,127147,2,0,P|348:48,2,35,8|0|0,0:0|0:0|0:0,0:0:0
304,152,127616,1,8,0:0:0
348,224,127850,1,0,0:0:0
392,300,128085,2,8,P|328:328|264:300,1,140
212,236,128788,1,0,0:0:0
212,236,129022,2,8,P|148:208|84:236,1,140
148,292,129725,5,0,0:0:0
148,292,129960,2,8,P|148:152,1,140
188,80,130663,1,0,0:0:0
188,80,130897,2,8,P|256:100|320:80,1,140
404,100,131600,1,0,0:0:0
404,100,131835,2,8,P|428:164|404:228,1,140
324,260,132538,5,0,0:0:0
324,260,132772,2,8,P|256:240|192:260,1,140
124,308,133475,1,0,0:0:0
92,232,133710,2,0,P|76:192,6,35
124,308,134647,2,0,P|136:340,9,23.3333333333333
92,232,135585,6,0,P|164:232|164:232|204:176,1,140,4|8,0:0|0:0,0:0:0
256,112,136288,1,0,0:0:0
308,176,136522,2,0,P|348:232|348:232|420:232,1,140,0|8,0:0|0:0,0:0:0
484,180,137225,1,0,0:0:0
420,128,137460,1,0,0:0:0
284,28,137928,2,0,P|212:28,1,70,8|0,0:0|0:0,0:0:0
128,28,138397,1,0,0:0:0
128,112,138631,2,0,P|96:112|68:136,1,70,0|8,0:0|0:0,0:0:0
68,220,139100,5,0,0:0:0
124,280,139335,2,0,P|196:280|188:328,1,140,0|8,0:0|0:0,0:0:0
256,376,140038,1,0,0:0:0
324,328,140272,2,0,P|316:280|388:280,1,140,0|8,0:0|0:0,0:0:0
440,344,140975,1,0,0:0:0
472,264,141210,1,0,0:0:0
432,192,141444,2,0,P|376:148,1,70,0|8,0:0|0:0,0:0:0
308,100,141913,1,0,0:0:0
256,168,142147,1,0,0:0:0
204,100,142381,5,0,0:0:0
136,148,142616,2,0,P|72:148|72:84,2,140,8|0|8,0:0|0:0|0:0,0:0:0
204,100,143788,1,0,0:0:0
256,168,144022,1,0,0:0:0
308,100,144256,1,0,0:0:0
376,148,144491,2,0,P|440:148|440:84,2,140,8|0|8,0:0|0:0|0:0,0:0:0
332,220,145663,1,0,0:0:0
296,296,145897,1,0,0:0:0
216,296,146131,1,0,0:0:0
180,220,146366,6,0,P|112:220|68:272,2,140,8|0|8,0:0|0:0|0:0,0:0:0
216,144,147538,1,0,0:0:0
256,72,147772,1,0,0:0:0
296,144,148006,1,0,0:0:0
332,220,148241,2,0,P|400:220|444:272,2,140,8|0|8,0:0|0:0|0:0,0:0:0
332,304,149413,1,0,0:0:0
256,344,149647,1,0,0:0:0
180,304,149881,1,0,0:0:0
256,264,150116,2,0,P|256:124,1,140,8|4,0:0|0:0,0:0:0
256,192,161835,5,8,0:0:0
88,192,162303,2,8,P|100:256|160:304,2,140
148,132,163475,1,0,0:0:0
148,132,163710,2,0,P|208:96,1,70,8|0,0:0|0:0,0:0:0
292,92,164178,2,8,P|340:92|340:92|376:120|376:120|424:120,2,140,8|8|0,0:0|0:0|0:0,0:0:0
256,256,165585,6,0,P|256:212,2,35,8|0|0,0:0|0:0|0:0,0:0:0
256,340,166053,1,8,0:0:0
336,192,166522,1,8,0:0:0
256,44,166991,1,8,0:0:0
176,64,167225,1,0,0:0:0
112,120,167460,2,8,P|64:168|64:240,2,140
280,120,168866,6,8,P|328:168|328:240,2,140
256,200,170038,1,0,0:0:0
256,200,170272,2,8,P|188:220|140:268,1,140
196,332,170975,1,0,0:0:0
196,332,171210,2,8,P|264:340|336:332,2,140
104,192,172616,5,8,0:0:0
64,120,172850,2,0,P|48:84,2,35,0|0|8,0:0|0:0|0:0,0:0:0
216,192,173553,1,8,0:0:0
352,288,174022,1,8,0:0:0
432,188,174491,2,8,P|412:116|360:76,1,140
316,148,175194,1,0,0:0:0
256,88,175428,1,8,0:0:0
124,192,175897,6,8,P|132:256|196:288,2,140
256,88,177303,1,8,0:0:0
388,192,177772,1,8,0:0:0
388,192,178006,1,0,0:0:0
388,192,178241,2,8,P|380:256|316:288,2,140
256,88,179647,2,0,P|256:160,2,70
256,256,180585,5,0,0:0:0
100,192,181053,1,8,0:0:0
100,192,181288,1,0,0:0:0
36,136,181522,2,0,P|0:192|36:248,1,140,0|8,0:0|0:0,0:0:0
176,344,182460,1,0,0:0:0
256,316,182694,1,0,0:0:0
336,344,182928,6,0,P|408:344|408:344|456:296,2,140,8|0|8,0:0|0:0|0:0,0:0:0
256,316,184100,1,0,0:0:0
176,344,184335,2,0,P|104:344|104:344|56:296,2,140,0|8|0,0:0|0:0|0:0,0:0:0
196,176,185741,2,0,P|256:144|316:176,1,140,8|0,0:0|0:0,0:0:0
256,232,186444,1,0,0:0:0
256,232,186678,2,0,P|256:92,2,140,8|0|8,0:0|0:0|0:0,0:0:0
256,316,187850,1,0,0:0:0
328,276,188085,5,4,0:0:0
396,124,188553,1,8,0:0:0
332,68,188788,1,0,0:0:0
256,92,189022,1,8,0:0:0
256,260,189491,1,8,0:0:0
184,300,189725,1,0,0:0:0
124,244,189960,2,8,P|68:192|52:128,1,140
220,132,190897,6,0,P|256:136|292:132,2,70,8|0|8,0:0|0:0|0:0,0:0:0
192,52,191600,1,0,0:0:0
192,52,191835,2,8,P|256:32|324:52,1,140
320,136,192538,1,0,0:0:0
320,136,192773,2,8,P|256:156|188:136,1,140
124,192,193475,1,0,0:0:0
96,272,193710,6,0,P|160:304,1,70,8|0,0:0|0:0,0:0:0
244,304,194178,2,0,P|316:304,1,70,8|0,0:0|0:0,0:0:0
400,300,194647,2,0,P|462:268,1,70,8|0,0:0|0:0,0:0:0
444,188,195116,5,8,0:0:0
396,128,195350,1,0,0:0:0
320,96,195585,2,8,P|188:144,1,140
196,228,196288,1,0,0:0:0
196,228,196522,2,8,P|328:180,1,140
404,216,197225,1,0,0:0:0
404,216,197460,2,8,P|408:140|360:104,1,140
280,84,198163,5,0,0:0:0
280,84,198397,2,8,P|228:84|228:84|200:104|200:104|144:104,1,140
96,172,199100,1,0,0:0:0
96,172,199335,2,8,P|56:228|72:296,1,140
140,244,200038,1,0,0:0:0
192,308,200272,5,0,0:0:0
256,252,200506,1,0,0:0:0
320,308,200741,1,0,0:0:0
372,244,200975,1,0,0:0:0
412,168,201210,2,0,P|432:124,6,35
352,108,202147,2,0,P|340:76,9,23.3333333333333
276,36,203085,6,0,P|204:36|172:88,1,140,4|8,0:0|0:0,0:0:0
252,108,203788,1,0,0:0:0
196,168,204022,2,0,P|128:168|92:108,1,140,0|8,0:0|0:0,0:0:0
68,32,204725,1,0,0:0:0
16,100,204960,1,0,0:0:0
16,268,205428,6,0,P|48:268|76:296,1,70,8|0,0:0|0:0,0:0:0
16,352,205897,1,0,0:0:0
100,368,206131,1,0,0:0:0
156,304,206366,1,8,0:0:0
256,168,206835,6,0,P|324:168|360:112,1,140,0|8,0:0|0:0,0:0:0
280,96,207538,1,0,0:0:0
280,96,207772,2,0,P|360:220,1,140,0|8,0:0|0:0,0:0:0
396,288,208475,1,0,0:0:0
320,328,208710,2,0,P|256:304|192:328,2,140,0|8|0,0:0|0:0|0:0,0:0:0
396,288,209881,6,0,P|444:236,1,70,0|8,0:0|0:0,0:0:0
444,148,210350,2,0,P|396:96,1,70
256,192,211053,2,0,P|108:192,2,140,8|0|8,0:0|0:0|0:0,0:0:0
340,192,212225,5,0,0:0:0
408,144,212460,2,0,P|451:192|408:240,1,140,0|8,0:0|0:0,0:0:0
340,288,213163,2,0,P|296:348,1,70
213,344,213631,2,0,P|172:288,1,70,0|8,0:0|0:0,0:0:0
256,140,214335,6,0,P|256:284,1,140,0|8,0:0|0:0,0:0:0
172,288,215038,1,0,0:0:0
216,360,215272,1,0,0:0:0
296,360,215506,1,0,0:0:0
340,288,215741,2,0,P|408:288|452:232,2,140,8|0|8,0:0|0:0|0:0,0:0:0
256,288,216913,1,0,0:0:0
172,288,217147,6,0,P|104:288|60:232,2,140,0|8|4,0:0|0:0|0:0,0:0:0
256,144,218553,2,0,P|256:0,1,140,8|0,0:0|0:0,0:0:0
192,60,219256,1,0,0:0:0
192,60,219491,2,0,P|256:84|320:59,1,140,8|0,0:0|0:0,0:0:0
312,228,220428,6,0,P|380:208|444:228,2,140,8|0|8,0:0|0:0|0:0,0:0:0
256,292,221600,1,0,0:0:0
196,352,221835,2,0,P|128:372|64:352,2,140,0|8|0,0:0|0:0|0:0,0:0:0
256,292,223006,1,0,0:0:0
256,292,223241,2,0,P|256:152,1,140,8|0,0:0|0:0,0:0:0
420,184,224178,6,0,P|380:120|320:100,1,140,8|0,0:0|0:0,0:0:0
256,152,224881,1,0,0:0:0
190,100,225116,2,0,P|132:120|92:184,1,140,8|0,0:0|0:0,0:0:0
184,324,226053,5,8,0:0:0
256,276,226288,1,0,0:0:0
328,324,226522,2,0,P|400:324|420:264,2,140,0|8|0,0:0|0:0|0:0,0:0:0
328,60,227928,1,8,0:0:0
328,60,228163,1,0,0:0:0
328,60,228397,2,0,P|400:60|420:120,1,140,0|8,0:0|0:0,0:0:0
340,144,229100,1,0,0:0:0
272,192,229335,6,0,P|200:192|200:192|148:236,1,140,0|8,0:0|0:0,0:0:0
208,292,230038,1,0,0:0:0
152,352,230272,2,0,P|92:352|32:304,1,140,0|8,0:0|0:0,0:0:0
28,220,230975,1,0,0:0:0
80,156,231210,2,0,P|144:156|176:92,1,140,0|8,0:0|0:0,0:0:0
256,64,231913,1,0,0:0:0
335,94,232147,2,0,P|368:156|432:156,2,140,0|8|0,0:0|0:0|0:0,0:0:0
