osu file format v5

[General]
AudioFilename: Jennette McCurdy So Close.mp3
AudioLeadIn: 0
PreviewTime: -1
Countdown: 1
SampleSet: Normal
StackLeniency: 0.7
Mode: 0
LetterboxInBreaks: 1
EditorDistanceSpacing: 0.800000011920929

[Metadata]
Title:So Close
Artist:Jennette McCurdy
Creator:evilc
Version:Normal
Source:
Tags:Jennette McCurdy So Close

[Difficulty]
HPDrainRate:7
CircleSize:5
OverallDifficulty:4
SliderMultiplier:1.4
SliderTickRate:1

[Events]
//Background and Video events
0,0,"jennette.png"
//Break Periods
2,21707,24666
2,42476,59986
2,83566,85756
2,141450,143640
//Storyboard Layer 0 (Background)
//Storyboard Layer 1 (Failing)
//Storyboard Layer 2 (Passing)
//Storyboard Layer 3 (Foreground)
//Storyboard Sound Samples
//Background Colour Transformations
3,100,163,162,255

[TimingPoints]
1315,512.820512820513,4,1,0,40,1,0
148494,-100,4,2,0,40,0,0
163879,-100,4,1,0,40,0,1

[HitObjects]
256,192,9520,1,0
392,192,10225,1,0
176,64,11571,1,0
176,176,12020,1,0
176,288,12532,1,8
288,296,13109,6,0,L|288:144,3,140
352,64,15161,1,0
416,152,15673,1,0
352,288,16379,1,8
256,72,17468,5,0
432,208,18494,1,8
176,328,19776,1,0
80,144,20738,1,0
232,72,21507,1,8
40,328,25866,5,0
40,120,26891,1,8
280,120,27917,1,0
280,344,29007,1,8
160,152,29968,5,0
232,152,30225,1,0
328,288,30994,1,0
400,288,31250,1,0
368,120,32020,2,0,L|152:120,1,210
312,192,33815,5,0
104,192,34840,1,0
344,192,35930,1,0
144,192,36891,1,0
352,304,37917,1,8
256,192,38494,12,4,42276
256,192,61250,5,0
256,192,61507,1,0
256,192,61763,1,0
256,192,62020,1,0
256,192,62276,1,0
256,192,62532,2,0,L|384:112,5,140
256,144,65609,5,8
192,192,65866,1,8
256,224,66122,1,8
320,192,66379,1,8
256,192,66635,1,8
256,96,67148,5,0
256,224,67661,1,0
256,96,68173,1,0
256,224,68686,1,0
256,96,69199,1,0
72,192,70225,6,0,L|160:192,1,87.5
200,192,70802,1,0
256,96,71250,1,0
400,96,71763,1,0
320,176,72276,1,0
448,176,72789,1,0
368,272,73302,1,0
472,312,73815,1,4
296,272,74648,6,0,L|224:272,1,70
72,280,75609,1,0
256,192,77725,12,12,83366
256,192,86956,5,0
168,264,87468,1,0
376,264,88430,1,0
184,144,89456,1,0
256,296,90225,1,8
224,296,91058,6,0,L|224:144,3,140
160,64,93110,1,0
160,176,93622,1,0
160,312,94328,1,8
144,144,95097,5,0
272,136,95673,1,0
392,232,96379,1,8
176,168,97404,1,0
400,232,98494,1,0
184,168,99456,1,8
256,192,100289,12,8,103879
152,112,104584,5,0
256,184,105097,1,0
344,256,105609,1,0
208,144,107981,6,0,L|288:144,1,70
312,232,108750,2,0,L|168:232,1,140
256,312,109776,1,0
256,192,110738,5,0
256,192,110995,1,0
256,192,111251,1,0
256,192,111508,1,0
256,192,111763,2,0,L|128:112,5,140
256,144,115353,5,0
192,192,115610,1,0
256,224,115866,1,0
360,192,116379,1,0
264,224,116891,1,0
168,120,117404,1,8
248,88,117917,1,8
440,192,119520,6,0,L|360:192,1,70
312,192,120032,1,0
256,96,120481,1,0
112,96,120994,1,0
192,176,121507,1,0
64,176,122085,1,0
144,272,122597,1,0
192,272,122853,1,0
248,272,123045,1,0
344,272,123558,2,0,L|232:176,1,140
256,192,126891,5,0
256,192,127148,1,0
256,192,127404,1,0
256,192,127661,1,0
256,192,127917,1,0
256,192,128173,2,0,L|128:272,5,140
256,240,131250,5,8
320,192,131507,1,8
256,160,131763,1,8
192,192,132020,1,8
256,192,132276,1,8
256,288,132789,5,0
256,160,133302,1,0
256,288,133814,1,0
256,160,134327,1,0
256,288,134840,1,0
440,192,135866,6,0,L|352:192,1,87.5
312,192,136443,1,0
256,288,136891,1,0
112,288,137404,1,0
192,208,137917,1,0
64,208,138430,1,0
144,112,138943,1,0
40,72,139456,1,4
216,112,140289,6,0,L|288:112,1,70
440,104,141250,1,0
112,64,144840,5,4
376,64,145609,1,4
256,272,146956,1,4
256,192,149007,12,6,152853
88,80,153622,5,0
320,80,154648,1,8
200,80,155673,1,0
432,80,156699,1,8
256,88,157725,5,0
256,320,158750,1,8
88,304,159776,5,0
256,304,160289,1,2
400,304,160802,1,0
80,72,161315,1,2
256,72,161827,1,0
400,72,162340,1,2
400,192,162853,1,0
256,192,164135,5,0
256,192,164391,1,0
256,192,164648,1,0
256,192,164904,1,0
256,192,165161,12,12,167468
