osu file format v13

[General]
AudioFilename: jenalee.mp3
AudioLeadIn: 0
PreviewTime: 73506
Countdown: 0
SampleSet: Normal
StackLeniency: 0.7
Mode: 0
LetterboxInBreaks: 1
EpilepsyWarning: 1
WidescreenStoryboard: 1

[Editor]
Bookmarks: 271,5918,17212,28506,39800,51094,62388,73682,84976,96270,118506,122388,124506,130153,141447,152741,156270,158388,164035,175329,178859
DistanceSpacing: 1
BeatDivisor: 2
GridSize: 4
TimelineZoom: 1

[Metadata]
Title:Ma Reference
TitleUnicode:Ma Référence
Artist:Jena Lee
ArtistUnicode:Jena Lee
Creator:Project Railgun
Version:Normal
Source:
Tags:project_railgun alarido xxcrystalmoonanimexx kanari sylvia garcia ma référence my reference
BeatmapID:435310
BeatmapSetID:179158

[Difficulty]
HPDrainRate:4
CircleSize:3
OverallDifficulty:3
ApproachRate:5
SliderMultiplier:1
SliderTickRate:1

[Events]
//Background and Video events
0,0,"bg.jpg",0,0
//Break Periods
2,96470,117306
//Storyboard Layer 0 (Background)
//Storyboard Layer 1 (Fail)
//Storyboard Layer 2 (Pass)
//Storyboard Layer 3 (Foreground)
//Storyboard Sound Samples
//Background Colour Transformations
3,100,46,203,187

[TimingPoints]
271,352.941176470588,4,2,2,30,1,0
4153,-100,4,2,2,50,0,0
24800,-100,4,2,4,50,0,0
25153,-100,4,2,2,50,0,0
26212,-100,4,2,4,50,0,0
26565,-100,4,2,2,50,0,0
28506,-100,4,1,2,50,0,1
30444,-100,4,2,3,50,0,1
30803,-100,4,1,2,50,0,1
34153,-100,4,1,2,50,0,0
39800,-100,4,1,2,50,0,1
45970,-100,4,2,3,50,0,1
46329,-100,4,1,2,50,0,1
47388,-100,4,2,3,50,0,1
47741,-100,4,1,2,50,0,1
51094,-100,4,2,2,30,0,0
51270,-100,4,2,2,50,0,0
60094,-100,4,2,4,50,0,0
60447,-100,4,2,2,50,0,0
61506,-100,4,2,4,50,0,0
61859,-100,4,2,2,50,0,0
65741,-100,4,2,4,50,0,0
66094,-100,4,2,2,50,0,0
67153,-100,4,2,4,50,0,0
67506,-100,4,2,2,50,0,0
73682,-100,4,1,2,50,0,1
79329,-100,4,1,2,50,0,0
82682,-100,4,2,3,50,0,0
83035,-100,4,1,2,50,0,0
84976,-100,4,1,2,50,0,1
96270,-100,4,2,2,20,0,0
118506,-100,4,2,2,40,0,0
127329,-100,4,3,0,45,0,0
130153,-100,4,1,2,50,0,1
135800,-100,4,1,2,50,0,0
141447,-100,4,1,2,50,0,1
152653,-100,4,1,2,50,0,0
152741,-100,4,1,2,50,0,1
163153,-100,4,2,3,50,0,1
163506,-100,4,1,2,50,0,1
163947,-100,4,1,2,50,0,0
164035,-100,4,1,2,50,0,1
170212,-100,4,2,3,50,0,1
170565,-100,4,1,2,50,0,1
175329,-100,4,2,2,50,0,0
175682,-100,4,2,2,45,0,0
176035,-100,4,2,2,40,0,0
176388,-100,4,2,2,35,0,0
176741,-100,4,2,2,30,0,0
177094,-100,4,2,2,25,0,0
177447,-100,4,2,2,20,0,0
177800,-100,4,2,2,15,0,0
178153,-100,4,2,2,10,0,0
178506,-100,4,2,2,5,0,0
178859,-100,4,2,2,5,0,0

[Colours]
Combo1 : 77,56,135
Combo2 : 109,197,192
Combo3 : 98,106,204
Combo4 : 82,226,211
Combo5 : 35,52,135
Combo6 : 101,186,237

[HitObjects]
64,212,271,6,0,B|88:136|88:136|144:152|188:120,1,150
256,112,1153,2,0,L|256:184,1,50
354,136,1682,2,0,B|368:152|424:136|424:136|448:212,1,150
380,284,2565,2,0,P|344:288|300:272,1,50
236,256,3094,2,0,B|196:232|152:256|152:256|104:200,1,150
256,192,4153,12,0,5918,0:0:0:0:
60,204,6623,6,0,B|112:200|120:136|120:136|176:176|220:132,1,200,8|0,0:0|0:0,0:0:0:0:
288,76,7682,1,0,0:0:0:0:
352,152,8035,1,8,0:0:0:0:
436,100,8388,1,0,0:0:0:0:
472,192,8741,6,0,P|448:272|340:308,1,200,0|8,0:0|0:0,0:0:0:0:
256,260,9800,1,0,0:0:0:0:
166,309,10153,2,0,P|73:282|40:192,1,200,0|8,0:0|0:0,0:0:0:0:
96,108,11212,2,0,P|172:96|224:116,1,100
388,148,12270,6,0,B|424:176|472:164|472:164|444:232|444:304,1,200,8|0,0:0|0:0,0:0:0:0:
364,328,13329,2,0,P|288:340|236:320,1,100,0|8,0:0|0:0,0:0:0:0:
176,288,14035,1,0,0:0:0:0:
104,220,14388,6,0,B|76:164|96:112|96:112|152:136|216:96,1,200,0|8,0:0|0:0,0:0:0:0:
256,48,15447,1,0,0:0:0:0:
329,112,15800,2,0,B|360:136|416:112|416:112|436:164|408:220,1,200,0|8,0:0|0:0,0:0:0:0:
340,288,16859,1,0,0:0:0:0:
248,332,17212,6,0,P|120:328|64:252,1,200,0|8,0:0|0:0,0:0:0:0:
120,192,18270,1,0,0:0:0:0:
75,103,18623,2,0,P|151:42|248:52,1,200,0|8,0:0|0:0,0:0:0:0:
340,88,19682,2,0,P|404:96|464:72,2,100
248,52,20741,5,8,0:0:0:0:
200,140,21094,1,0,0:0:0:0:
293,180,21447,2,0,B|340:192|368:232|368:232|416:268|464:222,1,200,0|8,0:0|0:0,0:0:0:0:
472,124,22506,2,0,B|452:88|420:96|404:52,1,100
304,36,23212,6,0,L|180:36,1,100,0|8,0:0|0:0,0:0:0:0:
107,52,23918,2,0,B|92:96|60:88|40:124,1,100
44,224,24623,2,0,B|100:316|100:316|136:284|204:308,1,200
256,228,25682,5,0,0:0:0:0:
324,302,26035,2,0,B|376:284|412:316|412:316|468:224,1,200
436,128,27094,1,0,0:0:0:0:
340,160,27447,1,0,0:0:0:0:
332,60,27800,1,8,0:0:0:0:
340,160,28153,6,0,B|332:160|333:192|309:154|309:197|287:154|285:203|264:160|260:184|248:188,1,100,0|4,0:0|0:0,0:0:0:0:
80,296,29212,2,0,B|40:240|68:200|68:200|100:156|60:84,1,200,2|0,3:0|0:0,0:0:0:0:
160,60,30270,2,0,B|220:36|256:56|256:56|304:32|360:60,1,200
440,106,31329,6,0,B|412:156|444:200|444:200|468:240|432:296,1,200,0|2,0:0|3:0,0:0:0:0:
364,364,32388,1,0,0:0:0:0:
288,300,32741,1,0,0:0:0:0:
196,344,33094,2,0,P|136:356|64:336,2,100,0|2|0,0:0|3:0|0:0,0:0:0:0:
288,300,34153,6,0,B|360:248|464:336|464:200,1,200,0|2,0:0|3:0,0:0:0:0:
420,144,35212,1,0,0:0:0:0:
352,72,35565,2,0,P|256:48|132:88,1,200,0|2,0:0|3:0,0:0:0:0:
92,144,36623,1,0,0:0:0:0:
50,235,36976,6,0,P|90:319|181:302,1,200,0|2,0:0|3:0,0:0:0:0:
256,236,38035,1,0,0:0:0:0:
330,301,38388,2,0,P|422:318|462:235,1,200,0|2,0:0|3:0,0:0:0:0:
420,144,39447,1,0,0:0:0:0:
344,76,39800,6,0,B|296:76|256:116|256:116|208:76|152:76,1,200,8|2,3:0|3:0,0:0:0:0:
92,144,40859,1,0,0:0:0:0:
40,228,41212,2,0,B|72:268|132:248|132:248|136:308|196:316,1,200,0|2,0:0|3:0,0:0:0:0:
256,236,42270,1,0,0:0:0:0:
320,315,42623,6,0,B|376:308|380:248|380:248|440:268|472:228,1,200,0|2,0:0|3:0,0:0:0:0:
420,144,43682,1,0,0:0:0:0:
352,72,44035,2,0,P|256:44|160:84,2,200,0|2|0,0:0|3:0|0:0,0:0:0:0:
420,144,45800,6,0,B|436:240|436:240|376:220|332:260,1,200
256,312,46859,1,0,0:0:0:0:
173,254,47212,2,0,B|136:220|76:240|76:240|92:144,1,200
44,60,48270,5,0,0:0:0:0:
140,40,48623,2,0,P|224:36|276:52,1,100,0|2,0:0|3:0,0:0:0:0:
292,124,49329,2,0,P|341:129|390:123,1,100
472,64,50035,1,0,0:0:0:0:
488,164,50388,2,0,B|492:216|492:216|460:240|432:272,1,100,2|0,3:0|0:0,0:0:0:0:
376,308,51094,1,4,0:0:0:0:
180,260,51800,6,0,P|144:208|148:136,1,100,8|0,0:0|0:0,0:0:0:0:
184,84,52506,1,0,0:0:0:0:
256,156,52859,1,0,0:0:0:0:
328,84,53212,1,8,0:0:0:0:
372,172,53565,2,0,P|362:221|332:260,1,100
232,264,54270,6,0,P|152:272|112:304,2,100,0|8|0,0:0|0:0|0:0,0:0:0:0:
332,260,55329,2,0,P|381:261|427:242,1,100,0|0,0:0|0:0,0:0:0:0:
496,172,56035,1,8,0:0:0:0:
428,100,56388,1,0,0:0:0:0:
344,48,56741,2,0,P|272:44|216:68,1,100
160,100,57447,6,0,B|152:152|112:184|112:184|148:216|156:272,1,200,8|0,0:0|0:0,0:0:0:0:
236,332,58506,1,0,0:0:0:0:
320,276,58859,1,8,0:0:0:0:
404,332,59212,2,0,B|436:304|460:308|464:240,1,100
396,180,59918,6,0,P|256:136|96:192,1,300
72,272,61329,2,0,P|256:336|456:260,1,400
480,180,63094,6,0,B|464:136|464:136|436:128|412:88,1,100,8|0,0:0|0:0,0:0:0:0:
340,52,63800,1,0,0:0:0:0:
256,108,64153,1,0,0:0:0:0:
172,52,64506,2,0,B|136:84|76:60|76:60|32:112|72:176,1,200,8|0,0:0|0:0,0:0:0:0:
124,228,65565,2,0,P|208:240|264:212,1,150
347,156,66447,6,0,P|390:131|440:127,1,100
492,211,67153,2,0,P|437:260|364:258,1,150,0|0,0:0|0:0,0:0:0:0:
276,216,68035,2,0,B|196:188|220:92|92:108,1,200,0|8,0:0|0:0,0:0:0:0:
40,168,69094,1,0,0:0:0:0:
92,252,69447,2,0,P|128:288|192:296,1,100
272,284,70153,2,0,L|384:268,1,100,8|0,0:0|0:0,0:0:0:0:
256,192,70859,12,4,73683,0:0:0:0:
160,112,74388,6,0,B|224:112|256:88|256:88|288:112|368:112,1,200,2|0,3:0|0:0,0:0:0:0:
428,176,75447,2,0,L|480:296,2,100,0|2|0,0:0|3:0|0:0,0:0:0:0:
351,112,76506,6,0,P|256:136|204:248,1,200,0|2,0:0|3:0,0:0:0:0:
176,316,77565,2,0,P|112:320|60:292,1,100
44,216,78270,2,0,L|32:112,2,100,0|2|0,0:0|3:0|0:0,0:0:0:0:
80,307,79329,6,0,P|160:308|196:188,1,200,0|2,0:0|3:0,0:0:0:0:
256,124,80388,1,0,0:0:0:0:
307,209,80741,2,0,P|337:298|432:307,1,200,0|2,0:0|3:0,0:0:0:0:
500,232,81800,1,0,0:0:0:0:
476,136,82153,2,0,P|256:32|24:156,1,500
72,232,84270,6,0,B|124:240|220:172|308:224,1,200,2|8,3:0|3:0,0:0:0:0:
468,176,85682,2,0,P|448:96|376:36,2,150,2|0|2,3:0|0:0|3:0,0:0:0:0:
408,256,87094,2,0,P|324:264|276:232,1,100,2|0,3:0|0:0,0:0:0:0:
236,192,87800,6,0,P|187:182|139:195,1,100
44,164,88506,2,0,P|64:84|140:64,1,150,2|0,3:0|0:0,0:0:0:0:
204,116,89388,1,0,0:0:0:0:
256,32,89741,1,0,0:0:0:0:
308,116,90094,2,0,P|356:144|424:132,1,100
448,148,90623,6,0,P|420:256|336:296,1,200,0|2,0:0|3:0,0:0:0:0:
256,248,91682,1,0,0:0:0:0:
164,294,92035,2,0,P|82:243|64:148,1,200,0|2,0:0|3:0,0:0:0:0:
132,72,93094,1,0,0:0:0:0:
224,32,93447,6,0,L|348:12,1,100
420,40,94153,2,0,P|440:84|444:176,1,100,2|0,3:0|0:0,0:0:0:0:
408,228,94859,1,0,0:0:0:0:
320,176,95212,1,0,0:0:0:0:
240,236,95565,2,0,B|192:256|152:224|116:260,1,100,2|0,3:0|0:0,0:0:0:0:
48,280,96270,1,2,0:0:0:0:
256,192,118506,12,0,124506,0:0:0:0:
100,116,124859,5,0,0:0:0:0:
183,167,125212,2,0,P|232:178|282:173,1,100
376,140,125918,2,0,P|425:135|474:145,2,100,0|0|0,0:0|0:0|0:0,0:0:0:0:
282,174,126976,2,0,B|256:204|240:208|240:208|228:232|200:252,1,100
128,296,127682,5,0,0:0:0:0:
60,220,128035,2,0,L|80:104,1,100
256,32,129094,2,0,P|360:88|356:128,1,100
412,128,129800,2,0,B|406:133|429:155|385:145|416:176|370:161|403:197|358:181|372:201|366:212,1,100,0|4,0:0|0:0,0:0:0:0:
212,344,130859,6,0,B|168:296|124:352|80:328|80:328|16:300|72:196,1,200,2|0,3:0|0:0,0:0:0:0:
124,220,131918,1,0,0:0:0:0:
46,152,132270,1,2,3:0:0:0:
124,88,132623,1,0,0:0:0:0:
200,152,132976,6,0,B|244:200|288:144|332:168|332:168|396:196|340:300,1,200,0|2,0:0|3:0,0:0:0:0:
384,312,134035,2,0,P|480:312|512:280,1,100
484,212,134741,2,0,L|464:96,2,100,0|2|0,0:0|3:0|0:0,0:0:0:0:
479,312,135800,6,0,B|424:308|376:352|304:324|276:256,1,200,0|2,0:0|3:0,0:0:0:0:
228,208,136859,1,0,0:0:0:0:
144,152,137212,2,0,P|84:132|28:144,2,100,0|0|2,0:0|0:0|3:0,0:0:0:0:
228,208,138271,1,0,0:0:0:0:
293,285,138623,6,0,P|412:204|416:132,1,200,0|2,0:0|3:0,0:0:0:0:
352,84,139682,1,0,0:0:0:0:
256,52,140036,2,0,P|196:48|152:68,1,100
76,120,140741,6,0,P|68:204|168:268,1,200,2|8,3:0|3:0,0:0:0:0:
312,144,142153,2,0,P|376:176|404:272,2,150,2|0|0,3:0|0:0|0:0,0:0:0:0:
224,188,143565,2,0,P|152:192|104:168,1,100,2|0,3:0|0:0,0:0:0:0:
36,140,144270,6,0,B|56:72|100:60|100:60|152:88|216:56,1,200,0|2,0:0|3:0,0:0:0:0:
280,28,145329,2,0,P|340:20|384:36,1,100
452,96,146035,2,0,P|476:144|484:200,1,100,0|2,0:0|3:0,0:0:0:0:
436,276,146741,1,0,0:0:0:0:
348,328,147094,6,0,P|256:360|140:316,1,200,0|2,0:0|3:0,0:0:0:0:
76,276,148153,1,0,0:0:0:0:
28,189,148506,2,0,P|37:140|60:96,2,100,0|0|2,0:0|0:0|3:0,0:0:0:0:
76,276,149565,1,0,0:0:0:0:
160,332,149918,6,0,P|216:340|288:324,1,100
340,276,150623,1,2,3:0:0:0:
416,344,150976,1,0,0:0:0:0:
472,260,151329,2,0,L|500:156,2,100,0|0|2,0:0|0:0|3:0,0:0:0:0:
416,344,152388,1,0,0:0:0:0:
256,192,152741,12,0,158388,0:0:0:0:
440,240,158741,6,0,P|391:251|341:246,1,100,0|2,0:0|3:0,0:0:0:0:
256,192,159447,1,0,0:0:0:0:
168,144,159800,2,0,P|119:139|70:149,2,100,0|0|2,0:0|0:0|3:0,0:0:0:0:
256,192,160859,2,0,B|308:208|328:268,1,100
384,340,161564,5,0,0:0:0:0:
444,259,161917,2,0,L|464:143,1,100,2|0,3:0|0:0,0:0:0:0:
292,52,162976,2,0,B|204:92|128:60|128:60|76:140|140:204,1,300,0|4,0:0|0:0,0:0:0:0:
280,304,164741,6,0,P|352:316|436:292,2,150,2|0|2,3:0|0:0|3:0,0:0:0:0:
200,244,166153,2,0,P|132:236|88:256,1,100,2|0,3:0|0:0,0:0:0:0:
20,300,166859,1,0,0:0:0:0:
64,104,167565,6,0,P|132:52|260:76,1,200,2|0,3:0|0:0,0:0:0:0:
320,124,168623,2,0,P|384:132|428:120,2,100,0|2|0,0:0|3:0|0:0,0:0:0:0:
241,63,169682,6,0,P|137:267|245:331,1,400
336,296,171447,2,0,P|388:280|452:284,2,100,0|2|0,0:0|3:0|0:0,0:0:0:0:
240,331,172506,6,0,P|200:284|184:208,1,100
120,176,173212,2,0,P|184:140|252:176,1,150,2|0,3:0|0:0,0:0:0:0:
288,200,173918,2,0,P|352:216|404:192,1,100
460,144,174623,2,0,L|428:40,1,100,2|0,3:0|0:0,0:0:0:0:
256,192,175329,12,0,178859,0:0:0:0:
