osu file format v5

[General]
AudioFilename: Jellyfish - Ignorance is Bliss.mp3
AudioLeadIn: 0
PreviewTime: -1
Countdown: 0
SampleSet: Soft
StackLeniency: 0.7
Mode: 0
LetterboxInBreaks: 1
EditorBookmarks: 38692,40223,43054,44366,60450,61653,70181,71493,74555,75867,101670,102982,106044,107356,121132,123647,127482,130106,132293,141480,143219,145077,146827,148685,150435,152549,154881,154932,177465,178465,181064,182464,190263,191263,193863,195062

[Metadata]
Title:Ignorance is Bliss
Artist:Jellyfish
Creator:Mifune24
Version:Normal
Source:
Tags:

[Difficulty]
HPDrainRate:5
CircleSize:5
OverallDifficulty:5
SliderMultiplier:1.2
SliderTickRate:1

[Events]
//Background and Video events
1,-5000,"d23518aa348b4cc24875adb30d349cc3.avi"
//Break Periods
2,115389,120043
2,123846,126424
2,132493,140689
2,155042,162908
2,199661,204011
//Storyboard Layer 0 (Background)
//Storyboard Layer 1 (Failing)
//Storyboard Layer 2 (Passing)
//Storyboard Layer 3 (Foreground)
//Storyboard Sound Samples
//Background Colour Transformations
3,100,163,162,255

[TimingPoints]
1934,437.449661054013,4,2,0,100,1
163119,399.949661054005,4,2,0,100,1

[HitObjects]
64,64,24462,5,0
160,64,24900,1,0
256,64,25337,1,0
352,64,25775,1,0
352,160,26212,1,0
256,160,26649,1,0
160,160,27087,1,0
64,160,27524,1,0
188,187,29055,5,2
236,187,29274,1,2
284,187,29493,1,2
332,188,29712,1,2
64,288,31024,5,0
64,192,31461,1,0
160,192,31899,1,0
160,288,32336,1,0
256,288,32774,1,0
256,192,33211,1,0
352,192,33649,1,0
352,288,34086,1,0
310,189,36055,5,2
262,190,36273,1,2
213,188,36492,1,2
164,186,36711,1,2
50,332,37804,5,0
50,332,38023,1,0
50,332,38242,1,0
50,236,38679,2,0,B|43:175|115:135|198:125|238:217|304:263|350:129,1,360
357,62,40429,5,0
276,114,40867,1,0
193,64,41304,1,0
114,118,41741,1,0
31,68,42179,1,0
10,240,43054,2,0,B|47:299|141:310|251:299|300:267|331:231|357:225,1,360
480,160,45241,5,2
384,160,45678,1,2
288,160,46116,1,2
192,160,46553,1,2
96,160,46991,1,2
43,301,47866,1,0
130,339,48303,1,0
225,339,48741,2,0,B|308:341|361:289,1,120
252,91,51365,5,2
250,139,51584,1,2
249,187,51803,1,2
249,234,52021,1,2
249,282,52240,1,4
96,96,55959,5,0
192,96,56396,1,0
288,96,56833,1,0
384,96,57271,1,0
416,192,57708,1,0
320,192,58146,1,0
224,192,58583,1,0
128,192,59021,1,0
213,84,60442,6,2,B|217:27|278:17|356:54|339:124|232:162|232:162|231:243,1,330
227,333,62083,1,4
227,333,62302,1,4
322,332,62739,6,0,B|413:237,1,120
454,162,63614,2,0,B|350:54,1,120
274,77,64489,2,0,B|180:171,1,120
133,240,65364,2,0,B|216:331,1,120
309,328,66239,5,2
404,326,66676,1,2
404,230,67113,1,2
307,228,67551,2,2,B|244:228,3,60
450,250,69301,5,0
450,250,69519,1,0
450,250,69738,1,0
451,153,70176,2,0,B|440:96|393:58|346:60|303:151|274:214|209:198|183:99,1,360
90,92,71925,5,2
10,145,72363,1,2
93,192,72800,1,2
11,243,73238,1,2
94,290,73675,1,2
277,347,74550,2,2,B|334:354|366:288|304:219|237:184|232:128|319:35,1,360
181,63,76737,6,2,B|131:118,1,60
113,147,77175,2,2,B|161:195,1,60
146,236,77612,2,2,B|108:292,1,60
133,328,78050,2,2,B|193:369,1,60
222,335,78487,2,2,B|267:277,1,60
301,265,78925,2,2,B|346:325,1,60
368,349,79362,2,2,B|431:305,1,60
461,295,79800,2,2,B|375:183,1,120
255,284,82862,5,2
255,236,83080,1,2
255,187,83299,1,2
255,138,83518,1,2
256,89,83737,1,4
348,65,84174,5,4
446,166,84611,1,4
357,271,85049,1,4
246,365,85486,1,4
137,277,85924,1,4
49,167,86361,1,4
145,63,86799,1,4
278,51,87236,6,0,B|358:46|376:134,1,120
370,110,88111,2,0,B|293:148|314:222,1,120
309,201,88986,2,0,B|389:202|410:281,1,120
404,262,89861,2,0,B|322:263|321:345,1,120
224,320,90736,5,0
128,320,91173,1,0
32,320,91611,1,0
96,224,92048,1,0
192,224,92486,1,0
234,64,94235,5,0
330,64,94673,1,0
390,138,95110,1,0
293,141,95548,1,0
264,232,95985,1,0
360,232,96423,1,0
407,315,96860,1,0
310,317,97298,1,0
214,315,97735,2,0,B|181:342|144:303,7,60
111,311,99485,1,2
40,248,99922,1,2
43,151,100360,1,4
112,85,100797,5,2
112,85,101016,1,2
112,85,101235,1,2
193,35,101672,2,2,B|197:75|296:111|414:88|457:132|450:215|430:250,1,360
403,330,103422,5,0
309,307,103859,1,0
217,277,104297,1,0
126,245,104734,1,0
36,208,105172,1,0
86,25,106047,2,0,B|152:90|346:37|413:38|435:102,1,360
416,288,108234,5,2
320,288,108671,1,2
224,288,109109,1,2
128,288,109546,1,2
32,288,109984,1,2
256,192,110858,12,0,113483
168,235,114358,5,2
204,204,114577,1,2
239,171,114796,1,2
274,138,115014,1,2
311,108,115233,1,4
205,64,121139,6,4,B|121:62|54:165|90:275|177:349|270:355|367:328|434:232|429:155|339:74,1,690
194,142,127482,6,0,L|255:31|312:158|448:156|327:243|376:362|261:273|131:355|158:246|47:165|157:162,1,1320
162,354,141480,6,4,B|274:356|413:371|474:303|460:227|388:204|258:224,1,480
34,353,145089,2,4,B|17:143|30:42|99:8|178:13|235:91,1,480
496,83,148698,2,4,B|80:382,1,480
299,126,152526,2,4,B|296:55|238:19|144:16|63:45|34:96|17:187|12:275|16:343|67:361|117:360|166:334|191:294,1,660
64,64,164118,5,0
160,64,164518,1,0
256,64,164918,1,0
352,64,165318,1,0
408,192,165718,6,0,B|276:192,1,120
191,194,166518,2,0,B|58:195,1,120
64,288,167318,5,2
160,288,167718,1,2
256,288,168118,1,2
352,288,168518,1,2
352,192,168918,1,2
256,192,169318,1,2
160,192,169718,1,2
64,192,170118,1,2
66,91,170518,6,2,B|177:30,1,120
266,40,171317,2,2,B|380:125,1,120
372,207,172117,2,2,B|263:276,1,120
174,261,172917,2,2,B|64:184,1,120
256,192,173517,12,0,175517
62,193,175917,5,0
62,193,176317,1,0
62,193,176717,1,0
253,198,177517,2,0,B|258:269|360:301|413:263|421:182,1,240
420,101,178717,5,0
340,47,179116,1,0
263,104,179516,1,0
183,50,179916,1,0
105,106,180316,1,0
27,212,181116,2,0,B|31:313|132:371|224:363|294:326|313:301,1,360
390,206,182716,5,2
425,173,182916,1,2
459,139,183116,1,2
404,60,183516,1,2
350,139,183916,1,2
291,62,184316,1,2
241,143,184716,1,2
65,65,185516,5,0
97,100,185716,1,0
130,134,185916,1,0
156,173,186116,1,0
179,214,186316,2,0,B|228:277|310:310|384:300|441:254|468:194|467:151|441:90|393:69|351:68,1,480
160,64,188715,5,2
160,160,189115,1,2
160,256,189515,1,2
352,256,190315,2,4,B|448:256|448:128|416:96|352:96,1,240
256,96,191515,5,2
160,96,191915,1,2
64,96,192315,1,2
64,192,192715,1,2
160,192,193115,1,2
352,192,193915,2,2,B|448:192|512:288|448:384|256:352,1,360
192,352,195514,5,0
160,320,195714,1,0
128,288,195914,1,0
64,224,196314,1,0
128,160,196714,1,0
192,224,197114,1,0
256,160,197514,1,0
448,160,198314,5,2
416,128,198514,1,2
384,96,198714,1,2
349,67,198914,1,2
320,32,199114,2,2,B|224:128,1,120
256,192,205113,12,4,209513
