osu file format v5

[General]
AudioFilename: Jellyfish - Ignorance is Bliss.mp3
AudioLeadIn: 0
PreviewTime: -1
Countdown: 0
SampleSet: Soft
StackLeniency: 0.7
Mode: 0
LetterboxInBreaks: 1
EditorBookmarks: 38692,40223,60450,61653,70181,71493,74555,75867,101670,102982,106044,107356,121132,123647,127482,132731,141480,143219,145077,146827,148685,150435,152549,154881,154932,177465,178465,181064,182464,190263,191263,193863,195062

[Metadata]
Title:Ignorance is Bliss
Artist:Jellyfish
Creator:Mifune24
Version:Hard
Source:
Tags:

[Difficulty]
HPDrainRate:6
CircleSize:5
OverallDifficulty:6
SliderMultiplier:1.7
SliderTickRate:1

[Events]
//Background and Video events
1,-5000,"d23518aa348b4cc24875adb30d349cc3.avi"
//Break Periods
2,115389,120043
2,123846,126424
2,132922,140529
2,155042,162908
2,199661,204011
//Storyboard Layer 0 (Background)
//Storyboard Layer 1 (Failing)
//Storyboard Layer 2 (Passing)
//Storyboard Layer 3 (Foreground)
//Storyboard Sound Samples
//Background Colour Transformations
3,100,163,162,255

[TimingPoints]
1934,437.449661054013,4,2,0,100,1
163119,399.949661054005,4,2,0,100,1

[HitObjects]
160,64,24900,5,0
224,64,25118,1,0
288,64,25337,1,0
352,64,25556,1,0
480,224,26212,5,0
427,278,26431,1,0
384,224,26649,1,0
337,278,26868,1,0
288,224,27087,1,0
244,276,27306,2,0,C|63:276,1,170
160,192,29055,5,2
224,192,29274,1,2
288,192,29493,1,2
352,192,29712,1,2
64,64,31024,5,0
128,64,31243,1,0
192,64,31461,1,0
256,64,31680,2,0,C|448:64,1,170
448,128,32336,5,0
448,192,32555,1,0
448,256,32774,2,0,C|384:352,1,85
320,320,33211,2,0,C|256:224,1,85
192,256,33649,2,0,C|128:352,1,85
64,320,34086,6,0,B|32:224,1,85
53,173,34523,2,0,B|144:141,1,85
195,115,34961,2,0,B|248:-11,1,127.5
352,192,36055,5,2
288,192,36273,1,2
224,192,36492,1,2
160,192,36711,1,2
160,32,37804,5,0
224,32,38023,1,0
288,32,38242,1,0
396,113,38679,2,0,B|418:209|345:253|267:269|165:273|92:243|35:199|38:157|52:107,1,510
88,32,40429,5,0
164,144,40867,1,0
248,37,41304,1,0
331,144,41741,1,0
415,37,42179,1,0
482,313,43054,2,0,B|452:354|385:356|339:292|316:238|262:220|194:267|169:326|135:357|78:354|27:331|7:279,1,510
64,160,44804,5,2
64,96,45022,1,2
64,32,45241,1,2
192,96,45678,1,2
320,32,46116,1,2
448,96,46553,1,2
320,160,46991,1,2
32,160,47866,5,0
80,206,48084,1,0
133,248,48303,1,0
185,291,48522,1,0
247,317,48741,1,0
382,315,49178,2,0,B|469:327|533:214|513:104|406:57,1,340
256,64,51365,5,2
256,128,51584,1,2
256,192,51803,1,2
256,256,52021,1,2
256,320,52240,1,4
128,64,55084,5,0
192,64,55302,2,0,B|352:160,1,170
384,192,55959,1,0
448,224,56177,2,0,B|288:320,1,170
256,352,56833,5,0
192,320,57052,1,0
256,288,57271,1,0
192,256,57490,1,0
128,256,57708,2,0,B|64:320,1,85
32,256,58146,2,0,B|96:192,1,85
160,192,58583,2,0,B|64:64,2,127.5
192,32,60442,6,2,B|224:-32|352:-32|384:96|320:160|224:128|224:128|224:288,1,467.5
224,352,62083,1,4
224,352,62302,1,4
352,352,62739,5,0
416,352,62958,1,0
416,288,63176,1,0
352,288,63395,2,0,C|352:96,1,170
308,65,64051,1,0
269,121,64270,1,0
212,83,64489,2,0,B|148:147|212:243,1,170
224,320,65145,1,0
288,342,65364,2,0,B|343:294|286:242,1,85
285,202,65801,1,0
253,141,66020,1,0
303,95,66239,2,0,B|350:59|410:124,1,85
420,153,66676,2,0,B|347:229|410:310,1,170
467,337,67332,5,2
510,284,67551,1,2
460,237,67770,1,2
505,187,67988,1,2
465,131,68207,1,2
192,32,69301,5,0
256,32,69519,1,0
320,32,69738,1,0
436,102,70176,2,0,B|439:225|280:281|178:255|67:209|44:146|72:88,1,510
192,64,71925,5,0
320,128,72363,1,0
192,192,72800,1,0
320,256,73238,1,0
192,320,73675,1,0
481,192,74550,2,0,B|326:76|153:346|-10:165,1,510
160,32,76519,5,2
224,32,76737,2,2,B|288:96,1,85
320,160,77175,1,2
352,224,77394,1,2
288,224,77612,1,2
224,224,77831,2,2,B|160:160,1,85
120,111,78268,1,2
84,52,78487,1,2
52,112,78706,1,2
55,180,78925,2,2,L|138:261,1,85
157,293,79362,1,2
194,349,79581,1,2
234,294,79800,1,2
269,351,80018,1,2
309,295,80237,1,2
259,50,82862,5,2
258,118,83080,1,2
257,187,83299,1,2
258,256,83518,1,2
255,325,83737,1,4
128,320,84174,5,4
64,192,84611,1,4
128,64,85049,1,4
256,32,85486,1,4
384,64,85924,1,4
448,192,86361,1,4
384,320,86799,1,4
256,288,87236,6,0,B|192:288,1,42.5
96,288,87674,2,0,B|96:224,1,42.5
96,128,88111,2,0,B|160:128,1,42.5
256,128,88549,2,0,B|256:192,1,42.5
256,256,88986,2,0,B|352:256,1,85
352,320,89423,2,0,B|256:320,1,85
192,320,89861,2,0,B|160:224,1,85
148,173,90298,5,0
130,107,90517,1,0
193,82,90736,2,0,B|293:45,1,85
317,103,91173,2,0,C|221:145,1,85
268,198,91611,1,0
330,172,91829,1,0
358,233,92048,1,0
295,260,92267,1,0
349,300,92486,1,0
21,186,93579,5,2
89,185,93798,1,2
157,181,94017,1,2
224,182,94235,2,2,B|294:249,1,85
341,202,94673,2,2,B|416:138,1,85
449,198,95110,2,2,B|507:271,1,85
451,310,95548,2,2,B|372:355,1,85
308,349,95985,2,2,B|251:277,1,85
215,227,96423,2,2,B|137:289,1,85
99,327,96860,2,2,B|21:237,1,85
43,194,97298,5,0
83,139,97516,1,0
136,180,97735,1,0
172,122,97954,1,0
227,161,98172,1,0
262,102,98391,1,0
313,146,98610,1,0
350,89,98829,1,0
402,131,99047,1,0
444,77,99266,1,0
495,121,99485,2,0,B|461:207,1,85
395,198,99922,2,0,B|434:288,1,85
470,329,100360,2,0,B|379:342,1,85
317,346,100797,5,2
249,346,101016,1,2
180,346,101235,1,2
72,263,101672,2,2,B|73:147|198:83|315:73|423:162|444:219|434:280,1,510
320,320,103422,5,2
192,256,103859,1,2
320,192,104297,1,2
192,128,104734,1,2
320,64,105172,1,2
482,282,106047,2,2,B|427:356|299:176|121:272|36:292|-10:330,1,510
31,196,107796,5,0
99,196,108015,1,0
167,196,108234,1,0
302,193,108671,1,0
305,329,109109,1,0
237,329,109327,1,0
168,329,109546,2,0,L|-6:329,1,170
125,88,110858,5,0
162,31,111077,1,0
199,87,111296,1,0
239,32,111515,1,0
272,90,111733,2,0,L|446:89,1,170
128,192,114358,5,2
192,192,114577,1,2
256,192,114796,1,2
320,192,115014,1,2
384,192,115233,1,4
210,274,121139,6,4,C|211:183|121:177|157:78|265:47|373:88|408:178|309:198|316:325|198:332,1,977.5
71,332,127482,6,0,L|260:41|260:41|431:343|431:343|14:146|14:146|487:138|487:138|109:329,1,2040
112,210,141480,6,4,B|58:248|35:324|147:366|278:373|412:366|488:333|510:237|429:179|251:241,1,680
152,217,145089,2,4,B|157:295|136:350|80:368|24:365|-4:305|0:212|-5:107|8:27|67:-11|139:-11|210:45|225:127,1,680
512,96,148698,2,4,B|416:128|416:128|512:288|512:288|352:224|352:224|352:352|352:352|224:352,1,680
492,178,152526,2,4,B|490:122|449:52|361:26|297:10|216:2|120:13|49:38|18:86|1:177|-4:308|22:363|77:376|154:380|217:289,1,935
96,64,164118,5,0
224,64,164518,1,0
352,64,164918,1,0
416,192,165318,1,0
352,320,165718,1,0
224,320,166118,1,0
96,320,166518,1,0
32,192,166918,1,0
160,192,167318,5,2
288,192,167718,1,2
416,192,168118,1,2
480,64,168518,1,2
352,64,168918,1,2
224,64,169318,1,2
96,64,169718,1,2
32,192,170118,1,2
128,288,170518,6,0,C|320:288,1,170
448,288,171317,2,0,C|448:96,1,170
320,64,172117,2,0,C|128:64,1,170
128,192,172917,2,0,C|320:192,1,170
352,320,173717,2,0,C|160:320,1,170
256,192,174517,12,0,175517
256,352,175917,5,2
256,352,176317,1,2
256,352,176717,1,2
131,133,177517,2,2,B|141:65|219:27|333:25|404:91|412:153,1,340
437,215,178717,5,0
365,329,179116,1,0
293,213,179516,1,0
223,329,179916,1,0
154,211,180316,1,0
13,74,181116,2,0,B|73:145|230:2|300:4|368:33|479:82|508:117,1,510
448,224,182716,5,2
384,224,182916,1,2
320,224,183116,1,2
192,224,183516,1,2
96,128,183916,1,2
192,32,184316,1,2
288,128,184716,1,2
480,32,185516,5,0
428,76,185716,1,0
477,122,185916,1,0
429,170,186116,1,0
480,214,186316,2,0,B|483:390,1,170
256,32,188715,5,2
256,32,189115,1,2
256,32,189515,1,2
382,274,190315,2,2,B|390:351|271:379|216:370|157:348|128:312|127:268,1,340
107,177,191515,5,4
243,179,191915,1,4
378,183,192315,1,4
314,62,192715,1,4
178,59,193115,1,4
22,278,193915,2,4,B|93:353|210:186|339:197|516:302,1,510
469,163,195514,5,0
427,109,195714,1,0
386,54,195914,1,0
249,52,196314,1,0
112,52,196714,1,0
85,114,196914,1,0
62,178,197114,2,0,L|-5:336,1,170
150,343,198314,5,2
187,286,198514,1,2
225,342,198714,1,2
262,285,198914,1,2
301,340,199114,2,2,B|479:338,1,170
256,192,205113,12,4,209513
