osu file format v14

[General]
AudioFilename: Jeff Williams ft. Casey Lee Williams - When It Falls.mp3
AudioLeadIn: 0
PreviewTime: 43621
Countdown: 0
SampleSet: None
StackLeniency: 0.7
Mode: 0
LetterboxInBreaks: 0
WidescreenStoryboard: 1

[Editor]
DistanceSpacing: 1.4
BeatDivisor: 4
GridSize: 8
TimelineZoom: 1

[Metadata]
Title:When It Falls
TitleUnicode:When It Falls
Artist:Jeff Williams ft. Casey Lee Williams
ArtistUnicode:Jeff Williams ft. Casey Lee Williams
Creator:Kyshiro
Version:Light Hard
Source:RWBY
Tags:Roosterteeth ruby
BeatmapID:882270
BeatmapSetID:404600

[Difficulty]
HPDrainRate:5.5
CircleSize:3.8
OverallDifficulty:6
ApproachRate:7.5
SliderMultiplier:1.2
SliderTickRate:1

[Events]
//Background and Video events
Video,-98,"rwby s3 intro.avi"
0,0,"35701_rwby.jpg",0,0
//Break Periods
//Storyboard Layer 0 (Background)
//Storyboard Layer 1 (Fail)
//Storyboard Layer 2 (Pass)
//Storyboard Layer 3 (Foreground)
//Storyboard Sound Samples

[TimingPoints]
9206,259.74025974026,4,1,0,30,1,0
11154,-100,4,1,0,40,0,0
27907,-114.942528735632,4,1,0,30,0,0
32063,-100,4,1,0,35,0,0
36218,-114.942528735632,4,1,0,30,0,0
40374,-153.846153846154,4,1,0,30,0,0
44400,-100,4,1,0,40,0,1
51803,-100,4,1,0,40,0,0
52712,-100,4,1,0,40,0,1
67387,-133.333333333333,4,1,0,30,0,0
69465,-142.857142857143,4,1,0,30,0,0
71543,-153.846153846154,4,1,0,30,0,0
73621,-166.666666666667,4,1,0,30,0,0
75699,-200,4,1,0,30,0,0

[Colours]
Combo1 : 202,202,202
Combo2 : 255,157,159
Combo3 : 164,205,255
Combo4 : 223,233,167

[HitObjects]
50,134,10244,6,0,P|89:143|121:140,1,60
174,98,10504,2,0,P|213:89|245:92,1,60
292,140,10764,2,0,L|314:266,1,120
357,322,11154,6,0,L|377:203,1,120
441,158,11543,1,0,0:0:0:0:
376,56,11803,1,0,0:0:0:0:
292,140,12063,1,0,0:0:0:0:
208,53,12322,6,0,P|157:68|83:64,1,120
24,107,12712,2,0,L|41:232,1,120
101,275,13102,1,0,0:0:0:0:
165,231,13231,6,0,P|233:223|284:253,1,120
322,310,13621,1,0,0:0:0:0:
423,236,13881,2,0,L|429:114,1,120
308,52,14400,6,0,L|313:171,1,120
212,245,14920,2,0,P|176:249|94:208,1,120
77,141,15309,1,0,0:0:0:0:
146,104,15439,6,0,L|277:99,1,120
317,158,15829,2,0,L|448:163,1,120
491,218,16218,1,0,0:0:0:0:
449,284,16348,6,0,P|403:305|316:293,1,120
270,256,16738,1,0,0:0:0:0:
205,212,16868,2,0,P|145:206|90:229,1,120
40,288,17257,6,0,L|40:361,1,60
121,375,17517,1,0,0:0:0:0:
227,319,17777,1,0,0:0:0:0:
124,257,18037,1,0,0:0:0:0:
229,200,18296,1,0,0:0:0:0:
332,261,18556,6,0,P|377:269|454:254,1,120
490,188,18946,1,0,0:0:0:0:
427,141,19076,2,0,L|303:125,1,120
246,77,19465,6,0,P|200:94|124:90,1,120
62,50,19855,1,0,0:0:0:0:
10,158,20115,1,0,0:0:0:0:
122,199,20374,1,0,0:0:0:0:
70,307,20634,6,0,L|84:375,1,60
160,333,20894,2,0,P|217:326|280:346,1,120
349,370,21283,1,0,0:0:0:0:
407,318,21413,2,0,L|416:192,1,120
348,97,21933,5,0,0:0:0:0:
259,177,22193,2,0,P|216:178|139:143,1,120
30,183,22712,2,0,B|53:348|53:348|69:305|95:278,1,240
174,200,23491,1,0,0:0:0:0:
279,257,23751,6,0,P|305:315|315:375,1,120
386,337,24141,2,0,L|405:199,1,120
391,140,24530,1,0,0:0:0:0:
338,83,24660,6,0,P|267:71|217:90,1,120
149,217,25180,2,0,L|170:338,1,120
102,374,25569,1,0,0:0:0:0:
43,322,25699,6,0,P|26:272|38:189,1,120
91,154,26089,1,0,0:0:0:0:
155,196,26218,2,0,P|228:195|274:175,1,120
343,148,26608,2,0,L|355:84,1,60
394,208,26868,6,0,L|407:330,1,120
480,286,27257,2,0,L|492:166,1,120
441,107,27647,1,0,0:0:0:0:
297,139,27907,6,0,P|279:207|317:289,2,156.60000131424
182,66,28946,2,0,L|67:62,1,104.40000087616
22,114,29335,2,0,L|39:226,1,104.40000087616
13,289,29725,1,0,0:0:0:0:
133,328,29985,6,0,P|191:309|281:348,2,156.60000131424
119,195,31024,2,0,L|155:37,2,156.60000131424
252,181,32063,6,0,P|289:195|374:195,1,120
432,151,32452,2,0,L|463:30,1,120
390,1,32842,1,0,0:0:0:0:
282,80,33102,6,0,L|302:277,2,180
184,169,34141,2,0,P|167:252|113:333,2,180
81,83,35180,6,0,L|67:210,1,120
122,258,35569,2,0,P|180:278|242:263,1,120
285,204,35959,1,0,0:0:0:0:
415,225,36218,6,0,P|444:295|445:382,2,156.60000131424
316,131,37257,2,0,L|328:24,1,104.40000087616
251,43,37647,2,0,P|211:49|146:32,1,104.40000087616
76,54,38037,1,0,0:0:0:0:
163,147,38296,6,0,L|149:311,2,156.60000131424
252,235,39335,2,0,P|312:247|403:218,2,156.60000131424
286,71,40374,6,0,P|332:30|367:144,1,233.999989288331
232,158,41413,2,0,P|190:153|114:115,2,116.999994644165
321,246,42452,2,0,L|342:368,2,116.999994644165
204,266,43491,1,0,0:0:0:0:
204,266,44400,6,0,P|139:254|79:263,1,120
25,210,44790,2,0,L|13:76,1,120
133,32,45309,1,0,0:0:0:0:
232,119,45569,6,0,P|275:128|351:103,1,120
416,142,45959,2,0,L|430:276,1,120
388,328,46348,1,0,0:0:0:0:
315,299,46478,6,0,P|264:285|195:296,1,120
131,335,46868,1,0,0:0:0:0:
50,246,47128,1,0,0:0:0:0:
143,170,47387,1,0,0:0:0:0:
58,85,47647,6,0,L|43:16,2,60
139,83,48037,2,0,P|217:83|271:101,1,120
339,84,48426,1,0,0:0:0:0:
312,157,48556,2,0,L|333:282,1,120
399,315,48946,1,0,0:0:0:0:
502,253,49206,1,0,0:0:0:0:
396,196,49465,1,0,0:0:0:0:
500,136,49725,5,0,0:0:0:0:
395,76,49985,1,0,0:0:0:0:
292,137,50244,2,0,P|241:146|168:127,1,120
109,174,50634,6,0,L|95:244,1,60
31,187,50894,2,0,L|19:128,1,60
72,70,51154,2,0,L|196:53,1,120
265,77,51543,5,0,0:0:0:0:
386,24,51803,1,0,0:0:0:0:
487,108,52063,1,0,0:0:0:0:
366,161,52322,2,0,P|368:231|385:286,1,120
314,319,52712,6,0,P|227:301|188:305,1,120
125,336,53102,1,0,0:0:0:0:
38,253,53361,2,0,L|19:131,1,120
80,84,53751,6,0,P|132:77|194:107,1,120
312,204,54270,2,0,P|355:210|426:181,1,120
450,107,54660,1,0,0:0:0:0:
385,62,54790,6,0,L|261:51,1,120
201,97,55180,1,0,0:0:0:0:
82,39,55439,1,0,0:0:0:0:
22,156,55699,1,0,0:0:0:0:
144,206,55959,6,0,P|158:269|151:337,1,120
223,360,56348,2,0,L|355:353,1,120
403,303,56738,1,0,0:0:0:0:
353,242,56868,6,0,P|340:202|352:114,1,120
399,67,57257,1,0,0:0:0:0:
332,26,57387,2,0,L|256:33,1,60
213,84,57647,2,0,L|153:78,1,60
80,107,57907,6,0,P|68:165|91:232,2,120
153,78,58556,1,0,0:0:0:0:
202,139,58686,2,0,L|209:213,1,60
256,260,58946,6,0,P|288:268|376:247,1,120
428,196,59335,1,0,0:0:0:0:
395,125,59465,2,0,L|268:108,1,120
217,56,59855,1,0,0:0:0:0:
150,97,59985,6,0,P|150:168|134:223,2,120
81,59,60634,1,0,0:0:0:0:
24,113,60764,2,0,L|15:184,1,60
40,247,61024,6,0,P|102:247|160:278,1,120
203,332,61413,1,0,0:0:0:0:
275,303,61543,2,0,L|407:317,1,120
449,260,61933,1,0,0:0:0:0:
400,198,62063,6,0,P|346:178|267:194,1,120
220,229,62452,1,0,0:0:0:0:
121,141,62712,1,0,0:0:0:0:
224,58,62972,1,0,0:0:0:0:
323,144,63231,1,0,0:0:0:0:
256,192,63361,12,0,65309,0:0:0:0:
131,261,66348,5,0,0:0:0:0:
426,221,67387,6,0,L|412:86,2,135.000005149841
307,290,68426,2,0,P|244:267|142:303,1,180.000006866455
54,78,69465,6,0,P|78:124|85:165,1,83.9999974365235
157,117,69855,2,0,P|199:94|287:101,1,125.999996154785
388,182,70504,1,0,0:0:0:0:
187,253,71024,1,0,0:0:0:0:
292,303,71283,1,0,0:0:0:0:
282,194,71543,6,0,L|269:69,2,116.999994644165
378,120,72582,2,0,P|434:123|480:215,1,155.999992858887
377,296,73361,1,0,0:0:0:0:
248,241,73621,6,0,L|128:250,2,107.999996704102
322,156,74660,2,0,L|434:168,1,107.999996704102
490,122,75180,2,0,P|495:103|493:73,2,35.9999989013672
374,217,75699,6,0,P|367:275|378:314,2,90
478,262,76738,1,0,0:0:0:0:
