osu file format v14

[General]
AudioFilename: Jeff Williams ft. Casey Lee Williams - When It Falls.mp3
AudioLeadIn: 0
PreviewTime: 43621
Countdown: 0
SampleSet: Normal
StackLeniency: 0.7
Mode: 0
LetterboxInBreaks: 0
WidescreenStoryboard: 1

[Editor]
DistanceSpacing: 1.5
BeatDivisor: 4
GridSize: 8
TimelineZoom: 1

[Metadata]
Title:When It Falls
TitleUnicode:When It Falls
Artist:Jeff Williams ft. Casey Lee Williams
ArtistUnicode:Jeff Williams ft. Casey Lee Williams
Creator:Kyshiro
Version:Insane
Source:RWBY
Tags:Roosterteeth ruby
BeatmapID:880180
BeatmapSetID:404600

[Difficulty]
HPDrainRate:6.5
CircleSize:4
OverallDifficulty:8.2
ApproachRate:9
SliderMultiplier:1.6
SliderTickRate:1

[Events]
//Background and Video events
Video,-98,"rwby s3 intro.avi"
0,0,"35701_rwby.jpg",0,0
//Break Periods
//Storyboard Layer 0 (Background)
//Storyboard Layer 1 (Fail)
//Storyboard Layer 2 (Pass)
//Storyboard Layer 3 (Foreground)
//Storyboard Sound Samples

[TimingPoints]
9206,259.74025974026,4,1,0,30,1,0
11154,-100,4,1,0,40,0,0
27907,-133.333333333333,4,1,0,30,0,0
32063,-114.942528735632,4,1,0,35,0,0
36218,-133.333333333333,4,1,0,30,0,0
40374,-200,4,1,0,30,0,0
44400,-90.9090909090909,4,1,0,40,0,1
51803,-105.263157894737,4,1,0,40,0,0
52712,-90.9090909090909,4,1,0,40,0,1
67387,-133.333333333333,4,1,0,30,0,0
69465,-142.857142857143,4,1,0,30,0,0
71543,-153.846153846154,4,1,0,30,0,0
73621,-166.666666666667,4,1,0,30,0,0
75699,-200,4,1,0,30,0,0

[Colours]
Combo1 : 202,202,202
Combo2 : 255,157,159
Combo3 : 164,205,255
Combo4 : 223,233,167

[HitObjects]
96,103,10244,6,0,L|88:183,1,80
227,254,10504,2,0,L|219:174,1,80
329,69,10764,1,0,0:0:0:0:
463,179,10894,1,0,0:0:0:0:
458,52,11024,1,0,0:0:0:0:
337,196,11154,6,0,P|319:280|348:364,1,160
502,283,11543,2,0,B|465:266|465:266|426:266,1,80
150,271,11803,2,0,B|189:271|189:271|226:254,1,80
322,45,12063,2,0,L|331:133,1,80
124,151,12322,6,0,P|78:147|41:131,1,80
197,40,12582,1,0,0:0:0:0:
282,150,12712,2,0,B|292:214|292:214|276:244|276:244|288:313,1,160
377,264,13102,1,0,0:0:0:0:
194,194,13231,6,0,P|136:187|46:235,1,160
204,359,13621,2,0,P|221:311|219:278,1,80
266,73,13881,2,0,P|266:112|281:149,1,80
432,193,14141,2,0,L|514:185,1,80
372,92,14400,6,0,L|336:272,1,160
438,302,14790,1,0,0:0:0:0:
254,302,14920,2,0,P|197:288|157:292,1,80
74,193,15180,2,0,P|113:191|151:179,1,80
275,101,15439,6,0,L|282:17,1,80
162,73,15699,1,0,0:0:0:0:
261,202,15829,2,0,P|337:216|417:187,1,160
372,92,16218,1,0,0:0:0:0:
170,165,16348,6,0,L|163:253,1,80
0,194,16608,2,0,L|88:201,1,80
57,31,16868,2,0,L|50:119,1,80
225,81,17128,2,0,L|137:74,1,80
295,182,17387,6,0,P|394:163|461:187,1,160
182,208,17777,2,0,P|149:175|135:136,1,80
259,286,18037,2,0,P|246:331|220:362,1,80
130,301,18296,1,0,0:0:0:0:
352,263,18426,6,0,L|520:271,1,160
416,104,18816,2,0,B|416:145|416:145|436:187,1,80
293,101,19076,2,0,B|293:60|293:60|273:18,1,80
88,100,19335,1,0,0:0:0:0:
182,250,19465,6,0,L|202:82,1,160
280,232,19855,2,0,L|288:323,1,80
95,179,20115,2,0,L|87:88,1,80
187,14,20374,1,0,0:0:0:0:
293,101,20504,6,0,P|330:123|459:111,1,160
198,106,20894,2,0,P|180:143|178:197,1,80
273,253,21154,2,0,L|359:244,1,80
191,328,21413,2,0,L|105:319,1,80
0,93,21673,6,0,P|66:66|126:129,1,160
122,222,22063,1,0,0:0:0:0:
245,136,22193,2,0,B|266:101|266:101|266:57,1,80
122,222,22452,2,0,B|122:261|122:261|143:296,1,80
397,241,22712,6,0,B|319:211|319:270|241:241,1,160
361,325,23102,1,0,0:0:0:0:
490,242,23231,2,0,P|500:189|491:152,1,80
325,65,23491,2,0,P|320:104|330:143,1,80
414,28,23751,6,0,L|246:18,1,160
325,222,24141,2,0,L|330:138,1,80
136,169,24400,2,0,L|220:174,1,80
43,91,24660,6,0,P|13:170|38:240,1,160
145,290,25050,1,0,0:0:0:0:
243,220,25180,2,0,P|251:158|240:123,1,80
145,290,25439,2,0,P|194:327|230:335,1,80
140,189,25699,6,0,L|121:28,1,160
275,10,26089,1,0,0:0:0:0:
336,132,26218,2,0,P|281:139|246:126,1,80
412,50,26478,2,0,P|467:43|502:56,1,80
505,193,26738,6,0,L|491:280,1,80
349,324,26998,2,0,L|336:277,2,40
257,372,27257,1,0,0:0:0:0:
181,300,27387,1,0,0:0:0:0:
86,341,27517,2,0,L|75:379,2,40
11,267,27777,1,0,0:0:0:0:
113,215,27907,6,0,P|120:168|119:142,1,60.0000022888184
290,208,28167,2,0,P|243:201|217:202,1,60.0000022888184
199,36,28426,2,0,L|209:105,1,60.0000022888184
375,126,28686,1,0,0:0:0:0:
309,32,28816,1,0,0:0:0:0:
279,174,28946,6,0,P|283:245|301:295,1,120.000004577637
500,209,29335,2,0,P|429:213|379:231,1,120.000004577637
197,275,29725,2,0,P|147:268|121:257,1,60.0000022888184
59,192,29985,6,0,B|68:112|68:112|50:73,1,120.000004577637
146,151,30374,2,0,P|189:160|266:135,1,120.000004577637
330,69,30764,2,0,L|340:3,1,60.0000022888184
365,161,31024,6,0,L|382:279,1,120.000004577637
155,273,31413,2,0,L|273:255,1,120.000004577637
211,353,31803,1,0,0:0:0:0:
121,346,31933,1,0,0:0:0:0:
30,337,32063,6,0,P|16:271|37:197,1,139.200001168213
280,191,32452,2,0,P|214:205|140:184,1,139.200001168213
77,102,32842,2,0,L|67:16,1,69.6000005841065
214,242,33102,6,0,L|205:311,1,69.6000005841065
121,346,33361,1,0,0:0:0:0:
300,311,33491,2,0,P|370:293|451:314,1,139.200001168213
491,200,33881,2,0,L|501:127,1,69.6000005841065
347,29,34141,6,0,L|356:97,1,69.6000005841065
266,150,34400,1,0,0:0:0:0:
190,58,34530,2,0,L|171:195,1,139.200001168213
95,108,34920,2,0,P|56:79|29:68,1,69.6000005841065
266,150,35180,6,0,P|333:144|401:110,1,139.200001168213
495,209,35569,2,0,L|500:257,3,34.8000002920532
422,244,35829,2,0,L|417:292,3,34.8000002920532
342,251,36089,1,0,0:0:0:0:
370,154,36218,6,0,L|359:24,1,120.000004577637
266,150,36608,2,0,L|255:269,1,120.000004577637
165,327,36998,2,0,P|131:327|96:315,1,60.0000022888184
16,204,37257,2,0,L|9:140,2,60.0000022888184
128,94,37647,2,0,L|121:153,2,60.0000022888184
196,221,38037,2,0,P|236:231|268:227,1,60.0000022888184
355,164,38296,6,0,B|372:86|372:86|362:43,1,120.000004577637
359,271,38686,2,0,P|422:300|480:295,1,120.000004577637
467,138,39076,2,0,L|452:206,1,60.0000022888184
255,136,39335,6,0,L|234:2,1,120.000004577637
48,95,39725,2,0,P|111:115|174:102,1,120.000004577637
322,50,40115,1,0,0:0:0:0:
322,50,40374,6,0,P|366:109|274:225,1,240
57,119,41413,6,0,B|109:126|140:92|140:92|169:140|222:155|282:123,1,240
117,210,42452,6,0,B|108:290|108:290|127:328,2,120
209,271,43491,5,0,0:0:0:0:
209,271,44400,6,0,P|292:238|371:264,1,176.000005371094
465,191,44790,2,0,B|485:150|485:150|485:106,1,88.000002685547
288,282,45050,2,0,B|288:324|288:324|308:365,1,88.000002685547
440,314,45309,1,0,0:0:0:0:
327,164,45439,6,0,B|241:131|241:196|155:164,1,176.000005371094
50,84,45829,1,0,0:0:0:0:
35,215,45959,2,0,L|20:312,1,88.000002685547
202,91,46218,2,0,L|188:4,1,88.000002685547
164,213,46478,6,0,P|227:235|325:196,1,176.000005371094
418,101,46868,2,0,P|416:150|437:194,1,88.000002685547
272,348,47128,2,0,P|287:307|284:263,1,88.000002685547
202,91,47387,1,0,0:0:0:0:
58,186,47517,6,0,L|43:380,1,176.000005371094
181,351,47907,1,0,0:0:0:0:
240,237,48037,2,0,L|148:229,1,88.000002685547
301,337,48296,2,0,L|393:329,1,88.000002685547
476,228,48556,6,0,P|490:161|433:75,1,176.000005371094
299,58,48946,1,0,0:0:0:0:
295,190,49076,2,0,B|340:190|340:190|383:172,1,88.000002685547
196,120,49335,2,0,B|151:120|151:120|108:138,1,88.000002685547
189,376,49595,6,0,B|205:308|205:308|186:268|186:268|203:207,1,176.000005371094
26,304,49985,2,0,P|75:321|114:316,1,88.000002685547
368,269,50244,2,0,P|319:252|280:257,1,88.000002685547
311,353,50504,1,0,0:0:0:0:
474,289,50634,6,0,P|492:195|469:110,1,176.000005371094
273,47,51024,2,0,L|182:39,1,88.000002685547
287,156,51283,2,0,L|378:148,1,88.000002685547
394,37,51543,1,0,0:0:0:0:
181,136,51673,1,0,0:0:0:0:
290,253,51803,6,0,P|285:295|269:333,1,75.9999979705811
198,209,52063,2,0,P|184:173|180:135,1,75.9999979705811
66,289,52322,2,0,L|155:286,2,75.9999979705811
94,78,52712,6,0,P|197:36|264:72,1,176.000005371094
431,111,53102,2,0,B|393:133|393:133|349:133,1,88.000002685547
154,191,53361,2,0,B|192:169|192:169|236:169,1,88.000002685547
321,239,53621,1,0,0:0:0:0:
201,302,53751,6,0,L|19:287,1,176.000005371094
76,164,54141,1,0,0:0:0:0:
321,239,54270,2,0,P|338:301|334:338,1,88.000002685547
221,152,54530,2,0,P|221:108|236:66,1,88.000002685547
469,114,54790,6,0,B|502:200|437:200|469:286,1,176.000005371094
379,155,55180,2,0,P|328:143|281:146,1,88.000002685547
123,235,55439,2,0,P|174:247|221:244,1,88.000002685547
178,113,55699,1,0,0:0:0:0:
17,127,55829,6,0,B|31:192|31:192|14:234|14:234|29:299,1,176.000005371094
178,113,56218,2,0,P|175:58|157:25,1,88.000002685547
230,216,56478,2,0,P|279:240|316:241,1,88.000002685547
301,113,56738,1,0,0:0:0:0:
120,206,56868,6,0,P|98:277|136:372,1,176.000005371094
236,300,57257,1,0,0:0:0:0:
342,356,57387,2,0,L|435:347,1,88.000002685547
512,245,57647,2,0,L|419:236,1,88.000002685547
301,113,57907,6,0,P|292:66|303:23,1,88.000002685547
192,155,58167,2,0,P|200:197|191:240,1,88.000002685547
45,39,58426,2,0,P|121:20|213:66,1,176.000005371094
282,207,58816,1,0,0:0:0:0:
511,96,58946,6,0,P|435:77|343:123,1,176.000005371094
442,198,59335,1,0,0:0:0:0:
282,207,59465,2,0,L|179:195,1,88.000002685547
374,305,59725,2,0,L|477:293,1,88.000002685547
183,113,59985,6,0,L|208:295,1,176.000005371094
115,211,60374,1,0,0:0:0:0:
292,130,60504,2,0,P|350:119|388:125,1,88.000002685547
115,211,60764,2,0,P|71:213|28:203,1,88.000002685547
242,235,61024,6,0,L|256:334,1,88.000002685547
183,113,61283,2,0,L|169:14,1,88.000002685547
446,93,61543,2,0,P|408:130|281:123,1,176.000005371094
351,38,61933,1,0,0:0:0:0:
500,182,62063,6,0,L|491:362,1,176.000005371094
305,260,62452,2,0,P|364:244|398:249,1,88.000002685547
364,350,62712,1,0,0:0:0:0:
239,351,62842,2,0,L|142:337,1,88.000002685547
89,245,63102,1,0,0:0:0:0:
256,192,63231,12,0,65050,0:0:0:0:
466,99,65309,6,0,P|401:73|306:133,1,176.000005371094
332,307,65699,2,0,B|400:250|400:250|400:162,1,176.000005371094
220,207,66089,2,0,L|321:212,1,88.000002685547
171,123,66348,6,0,B|85:90|85:155|-1:123,1,176.000005371094
43,45,66738,1,0,0:0:0:0:
126,204,66868,2,0,P|122:265|105:308,1,88.000002685547
11,327,67128,1,0,0:0:0:0:
11,327,67387,6,0,P|121:318|186:369,2,180.000006866455
165,252,68426,2,0,B|204:256|236:231|236:231|252:291|304:322|366:316,1,240.000009155274
354,59,69465,6,0,B|328:169|328:169|337:237,2,167.999994873047
443,154,70504,2,0,P|402:175|236:125,1,223.999993164063
131,250,71283,2,0,L|122:317,1,55.9999982910157
43,200,71543,6,0,B|32:151|32:151|54:103|54:103|41:45,2,155.999992858887
320,179,72582,2,0,P|225:134|121:166,1,207.999990478516
214,273,73361,1,0,0:0:0:0:
433,264,73621,6,0,P|454:205|438:117,2,143.999995605469
320,187,74660,2,0,L|277:40,1,143.999995605469
205,99,75180,2,0,L|146:92,1,47.9999985351563
161,237,75439,2,0,L|168:178,1,47.9999985351563
42,193,75699,6,0,L|53:324,1,120
116,364,76218,2,0,P|168:374|205:368,1,80
263,317,76608,2,0,L|280:289,2,20
