osu file format v14

[General]
AudioFilename: Jeff Williams ft. Casey Lee Williams - When It Falls.mp3
AudioLeadIn: 0
PreviewTime: 43621
Countdown: 0
SampleSet: Normal
StackLeniency: 0.7
Mode: 0
LetterboxInBreaks: 0
WidescreenStoryboard: 0

[Editor]
DistanceSpacing: 1.6
BeatDivisor: 4
GridSize: 4
TimelineZoom: 1

[Metadata]
Title:When It Falls
TitleUnicode:When It Falls
Artist:Jeff Williams ft. Casey Lee Williams
ArtistUnicode:Jeff Williams ft. Casey Lee Williams
Creator:Kyshiro
Version:Hero
Source:RWBY
Tags:Roosterteeth ruby
BeatmapID:879677
BeatmapSetID:404600

[Difficulty]
HPDrainRate:7
CircleSize:4.3
OverallDifficulty:9.2
ApproachRate:9.5
SliderMultiplier:1.8
SliderTickRate:1

[Events]
//Background and Video events
Video,-98,"rwby s3 intro.avi"
0,0,"35701_rwby.jpg",0,0
//Break Periods
//Storyboard Layer 0 (Background)
//Storyboard Layer 1 (Fail)
//Storyboard Layer 2 (Pass)
//Storyboard Layer 3 (Foreground)
//Storyboard Sound Samples

[TimingPoints]
9206,259.74025974026,4,1,0,30,1,0
11154,-100,4,1,0,40,0,0
27907,-133.333333333333,4,1,0,30,0,0
32063,-114.942528735632,4,1,0,35,0,0
36218,-133.333333333333,4,1,0,30,0,0
40374,-200,4,1,0,30,0,0
44400,-86.9565217391304,4,1,0,40,0,1
51803,-100,4,1,0,40,0,0
52712,-86.9565217391304,4,1,0,40,0,1
67387,-133.333333333333,4,1,0,30,0,0
69465,-142.857142857143,4,1,0,30,0,0
71543,-153.846153846154,4,1,0,30,0,0
73621,-166.666666666667,4,1,0,30,0,0
75699,-200,4,1,0,30,0,0

[Colours]
Combo1 : 202,202,202
Combo2 : 255,157,159
Combo3 : 164,205,255
Combo4 : 223,233,167

[HitObjects]
37,132,10245,5,0,0:0:0:0:
246,163,10375,1,0,0:0:0:0:
159,44,10505,1,0,0:0:0:0:
127,254,10635,1,0,0:0:0:0:
310,264,10765,2,0,L|408:254,1,90
341,90,11025,1,0,0:0:0:0:
137,158,11155,6,0,P|129:268|160:344,1,180
438,163,11543,2,0,B|461:124|461:124|461:74,1,90
310,264,11803,2,0,B|310:308|310:308|333:347,1,90
457,284,12063,1,0,0:0:0:0:
312,124,12193,1,0,0:0:0:0:
109,257,12322,6,0,L|204:269,2,90
450,184,12712,2,0,L|355:196,1,90
155,45,12972,2,0,L|167:140,1,90
468,59,13231,6,0,B|380:92|380:26|292:59,1,180
303,234,13621,2,0,P|330:188|335:142,1,90
219,154,13881,1,0,0:0:0:0:
279,331,14011,1,0,0:0:0:0:
480,232,14141,2,0,L|382:248,1,90
54,133,14400,6,0,P|59:55|142:83,1,180
261,311,14790,1,0,0:0:0:0:
161,249,14920,2,0,P|144:190|150:147,2,90
262,189,15309,1,0,0:0:0:0:
57,247,15439,6,0,L|41:352,1,90
167,372,15699,1,0,0:0:0:0:
147,160,15829,2,0,L|163:265,1,90
342,144,16089,2,0,L|355:55,1,90
291,288,16348,6,0,P|366:325|460:281,1,180
434,145,16738,1,0,0:0:0:0:
214,226,16868,2,0,B|192:267|192:267|192:312,1,90
306,121,17128,2,0,B|306:77|306:77|284:36,1,90
12,109,17387,6,0,B|48:113|75:140|75:140|121:105|178:115,1,180
321,227,17777,1,0,0:0:0:0:
111,280,17907,2,0,L|15:269,1,90
321,227,18167,2,0,L|417:216,1,90
172,41,18426,2,0,L|183:137,1,90
59,175,18686,5,0,0:0:0:0:
293,78,18816,2,0,P|350:75|394:87,1,90
427,229,19076,1,0,0:0:0:0:
210,127,19206,1,0,0:0:0:0:
396,0,19335,1,0,0:0:0:0:
282,241,19465,6,0,P|216:263|111:218,1,180
207,38,19855,2,0,P|215:92|208:131,1,90
85,151,20115,1,0,0:0:0:0:
344,191,20244,1,0,0:0:0:0:
196,296,20374,1,0,0:0:0:0:
400,299,20504,6,0,B|408:232|408:232|387:192|387:192|397:122,1,180
295,257,20894,1,0,0:0:0:0:
499,170,21024,1,0,0:0:0:0:
318,61,21154,2,0,P|265:60|227:75,1,90
306,344,21413,2,0,P|307:291|292:253,1,90
0,170,21673,6,0,P|57:207|165:190,1,180
94,86,22063,1,0,0:0:0:0:
272,168,22193,2,0,B|272:212|272:212|252:256,1,90
199,86,22452,2,0,B|199:42|199:42|219:-2,1,90
391,126,22712,6,0,B|424:214|358:214|391:302,1,180
494,260,23102,1,0,0:0:0:0:
272,168,23231,2,0,L|168:173,1,90
239,384,23491,2,0,L|234:280,1,90
10,250,23751,6,0,P|74:269|103:266,1,90
229,222,24011,1,0,0:0:0:0:
116,67,24141,2,0,L|127:165,1,90
344,83,24400,2,0,L|246:94,1,90
375,360,24660,6,0,P|396:292|350:188,1,180
268,289,25050,1,0,0:0:0:0:
473,200,25180,2,0,L|481:97,1,90
268,289,25439,2,0,L|274:378,1,90
28,119,25699,6,0,P|95:95|125:195,1,180
64,317,26089,2,0,B|39:279|39:279|37:233,1,90
246,43,26348,2,0,B|244:87|244:87|219:125,1,90
105,56,26608,1,0,0:0:0:0:
195,225,26738,1,0,0:0:0:0:
361,140,26868,1,0,0:0:0:0:
246,43,26998,5,0,0:0:0:0:
246,43,27063,1,0,0:0:0:0:
246,43,27128,1,0,0:0:0:0:
101,165,27257,1,0,0:0:0:0:
311,225,27387,1,0,0:0:0:0:
166,333,27517,1,0,0:0:0:0:
166,333,27582,1,0,0:0:0:0:
166,333,27647,1,0,0:0:0:0:
50,277,27777,1,0,0:0:0:0:
284,316,27907,6,0,P|303:355|309:382,1,67.5000025749208
195,225,28167,1,0,0:0:0:0:
390,180,28296,2,0,P|348:185|313:177,1,67.5000025749208
226,89,28556,1,0,0:0:0:0:
85,213,28686,2,0,L|90:290,1,67.5000025749208
313,35,28946,6,0,L|308:112,1,67.5000025749208
142,142,29206,1,0,0:0:0:0:
267,239,29335,2,0,L|342:235,1,67.5000025749208
464,227,29595,1,0,0:0:0:0:
252,335,29725,2,0,L|177:331,1,67.5000025749208
17,122,29985,6,0,P|71:110|147:148,1,135.000005149842
358,65,30374,2,0,P|299:95|233:84,1,135.000005149842
419,150,30764,2,0,P|442:181|456:217,1,67.5000025749208
323,317,31024,6,0,L|332:244,2,67.5000025749208
172,86,31413,2,0,L|180:152,1,67.5000025749208
89,245,31673,1,0,0:0:0:0:
21,142,31803,1,0,0:0:0:0:
272,71,31933,5,0,0:0:0:0:
272,71,31998,1,0,0:0:0:0:
272,71,32063,2,0,P|293:147|268:237,1,156.60000131424
426,314,32452,2,0,P|409:273|408:225,1,78.3000006571198
486,150,32712,1,0,0:0:0:0:
315,325,32842,2,0,P|268:334|226:325,1,78.3000006571198
146,215,33102,6,0,L|119:53,1,156.60000131424
26,219,33491,2,0,L|13:303,1,78.3000006571198
129,359,33751,1,0,0:0:0:0:
254,185,33881,2,0,P|261:133|253:92,1,78.3000006571198
490,262,34141,6,0,P|434:243|345:294,1,156.60000131424
151,204,34530,2,0,P|199:223|239:221,1,78.3000006571198
340,143,34790,1,0,0:0:0:0:
263,304,34920,2,0,L|256:382,1,78.3000006571198
75,151,35180,6,0,L|68:73,1,78.3000006571198
246,24,35439,1,0,0:0:0:0:
258,57,35504,1,0,0:0:0:0:
266,91,35569,1,0,0:0:0:0:
268,126,35634,1,0,0:0:0:0:
263,161,35699,2,0,L|215:154,3,39.1500003285599
347,213,35959,2,0,L|395:206,3,39.1500003285599
260,252,36218,6,0,P|186:243|126:282,1,135.000005149842
409,281,36608,2,0,L|432:123,1,135.000005149842
295,37,36998,2,0,L|303:109,1,67.5000025749208
322,322,37257,5,0,0:0:0:0:
220,189,37387,1,0,0:0:0:0:
393,177,37517,1,0,0:0:0:0:
221,291,37647,2,0,P|158:304|82:279,1,135.000005149842
299,174,38037,2,0,L|312:248,1,67.5000025749208
483,170,38296,6,0,L|499:27,1,135.000005149842
189,90,38686,2,0,B|231:113|282:104|310:81|310:81|330:111|372:118,1,202.500007724762
391,23,39206,1,0,0:0:0:0:
396,212,39335,2,0,L|387:299,1,67.5000025749208
291,229,39595,1,0,0:0:0:0:
484,131,39725,2,0,L|493:218,1,67.5000025749208
384,315,39985,1,0,0:0:0:0:
322,135,40115,1,0,0:0:0:0:
322,135,40374,6,0,P|244:84|117:192,1,270
212,319,41413,6,0,L|233:178,2,135
462,265,42452,6,0,P|409:274|332:233,2,135
420,157,43491,5,0,0:0:0:0:
17,163,44400,6,0,P|109:135|205:204,1,207.000003948212
123,349,44790,2,0,B|97:305|97:305|96:253,1,103.500001974106
248,55,45050,2,0,B|274:99|274:99|275:151,1,103.500001974106
135,129,45309,1,0,0:0:0:0:
395,76,45439,1,0,0:0:0:0:
297,254,45569,1,0,0:0:0:0:
490,197,45699,6,0,P|426:182|387:189,1,103.500001974106
239,299,45959,2,0,P|253:237|247:196,1,103.500001974106
85,68,46218,1,0,0:0:0:0:
97,219,46348,1,0,0:0:0:0:
356,135,46478,6,0,B|307:102|258:118|258:151|209:167|160:135,1,207.000003948212
302,26,46868,1,0,0:0:0:0:
453,109,46998,1,0,0:0:0:0:
308,194,47128,2,0,P|300:257|316:299,1,103.500001974106
413,238,47387,1,0,0:0:0:0:
198,330,47517,6,0,P|299:309|389:370,1,207.000003948212
66,364,47907,1,0,0:0:0:0:
15,248,48037,2,0,P|6:180|21:139,1,103.500001974106
183,274,48296,2,0,P|192:342|177:383,1,103.500001974106
350,139,48556,6,0,B|214:168|214:168|144:135,1,207.000003948212
231,52,48946,1,0,0:0:0:0:
310,243,49076,1,0,0:0:0:0:
106,211,49206,1,0,0:0:0:0:
353,112,49335,2,0,P|425:115|461:134,1,103.500001974106
237,318,49595,6,0,B|202:247|202:247|217:194|217:194|184:120,1,207.000003948212
6,218,49985,2,0,P|66:224|106:212,1,103.500001974106
411,250,50244,2,0,P|361:236|310:243,1,103.500001974106
354,355,50504,1,0,0:0:0:0:
463,88,50634,6,0,P|382:50|393:145,1,207.000003948212
475,198,51024,1,0,0:0:0:0:
275,86,51154,2,0,P|195:83|147:102,1,103.500001974106
49,190,51413,1,0,0:0:0:0:
191,305,51543,2,0,L|170:197,1,103.500001974106
446,42,51803,6,0,L|435:133,1,90
170,53,52063,2,0,L|261:64,1,90
317,217,52322,1,0,0:0:0:0:
194,141,52452,1,0,0:0:0:0:
435,131,52582,1,0,0:0:0:0:
214,245,52712,6,0,P|136:225|27:282,1,207.000003948212
296,316,53102,2,0,B|317:268|317:268|317:217,1,103.500001974106
172,42,53361,2,0,B|172:93|172:93|194:141,1,103.500001974106
321,90,53621,1,0,0:0:0:0:
214,245,53751,6,0,B|85:255|85:255|14:220,1,207.000003948212
115,148,54141,1,0,0:0:0:0:
310,253,54270,2,0,P|329:325|318:364,1,103.500001974106
240,125,54530,2,0,P|234:73|253:26,1,103.500001974106
512,141,54790,6,0,B|475:139|445:161|445:161|400:142|400:142|360:170|318:165,1,207.000003948212
323,62,55180,1,0,0:0:0:0:
503,230,55309,1,0,0:0:0:0:
335,347,55439,2,0,L|359:233,1,103.500001974106
113,241,55699,2,0,L|227:265,1,103.500001974106
411,175,55959,5,0,0:0:0:0:
264,136,56089,1,0,0:0:0:0:
368,320,56218,2,0,P|425:326|478:307,1,103.500001974106
338,31,56478,2,0,L|345:152,1,103.500001974106
235,254,56738,1,0,0:0:0:0:
24,97,56868,6,0,P|108:74|209:133,1,207.000003948212
100,197,57257,1,0,0:0:0:0:
235,254,57387,2,0,B|290:254|290:254|336:231,1,103.500001974106
100,197,57647,2,0,B|45:197|45:197|-1:220,1,103.500001974106
132,384,57907,6,0,L|145:277,1,103.500001974106
181,60,58167,2,0,L|193:162,1,103.500001974106
436,257,58426,1,0,0:0:0:0:
330,125,58556,1,0,0:0:0:0:
271,279,58686,1,0,0:0:0:0:
464,270,58816,1,0,0:0:0:0:
225,182,58946,6,0,B|176:149|127:165|127:198|78:214|29:182,1,207.000003948212
103,79,59335,1,0,0:0:0:0:
271,279,59465,2,0,L|255:382,1,103.500001974106
27,287,59725,2,0,L|130:303,1,103.500001974106
327,147,59985,6,0,P|256:96|231:190,1,207.000003948212
337,323,60374,1,0,0:0:0:0:
445,236,60504,2,0,P|460:179|450:128,1,103.500001974106
219,259,60764,2,0,P|204:316|214:367,1,103.500001974106
111,175,61024,6,0,P|199:227|308:204,1,207.000003948212
41,91,61413,1,0,0:0:0:0:
16,235,61543,2,0,L|25:354,1,103.500001974106
248,268,61803,2,0,L|129:277,1,103.500001974106
209,64,62063,6,0,B|260:47|308:66|337:100|337:100|362:74|397:73,1,207.000003948212
413,263,62452,2,0,P|400:209|410:159,1,103.500001974106
248,268,62712,2,0,P|261:322|251:372,1,103.500001974106
137,322,62972,1,0,0:0:0:0:
0,171,63102,6,0,B|45:171|79:148|79:148|109:176|109:176|150:155|195:171,1,207.000003948212
386,116,63491,2,0,P|419:58|425:17,1,103.500001974106
321,245,63751,2,0,P|332:295|359:338,1,103.500001974106
459,229,64011,1,0,0:0:0:0:
255,136,64141,6,0,P|181:115|70:185,1,207.000003948212
321,245,64530,2,0,P|381:243|426:215,1,103.500001974106
184,243,64790,2,0,P|145:286|129:344,1,103.500001974106
255,136,65050,2,0,P|236:81|194:38,1,103.500001974106
0,135,65309,6,0,B|40:139|71:113|71:113|111:171|185:164,1,207.000003948212
170,50,65699,1,0,0:0:0:0:
50,217,65829,2,0,L|61:329,1,103.500001974106
276,259,66089,2,0,L|164:270,1,103.500001974106
379,114,66348,6,0,B|401:183|401:183|383:238|383:238|408:311,1,207.000003948212
510,245,66738,1,0,0:0:0:0:
291,172,66868,2,0,P|220:163|172:178,1,103.500001974106
451,102,67128,2,0,P|460:31|445:-17,1,103.500001974106
138,79,67387,6,0,B|176:210|176:210|160:288,2,202.500007724762
6,289,68426,2,0,P|138:265|240:367,1,270.000010299683
484,147,69465,6,0,B|441:152|416:179|416:179|369:146|304:148,2,188.999994232178
288,227,70504,2,0,P|231:175|341:67,1,251.999992309571
386,315,71283,1,0,0:0:0:0:
301,329,71413,1,0,0:0:0:0:
215,347,71543,6,0,B|86:332|86:332|137:318,2,175.499991966248
229,233,72582,2,0,P|171:194|30:258,1,233.999989288331
454,283,73621,6,0,B|479:176|479:176|455:126,2,161.999995056153
228,201,74660,2,0,P|307:223|382:189,1,161.999995056153
364,48,75180,2,0,L|359:111,1,53.9999983520508
208,62,75439,2,0,L|271:67,1,53.9999983520508
148,143,75699,6,0,P|86:116|16:128,2,135
183,223,76608,2,0,L|188:247,2,22.5
