osu file format v14

[General]
AudioFilename: Jeff Williams ft. Casey Lee Williams - When It Falls.mp3
AudioLeadIn: 0
PreviewTime: 43621
Countdown: 0
SampleSet: None
StackLeniency: 0.7
Mode: 0
LetterboxInBreaks: 0
WidescreenStoryboard: 1

[Editor]
DistanceSpacing: 1.4
BeatDivisor: 4
GridSize: 8
TimelineZoom: 1

[Metadata]
Title:When It Falls
TitleUnicode:When It Falls
Artist:Jeff Williams ft. Casey Lee Williams
ArtistUnicode:Jeff Williams ft. Casey Lee Williams
Creator:Kyshiro
Version:Hard
Source:RWBY
Tags:Roosterteeth ruby
BeatmapID:882269
BeatmapSetID:404600

[Difficulty]
HPDrainRate:6
CircleSize:4
OverallDifficulty:7
ApproachRate:8
SliderMultiplier:1.3
SliderTickRate:1

[Events]
//Background and Video events
Video,-98,"rwby s3 intro.avi"
0,0,"35701_rwby.jpg",0,0
//Break Periods
//Storyboard Layer 0 (Background)
//Storyboard Layer 1 (Fail)
//Storyboard Layer 2 (Pass)
//Storyboard Layer 3 (Foreground)
//Storyboard Sound Samples

[TimingPoints]
9206,259.74025974026,4,1,0,30,1,0
11154,-100,4,1,0,40,0,0
27907,-114.942528735632,4,1,0,30,0,0
32063,-100,4,1,0,35,0,0
36218,-114.942528735632,4,1,0,30,0,0
40374,-153.846153846154,4,1,0,30,0,0
44400,-100,4,1,0,40,0,1
51803,-111.111111111111,4,1,0,40,0,0
52712,-100,4,1,0,40,0,1
67387,-133.333333333333,4,1,0,30,0,0
69465,-142.857142857143,4,1,0,30,0,0
71543,-153.846153846154,4,1,0,30,0,0
73621,-166.666666666667,4,1,0,30,0,0
75699,-200,4,1,0,30,0,0

[Colours]
Combo1 : 202,202,202
Combo2 : 255,157,159
Combo3 : 164,205,255
Combo4 : 223,233,167

[HitObjects]
29,150,10244,6,0,L|51:220,1,65
127,173,10504,2,0,L|146:110,1,65
212,59,10764,1,0,0:0:0:0:
280,108,10894,2,0,P|296:150|295:186,1,65
381,124,11154,6,0,P|392:67|439:6,1,130
495,82,11543,2,0,L|503:158,1,65
452,215,11803,2,0,L|460:291,1,65
402,334,12063,1,0,0:0:0:0:
329,304,12193,1,0,0:0:0:0:
261,342,12322,6,0,P|214:351|131:316,1,130
189,262,12712,2,0,L|183:126,1,130
127,77,13102,1,0,0:0:0:0:
35,110,13231,6,0,P|13:158|28:236,1,130
102,253,13621,2,0,L|174:246,1,65
272,184,13881,2,0,L|200:177,1,65
296,265,14141,2,0,L|368:258,1,65
414,188,14400,6,0,L|426:49,1,130
356,20,14790,1,0,0:0:0:0:
292,65,14920,2,0,P|255:70|221:64,1,65
155,35,15180,2,0,P|122:31|90:36,1,65
14,108,15439,6,0,P|6:161|36:237,1,130
98,190,15829,2,0,P|168:185|233:202,1,130
281,253,16218,1,0,0:0:0:0:
343,205,16348,6,0,L|357:139,1,65
423,100,16608,2,0,L|436:163,1,65
506,198,16868,2,0,L|487:348,1,130
419,361,17257,1,0,0:0:0:0:
355,315,17387,6,0,P|296:299|222:316,1,130
165,357,17777,1,0,0:0:0:0:
97,317,17907,2,0,P|87:278|90:243,1,65
156,136,18167,2,0,P|166:175|163:210,1,65
76,167,18426,2,0,L|10:160,1,65
90,82,18686,5,0,0:0:0:0:
170,51,18816,2,0,L|245:49,1,65
310,116,19076,2,0,P|332:162|328:252,1,130
419,280,19465,6,0,P|415:215|440:156,1,130
502,256,19855,2,0,L|508:334,1,65
445,370,20115,1,0,0:0:0:0:
371,346,20244,1,0,0:0:0:0:
296,369,20374,2,0,L|215:357,1,65
156,334,20634,6,0,P|140:276|158:205,1,130
231,188,21024,1,0,0:0:0:0:
155,129,21154,2,0,P|113:141|29:121,1,130
8,47,21543,1,0,0:0:0:0:
107,15,21673,6,0,L|236:7,1,130
279,73,22063,1,0,0:0:0:0:
350,42,22193,2,0,P|369:95|375:179,1,130
327,229,22582,1,0,0:0:0:0:
251,209,22712,6,0,P|228:172|217:134,1,65
158,92,22972,2,0,P|145:122|127:149,1,65
59,187,23231,1,0,0:0:0:0:
113,243,23361,1,0,0:0:0:0:
61,301,23491,2,0,L|75:375,1,65
148,342,23751,6,0,P|210:364|291:333,1,130
327,294,24141,2,0,L|336:225,1,65
247,130,24400,2,0,L|255:194,1,65
335,144,24660,6,0,P|394:134|473:160,1,130
480,228,25050,1,0,0:0:0:0:
424,282,25180,2,0,P|379:286|351:283,1,65
293,243,25439,2,0,P|260:241|228:245,1,65
155,215,25699,6,0,P|133:167|136:83,1,130
84,29,26089,1,0,0:0:0:0:
27,81,26218,2,0,L|18:153,1,65
59,212,26478,2,0,L|50:284,1,65
73,351,26738,1,0,0:0:0:0:
150,331,26868,6,0,P|221:318|291:349,1,130
332,269,27257,2,0,P|394:282|456:263,1,130
418,189,27647,2,0,L|424:119,1,65
366,68,27907,6,0,L|239:81,1,113.100000949173
183,116,28296,2,0,L|70:104,1,113.100000949173
24,169,28686,2,0,P|19:201|24:242,1,56.5500004745865
89,264,28946,6,0,P|133:266|203:244,1,113.100000949173
266,205,29335,2,0,P|319:223|375:222,1,113.100000949173
448,255,29725,2,0,P|461:291|464:327,1,56.5500004745865
394,348,29985,6,0,B|336:345|336:345|284:315,1,113.100000949173
222,361,30374,2,0,B|174:333|174:333|116:330,1,113.100000949173
46,292,30764,2,0,P|33:256|30:229,1,56.5500004745865
107,216,31024,6,0,P|120:180|123:153,2,56.5500004745865
175,255,31413,2,0,P|234:248|291:270,1,113.100000949173
360,244,31803,1,0,0:0:0:0:
417,298,31933,1,0,0:0:0:0:
480,224,32063,6,0,L|486:87,1,130
427,42,32452,2,0,P|381:35|297:63,1,130
227,84,32842,2,0,L|197:19,1,65
289,139,33102,6,0,P|283:200|240:261,1,130
169,273,33491,2,0,L|37:263,1,130
13,189,33881,2,0,P|7:150|14:113,1,65
91,68,34141,6,0,L|224:74,1,130
288,113,34530,2,0,P|302:150|303:181,1,65
295,253,34790,1,0,0:0:0:0:
367,224,34920,2,0,L|439:231,1,65
507,321,35180,6,0,L|367:336,1,130
313,290,35569,2,0,L|183:276,1,130
117,319,35959,1,0,0:0:0:0:
64,261,36089,1,0,0:0:0:0:
128,215,36218,6,0,P|144:168|131:100,1,113.100000949173
71,56,36608,2,0,L|9:53,2,56.5500004745865
152,27,36998,2,0,L|208:24,1,56.5500004745865
268,76,37257,6,0,B|268:130|268:130|292:183,1,113.100000949173
353,251,37647,2,0,B|377:198|377:198|377:143,1,113.100000949173
422,77,38037,2,0,P|467:69|491:70,1,56.5500004745865
507,142,38296,6,0,L|500:199,1,56.5500004745865
441,251,38556,1,0,0:0:0:0:
375,206,38686,2,0,P|328:187|265:190,1,113.100000949173
199,232,39076,2,0,L|188:292,1,56.5500004745865
133,344,39335,2,0,P|78:353|0:273,2,169.650001423759
116,142,40374,6,0,L|90:271,2,126.749994197846
274,169,41413,2,0,L|248:44,2,126.749994197846
385,68,42452,6,0,P|437:57|472:58,1,84.4999961318971
511,125,42842,2,0,L|500:208,1,84.4999961318971
436,258,43231,1,0,0:0:0:0:
316,185,43491,1,0,0:0:0:0:
316,185,44400,6,0,P|302:244|313:323,1,130
239,349,44790,2,0,L|171:338,1,65
132,272,45050,2,0,L|64:283,1,65
15,224,45309,1,0,0:0:0:0:
61,161,45439,6,0,P|119:145|194:169,1,130
242,214,45829,1,0,0:0:0:0:
308,171,45959,2,0,P|320:129|324:96,1,65
409,37,46218,2,0,P|414:69|424:100,1,65
501,173,46478,6,0,L|485:319,1,130
422,347,46868,2,0,P|382:349|357:341,1,65
301,287,47128,2,0,P|284:237|303:146,1,130
335,95,47517,1,0,0:0:0:0:
256,95,47647,6,0,P|214:101|179:98,1,65
129,51,47907,1,0,0:0:0:0:
43,106,48037,2,0,L|61:248,1,130
118,285,48426,1,0,0:0:0:0:
210,232,48556,6,0,P|276:227|346:258,1,130
385,309,48946,1,0,0:0:0:0:
446,260,49076,2,0,L|462:194,1,65
400,147,49335,2,0,L|416:81,1,65
351,37,49595,6,0,L|213:42,1,130
155,85,49985,1,0,0:0:0:0:
195,151,50115,1,0,0:0:0:0:
141,207,50244,2,0,P|140:243|148:276,1,65
210,316,50504,1,0,0:0:0:0:
288,262,50634,6,0,P|369:247|420:261,1,130
457,324,51024,1,0,0:0:0:0:
356,366,51154,2,0,L|221:350,1,130
163,304,51543,2,0,L|86:312,1,65
25,221,51803,6,0,L|102:229,1,65
159,186,52063,2,0,P|169:148|168:119,1,58.4999982147217
243,59,52322,2,0,P|244:88|253:116,2,58.4999982147217
341,70,52712,6,0,P|405:58|483:93,1,130
497,150,53102,2,0,L|490:222,1,65
414,229,53361,2,0,L|421:301,1,65
365,349,53621,1,0,0:0:0:0:
301,303,53751,6,0,P|232:313|174:288,1,130
136,223,54141,1,0,0:0:0:0:
218,157,54270,2,0,L|208:22,1,130
131,8,54660,1,0,0:0:0:0:
49,72,54790,6,0,P|31:125|47:200,1,130
109,240,55180,2,0,L|181:234,1,65
234,283,55439,2,0,L|306:289,1,65
360,336,55699,1,0,0:0:0:0:
424,292,55829,6,0,P|436:238|418:156,1,130
446,91,56218,1,0,0:0:0:0:
369,105,56348,2,0,L|228:93,1,130
175,48,56738,1,0,0:0:0:0:
104,113,56868,6,0,P|115:165|102:244,1,130
59,304,57257,1,0,0:0:0:0:
130,336,57387,2,0,P|172:339|197:334,1,65
254,283,57647,2,0,L|269:208,1,65
337,138,57907,6,0,L|359:277,1,130
415,318,58296,1,0,0:0:0:0:
478,272,58426,2,0,P|486:228|479:203,1,65
429,149,58686,2,0,P|421:105|428:80,1,65
341,25,58946,6,0,P|284:43|215:28,1,130
139,16,59335,1,0,0:0:0:0:
162,90,59465,2,0,L|141:227,1,130
206,264,59855,1,0,0:0:0:0:
269,218,59985,6,0,P|346:208|401:231,1,130
444,284,60374,2,0,L|437:356,1,65
364,376,60634,2,0,L|292:369,1,65
244,313,60894,1,0,0:0:0:0:
161,366,61024,6,0,P|96:368|34:342,1,130
78,277,61413,1,0,0:0:0:0:
25,219,61543,2,0,L|14:86,1,130
73,37,61933,1,0,0:0:0:0:
141,74,62063,6,0,P|152:116|151:147,1,65
235,199,62322,2,0,P|236:166|246:135,1,65
315,100,62582,1,0,0:0:0:0:
391,178,62712,2,0,L|405:311,1,130
478,334,63102,1,0,0:0:0:0:
256,192,63231,12,0,65309,0:0:0:0:
136,129,66348,5,0,0:0:0:0:
136,129,67387,6,0,P|205:94|283:103,2,146.250005578995
230,222,68426,2,0,L|439:209,1,195.00000743866
101,338,69465,6,0,P|66:292|79:211,1,136.499995834351
150,265,69985,2,0,P|165:217|152:174,1,90.9999972229005
274,31,70504,2,0,P|250:105|287:205,1,181.999994445801
424,119,71283,2,0,L|429:62,1,45.4999986114502
365,20,71543,6,0,L|226:32,2,126.749994197846
261,149,72582,2,0,P|201:153|106:92,1,168.999992263794
28,218,73361,1,0,0:0:0:0:
152,297,73621,6,0,L|274:290,2,116.999996429443
266,173,74660,2,0,P|316:171|376:206,1,116.999996429443
436,153,75180,2,0,P|445:123|453:105,2,38.9999988098145
299,264,75699,6,0,L|310:364,2,97.5
177,183,76738,1,0,0:0:0:0:
