osu file format v14

[General]
AudioFilename: 06- All Our Days - RWBY Volume 2 Soundtrack (By Jeff Williams & Casey Lee Williams).mp3
AudioLeadIn: 0
PreviewTime: 94151
Countdown: 0
SampleSet: Soft
StackLeniency: 0.7
Mode: 0
LetterboxInBreaks: 1
WidescreenStoryboard: 0

[Editor]
DistanceSpacing: 0.5
BeatDivisor: 4
GridSize: 8
TimelineZoom: 1

[Metadata]
Title:All Our Days
TitleUnicode:All Our Days
Artist:Jeff Williams feat. Casey Lee Williams
ArtistUnicode:Jeff Williams feat. Casey Lee Williams
Creator:momp
Version:Hard
Source:RWBY
Tags:rwby monty oum all our days jeff williams
BeatmapID:628819
BeatmapSetID:277517

[Difficulty]
HPDrainRate:2
CircleSize:4
OverallDifficulty:6
ApproachRate:7
SliderMultiplier:1.8
SliderTickRate:2

[Events]
//Background and Video events
0,0,"16.png",0,0
//Break Periods
2,126780,132249
2,141382,142899
//Storyboard Layer 0 (Background)
//Storyboard Layer 1 (Fail)
//Storyboard Layer 2 (Pass)
//Storyboard Layer 3 (Foreground)
//Storyboard Sound Samples

[TimingPoints]
314,702.910573896324,3,2,1,100,1,0
4403,693.571206768387,3,2,1,100,1,0
6552,702.910573896324,3,2,1,100,1,0
12198,796.185056381074,3,2,1,100,1,0
13121,756.054439922611,3,2,1,100,1,0
13121,-100,3,2,1,20,0,0
14532,904.167788648537,3,2,1,20,1,0
17933,599.5,3,2,1,100,1,0
28685,605.57125555107,3,2,1,100,1,0
32318,593.989236248516,3,2,1,100,1,0
35842,599.520383693046,3,2,1,100,1,0
44842,605.57125555107,3,2,1,100,1,0
50266,593.589236248516,3,2,1,100,1,0
55608,605.57125555107,3,2,1,100,1,0
59233,582.472176949942,3,2,1,100,1,0
60996,599.520383693046,3,2,1,100,1,0
69925,605.57125555107,3,2,1,100,1,0
71729,-100,3,2,1,20,0,0
74757,-100,3,2,1,100,0,0
78996,599.520383693046,3,2,1,100,1,0
86202,659.340659340659,3,2,1,100,1,0
88210,631.578947368421,3,2,1,100,1,0
90031,631.578947368421,3,2,1,20,1,0
91917,666.666666666667,3,2,1,20,1,0
92583,674.157303370787,3,2,1,20,1,0
94225,600,3,2,1,100,1,0
123001,-100,3,2,1,20,0,0
126580,587.774294670846,3,2,1,100,1,0
130112,666.07460035524,3,2,1,100,1,0
131444,705.882352941176,3,2,1,100,1,0
132149,800,3,2,1,100,1,0
133149,821.917808219178,3,2,1,100,1,0
134804,746.646022582214,3,2,1,100,1,0
139220,686.818181818183,3,2,1,100,1,0
141182,694.771206768388,3,2,1,100,1,0
143799,694.771206768388,3,2,1,100,1,0
147272,-100,3,2,1,5,0,0

[Colours]
Combo1 : 147,115,183
Combo2 : 211,177,105
Combo3 : 146,104,80

[HitObjects]
48,96,314,6,0,P|96:112|144:80,1,90,2|0,0:0|0:0,0:0:0:0:
192,176,1016,2,0,P|240:160|288:192,1,90
336,96,1719,2,0,P|384:112|432:80,1,90
416,96,2422,1,0,0:0:0:0:
448,288,4403,6,0,P|384:304|352:272,1,90,2|0,0:0|0:0,0:0:0:0:
336,192,5096,2,0,P|288:176|240:208,1,90
224,272,5790,2,0,P|176:288|128:256,1,90
144,272,6483,1,0,0:0:0:0:
64,80,8660,5,2,0:0:0:0:
64,80,9012,2,0,L|144:144,1,90
224,96,9715,2,0,L|256:192,1,90
352,160,10418,2,0,L|336:256,1,90
432,272,11120,2,0,L|368:336,1,90
272,304,11823,1,0,0:0:0:0:
176,240,12198,1,0,0:0:0:0:
256,192,13121,12,4,15436,0:0:0:0:
80,96,17933,6,0,L|176:96,1,90,2|0,0:0|0:0,0:0:0:0:
176,192,18532,2,0,L|272:192,1,90
304,96,19132,1,2,0:0:0:0:
384,176,19731,1,2,0:0:0:0:
192,240,20930,1,0,0:0:0:0:
192,240,21530,6,0,P|112:240|80:208,1,90,2|0,0:0|0:0,0:0:0:0:
144,160,22129,2,0,P|96:144|80:96,1,90
160,72,22729,2,0,P|184:40|240:32,1,90,2|0,0:0|0:0,0:0:0:0:
240,112,23328,2,0,P|288:128|432:96,1,180,2|0,0:0|0:0,0:0:0:0:
413,107,24527,1,0,0:0:0:0:
413,107,25127,6,0,P|424:160|408:304,1,180,2|0,0:0|0:0,0:0:0:0:
336,296,26326,2,0,P|288:312|232:280,1,90,2|0,0:0|0:0,0:0:0:0:
168,304,26925,2,0,P|176:248|224:224,1,90,2|0,0:0|0:0,0:0:0:0:
288,192,27525,1,0,0:0:0:0:
304,96,27824,1,0,0:0:0:0:
232,32,28124,1,0,0:0:0:0:
120,88,28685,6,0,P|208:112|320:80,1,180,2|0,0:0|0:0,0:0:0:0:
376,128,29593,1,0,0:0:0:0:
376,128,29896,2,0,L|376:224,1,90,2|0,0:0|0:0,0:0:0:0:
280,216,30501,2,0,L|280:312,1,90,2|0,0:0|0:0,0:0:0:0:
192,272,31107,2,0,L|192:368,1,90,2|0,0:0|0:0,0:0:0:0:
96,320,31712,1,2,0:0:0:0:
48,240,32015,1,0,0:0:0:0:
96,152,32318,6,0,P|168:120|280:160,1,180,2|0,0:0|0:0,0:0:0:0:
184,216,33505,1,2,0:0:0:0:
184,216,33802,1,0,0:0:0:0:
184,216,34099,2,0,P|280:248|360:200,1,180,2|0,0:0|0:0,0:0:0:0:
360,128,35287,1,0,0:0:0:0:
296,40,35842,6,0,P|264:104|144:128,1,180,2|0,0:0|0:0,0:0:0:0:
184,40,37041,1,2,0:0:0:0:
184,40,37640,2,0,P|120:48|48:160,1,180,2|0,0:0|0:0,0:0:0:0:
120,240,38839,2,0,L|232:240,1,90
208,240,39439,6,0,P|272:240|384:160,2,180,2|0|2,0:0|0:0|0:0,0:0:0:0:
248,144,41237,2,0,P|152:144|72:208,2,180,2|0|2,0:0|0:0|0:0,0:0:0:0:
248,144,43036,1,2,0:0:0:0:
328,104,43336,1,0,0:0:0:0:
408,136,43635,1,0,0:0:0:0:
440,216,43935,5,0,0:0:0:0:
400,288,44235,1,0,0:0:0:0:
312,304,44535,2,0,P|256:312|200:296,1,90,0|2,0:0|0:0,0:0:0:0:
208,216,45144,2,0,P|160:208|112:216,2,90
264,144,46053,1,2,0:0:0:0:
232,56,46355,1,0,0:0:0:0:
160,120,46658,5,2,0:0:0:0:
160,120,46961,1,0,0:0:0:0:
160,120,47264,2,0,P|128:152|72:160,1,90
88,240,47869,2,0,P|152:248|240:336,1,180,2|2,0:0|0:0,0:0:0:0:
384,264,49080,1,0,0:0:0:0:
432,192,49383,1,0,0:0:0:0:
376,128,49686,1,2,0:0:0:0:
432,64,49989,1,0,0:0:0:0:
432,64,50266,6,0,P|376:40|248:80,1,180,2|0,0:0|0:0,0:0:0:0:
152,56,51453,2,0,P|152:104|176:136,1,90,2|0,0:0|0:0,0:0:0:0:
256,144,52046,2,0,P|312:168|368:296,1,180,2|0,0:0|0:0,0:0:0:0:
224,256,53233,1,2,0:0:0:0:
136,280,53530,1,0,0:0:0:0:
56,232,53827,6,0,P|112:192|120:56,1,180,2|0,0:0|0:0,0:0:0:0:
240,64,55014,1,0,0:0:0:0:
336,80,55608,2,0,P|400:136|424:248,1,180,2|0,0:0|0:0,0:0:0:0:
328,192,56819,1,0,0:0:0:0:
296,272,57424,2,0,P|232:216|224:120,1,180,2|0,0:0|0:0,0:0:0:0:
160,56,58333,1,0,0:0:0:0:
80,96,58635,1,2,0:0:0:0:
56,176,58938,1,0,0:0:0:0:
80,256,59233,6,0,L|80:360,1,90,2|0,0:0|0:0,0:0:0:0:
168,280,59815,2,0,L|224:360,1,90,2|0,0:0|0:0,0:0:0:0:
288,280,60397,1,2,0:0:0:0:
424,312,60996,2,0,P|424:248|320:176,1,180,2|0,0:0|0:0,0:0:0:0:
272,112,62195,1,2,0:0:0:0:
200,176,62794,2,0,P|136:208|112:320,1,180,2|0,0:0|0:0,0:0:0:0:
224,288,63993,2,0,P|272:304|320:272,1,90
400,272,64593,6,0,B|368:88|224:256|232:240|256:48|96:120,1,360,2|0,0:0|0:0,0:0:0:0:
56,168,66391,1,2,0:0:0:0:
176,272,68190,6,0,P|264:304|368:248,1,180,2|0,0:0|0:0,0:0:0:0:
256,184,69389,1,0,0:0:0:0:
168,96,69925,2,0,P|256:64|344:112,1,180,2|0,0:0|0:0,0:0:0:0:
256,184,71136,1,0,0:0:0:0:
256,192,71741,12,4,74769,0:0:0:0:
104,96,75375,5,4,0:0:0:0:
104,96,75677,1,0,0:0:0:0:
104,96,75980,2,0,P|144:112|208:80,2,90,2|0|2,0:0|0:0|0:0,0:0:0:0:
192,256,77191,5,0,0:0:0:0:
192,256,77494,1,0,0:0:0:0:
192,256,77797,2,0,P|152:240|96:264,2,90,2|0|2,0:0|0:0|0:0,0:0:0:0:
208,352,78996,2,0,P|280:312|272:192,1,180,2|0,0:0|0:0,0:0:0:0:
216,128,80195,1,0,0:0:0:0:
128,96,80794,2,0,P|200:40|304:64,1,180,2|0,0:0|0:0,0:0:0:0:
360,96,81993,1,0,0:0:0:0:
448,160,82593,6,0,L|448:272,1,90,4|0,0:0|0:0,0:0:0:0:
360,224,83192,2,0,L|336:312,1,90
264,264,83792,2,0,L|184:320,1,90
176,216,84391,2,0,L|80:216,1,90,2|0,0:0|0:0,0:0:0:0:
112,128,84991,1,0,0:0:0:0:
144,48,85290,1,0,0:0:0:0:
224,64,85590,1,0,0:0:0:0:
200,152,86202,6,0,P|264:160|408:144,2,180,2|0|0,0:0|0:0|0:0,0:0:0:0:
96,216,88180,1,2,0:0:0:0:
192,304,88841,1,0,0:0:0:0:
304,248,89473,1,0,0:0:0:0:
256,192,90031,12,4,93257,0:0:0:0:
312,136,94225,6,0,P|368:120|392:64,2,90,2|0|0,0:0|0:0|0:0,0:0:0:0:
216,144,95425,1,2,0:0:0:0:
120,192,96025,2,0,P|152:232|208:248,1,90,2|0,0:0|0:0,0:0:0:0:
224,336,96625,2,0,P|264:288|312:288,1,90
344,216,97225,1,2,0:0:0:0:
384,304,97525,1,0,0:0:0:0:
440,232,97825,6,0,P|456:168|360:104,1,180,2|0,0:0|0:0,0:0:0:0:
288,56,99025,1,2,0:0:0:0:
208,112,99625,2,0,P|152:160|168:272,1,180,2|0,0:0|0:0,0:0:0:0:
232,200,100525,2,0,P|272:224|336:224,1,90,0|2,0:0|0:0,0:0:0:0:
304,136,101125,2,0,P|368:120|384:88,1,90,0|2,0:0|0:0,0:0:0:0:
296,48,101725,6,0,P|232:40|208:16,1,90,0|2,0:0|0:0,0:0:0:0:
128,72,102625,1,0,0:0:0:0:
80,192,103225,1,2,0:0:0:0:
80,192,103525,2,0,P|128:208|168:184,1,90,0|2,0:0|0:0,0:0:0:0:
208,272,104125,2,0,P|248:256|296:288,2,90,0|2|0,0:0|0:0|0:0,0:0:0:0:
136,200,105025,6,0,P|120:288|184:368,2,180,2|0|0,0:0|0:0|0:0,0:0:0:0:
32,128,106825,2,0,L|112:80,1,90,2|0,0:0|0:0,0:0:0:0:
192,80,107425,2,0,L|288:136,1,90,2|0,0:0|0:0,0:0:0:0:
320,56,108025,1,2,0:0:0:0:
408,56,108325,1,0,0:0:0:0:
368,144,108625,6,0,P|368:208|296:296,1,180,2|0,0:0|0:0,0:0:0:0:
240,168,109825,1,2,0:0:0:0:
240,168,110125,1,0,0:0:0:0:
240,168,110425,2,0,P|192:200|184:320,1,180,2|0,0:0|0:0,0:0:0:0:
280,272,111625,1,0,0:0:0:0:
368,192,112225,6,0,P|424:160|432:128,2,90,2|0|0,0:0|0:0|0:0,0:0:0:0:
328,80,113425,1,2,0:0:0:0:
216,40,114025,2,0,L|120:40,1,90,2|0,0:0|0:0,0:0:0:0:
160,128,114625,2,0,L|264:128,1,90,2|0,0:0|0:0,0:0:0:0:
192,216,115225,2,0,L|96:216,1,90,2|0,0:0|0:0,0:0:0:0:
40,312,115825,2,0,P|168:352|312:296,1,270,2|0,0:0|0:0,0:0:0:0:
320,224,117025,2,0,L|408:160,2,90,2|0|2,0:0|0:0|0:0,0:0:0:0:
232,152,118225,1,0,0:0:0:0:
128,144,118825,1,0,0:0:0:0:
24,144,119425,6,0,P|64:72|176:56,1,180,2|0,0:0|0:0,0:0:0:0:
256,56,120625,1,2,0:0:0:0:
352,56,121225,2,0,P|440:88|456:176,1,180,2|0,0:0|0:0,0:0:0:0:
456,168,122425,1,0,0:0:0:0:
256,192,123025,12,4,126580,0:0:0:0:
96,152,133149,5,0,0:0:0:0:
184,152,133970,1,0,0:0:0:0:
184,64,134804,2,0,P|264:120|264:224,1,180
208,248,136297,1,0,0:0:0:0:
80,208,137043,2,0,P|160:336|352:280,1,360
128,328,139220,5,0,0:0:0:0:
168,312,141182,1,0,0:0:0:0:
224,312,143799,6,0,B|224:192|32:272|0:96|184:16|256:120|256:120|264:136|272:120|272:120|360:16|512:120|440:288|272:208|272:328,1,900,4|0,0:0|0:0,0:0:0:0:
