osu file format v14

[General]
AudioFilename: WhenItFalls.mp3
AudioLeadIn: 0
PreviewTime: 9718
Countdown: 0
SampleSet: Soft
StackLeniency: 0.7
Mode: 0
LetterboxInBreaks: 0
WidescreenStoryboard: 0

[Editor]
DistanceSpacing: 0.8
BeatDivisor: 6
GridSize: 8
TimelineZoom: 2

[Metadata]
Title:When It Falls (feat. Casey Lee Williams)
TitleUnicode:When It Falls (feat. Casey Lee Williams)
Artist:Jeff Williams
ArtistUnicode:Jeff Williams
Creator:Pho
Version:Shattered
Source:RWBY
Tags:season volume 3 three opening red white black yellow tv size tvsize
BeatmapID:823873
BeatmapSetID:376314

[Difficulty]
HPDrainRate:7
CircleSize:4.5
OverallDifficulty:9
ApproachRate:9.6
SliderMultiplier:1.7
SliderTickRate:1

[Events]
//Background and Video events
0,0,"bg.jpg",0,0
//Break Periods
2,8152,9326
//Storyboard Layer 0 (Background)
//Storyboard Layer 1 (Fail)
//Storyboard Layer 2 (Pass)
//Storyboard Layer 3 (Foreground)
//Storyboard Sound Samples

[TimingPoints]
129.557692307692,569.80056980057,4,2,1,30,1,0
4687,560.747663551402,4,2,1,30,1,0
5852,545.454545454546,4,2,1,25,1,0
6977,600,4,2,1,20,1,0
7952,941.915227629513,4,2,1,15,1,0
9835,259.74025974026,4,1,1,40,1,0
10744,-100,4,1,1,50,0,0
31718,-100,4,1,1,40,0,0
39964,519.480519480519,4,2,1,40,1,0
43989,-50,4,2,1,50,0,0
44119,259.74025974026,4,1,1,40,1,0
66976,519.480519480519,4,2,1,30,1,0

[Colours]
Combo1 : 187,187,0
Combo2 : 221,0,0
Combo3 : 225,243,247
Combo4 : 105,105,105

[HitObjects]
283,127,129,6,0,L|285:56,1,42.5,2|0,0:0|0:0,0:0:0:0:
200,29,414,2,0,L|198:71,1,42.5
118,143,699,2,0,L|58:138,1,42.5
161,226,984,2,0,L|215:232,1,42.5
271,296,1269,2,0,L|270:339,1,42.5
364,362,1554,2,0,L|366:291,1,42.5
411,239,1838,2,0,L|476:229,1,42.5
358,159,2123,2,0,L|309:149,1,42.5
423,56,2408,6,0,L|421:98,1,42.5,2|0,0:0|0:0,0:0:0:0:
487,160,2693,2,0,L|485:202,1,42.5
336,284,2978,2,0,L|339:214,1,42.5
249,215,3263,2,0,L|254:143,1,42.5
158,121,3548,1,0,0:0:0:0:
69,205,3690,1,0,0:0:0:0:
122,122,3833,1,0,0:0:0:0:
153,265,3975,1,0,0:0:0:0:
332,225,4687,6,0,P|379:199|482:227,1,127.5,2|0,0:0|0:0,0:0:0:0:
228,115,5852,6,0,P|168:98|78:135,1,127.5,2|0,0:0|0:0,0:0:0:0:
277,329,6977,6,0,L|269:197,1,127.5,2|0,0:0|0:0,0:0:0:0:
256,26,7952,5,2,0:0:0:0:
239,41,9835,5,8,1:1:0:0:
313,147,9964,1,0,1:0:0:0:
421,102,10094,1,8,1:1:0:0:
292,165,10224,1,0,1:0:0:0:
457,243,10354,1,8,1:1:0:0:
324,340,10484,2,0,B|284:353|284:353|230:352,1,85,2|8,0:1|0:1,0:0:0:0:
174,205,10744,6,0,B|156:245|156:245|171:303|171:303|154:332|158:374,1,170,4|2,0:0|0:0,0:0:0:0:
237,253,11133,1,8,0:0:0:0:
92,299,11263,1,2,0:0:0:0:
17,191,11393,2,0,B|10:148|10:148|24:94,1,85,0|2,0:0|0:0,0:0:0:0:
142,15,11653,2,0,B|157:52|157:52|143:133,1,85,8|2,0:0|0:0,0:0:0:0:
292,166,11912,5,0,0:0:0:0:
364,88,12042,1,2,0:0:0:0:
253,63,12172,2,0,B|213:51|213:51|163:51,1,85,8|2,0:0|0:0,0:0:0:0:
286,184,12432,1,0,0:0:0:0:
379,96,12562,1,0,0:0:0:0:
391,261,12692,1,8,0:0:0:0:
498,170,12822,6,0,B|472:125|472:125|498:83|500:60|500:60|455:0,1,170,4|0,0:0|0:0,0:0:0:0:
342,18,13211,2,0,P|295:33|247:80,1,85,8|0,0:0|0:0,0:0:0:0:
141,193,13471,2,0,B|143:154|143:154|123:91,1,85
11,275,13731,2,0,B|8:235|8:235|26:159,1,85,8|0,0:0|0:0,0:0:0:0:
172,374,13990,6,0,P|166:334|187:262,1,85
310,312,14250,2,0,B|305:271|305:271|280:214,1,85,8|0,0:0|0:0,0:0:0:0:
335,139,14510,1,0,0:0:0:0:
389,52,14640,1,0,0:0:0:0:
390,236,14770,1,8,0:0:0:0:
264,70,14899,6,0,B|181:38|181:38|85:38,1,170,4|0,0:0|0:0,0:0:0:0:
282,56,15289,1,8,0:0:0:0:
416,153,15419,2,0,B|462:145|462:145|523:101,1,85
327,265,15679,1,0,0:0:0:0:
223,218,15809,2,0,P|182:187|157:131,1,85,8|0,0:0|0:0,0:0:0:0:
40,69,16068,5,0,0:0:0:0:
108,209,16198,1,0,0:0:0:0:
117,48,16328,1,8,0:0:0:0:
38,251,16458,1,0,0:0:0:0:
212,220,16588,1,0,0:0:0:0:
36,154,16718,1,0,0:0:0:0:
200,119,16847,1,8,0:0:0:0:
106,29,16977,6,0,B|168:16|168:16|279:69,1,170,4|0,0:0|0:0,0:0:0:0:
431,131,17367,2,0,P|451:86|443:44,1,85,8|0,0:0|0:0,0:0:0:0:
291,145,17627,2,0,L|326:249,1,85
454,263,17886,2,0,B|445:306|445:306|412:357,1,85,8|0,0:0|0:0,0:0:0:0:
315,306,18146,5,0,0:0:0:0:
214,345,18276,1,0,0:0:0:0:
87,222,18406,1,8,0:0:0:0:
185,258,18536,1,0,0:0:0:0:
122,150,18666,5,8,0:0:0:0:
184,365,18796,1,8,0:0:0:0:
241,163,18925,1,8,0:0:0:0:
59,295,19055,6,0,B|97:322|97:322|146:320|146:320|179:354|240:341,1,170,4|0,0:0|0:0,0:0:0:0:
348,283,19445,2,0,L|335:191,1,85,8|0,0:0|0:0,0:0:0:0:
197,47,19705,1,0,0:0:0:0:
57,125,19835,1,0,0:0:0:0:
195,30,19964,2,0,P|236:15|297:27,1,85,8|0,0:0|0:0,0:0:0:0:
94,43,20224,5,0,0:0:0:0:
145,238,20354,1,0,0:0:0:0:
261,126,20484,2,0,B|302:113|302:113|378:106,1,85,8|0,0:0|0:0,0:0:0:0:
358,268,20744,1,0,0:0:0:0:
378,113,20873,1,0,0:0:0:0:
440,315,21003,1,8,0:0:0:0:
281,339,21133,6,0,B|263:304|269:271|269:271|234:237|234:237|220:179,1,170
346,293,21523,1,8,0:0:0:0:
195,319,21653,1,0,0:0:0:0:
139,186,21783,2,0,B|101:163|101:163|40:139,1,85
59,280,22042,1,8,0:0:0:0:
59,280,22172,1,0,0:0:0:0:
155,71,22302,6,0,B|197:57|197:57|256:63,1,85
56,26,22562,1,8,0:0:0:0:
56,26,22692,1,0,0:0:0:0:
219,176,22822,2,0,B|265:183|265:183|334:174,1,85
463,222,23081,1,8,0:0:0:0:
444,23,23211,6,0,P|385:30|327:128,1,170
423,284,23601,1,8,0:0:0:0:
329,145,23731,1,0,0:0:0:0:
292,303,23860,2,0,B|249:293|249:293|197:270,1,85,4|0,0:0|0:0,0:0:0:0:
53,201,24120,2,0,B|93:180|93:180|148:163,1,85,8|0,0:0|0:0,0:0:0:0:
0,131,24380,5,0,0:0:0:0:
152,267,24510,1,0,0:0:0:0:
290,169,24640,2,0,P|320:99|302:61,1,85,8|0,0:0|0:0,0:0:0:0:
134,31,24899,2,0,B|144:77|144:77|182:116,1,85
30,53,25159,1,8,0:0:0:0:
217,41,25289,6,0,B|275:35|275:35|331:52|331:52|413:49,1,170
403,213,25679,1,8,0:0:0:0:
477,96,25809,1,0,0:0:0:0:
378,240,25938,1,0,0:0:0:0:
327,121,26068,1,0,0:0:0:0:
511,205,26198,2,0,L|493:104,1,85,8|0,0:0|0:0,0:0:0:0:
351,78,26458,5,0,0:0:0:0:
345,89,26523,1,0,0:0:0:0:
339,100,26588,1,0,0:0:0:0:
333,111,26653,1,0,0:0:0:0:
327,121,26718,5,8,0:0:0:0:
296,134,26783,1,8,0:0:0:0:
278,162,26847,1,8,0:0:0:0:
277,195,26912,1,0,0:0:0:0:
301,211,26977,1,0,0:0:0:0:
327,225,27042,1,0,0:0:0:0:
337,257,27107,5,8,0:0:0:0:
329,290,27172,1,8,0:0:0:0:
311,318,27237,1,8,0:0:0:0:
280,332,27302,1,0,0:0:0:0:
246,337,27367,2,0,L|190:341,1,42.5,4|0,0:3|0:0,0:0:0:0:
97,244,27497,6,0,B|151:241|151:241|223:268|223:268|280:264,1,170,4|0,0:0|0:0,0:0:0:0:
394,217,27886,2,0,B|414:249|414:249|426:327,1,85,8|0,0:0|0:0,0:0:0:0:
421,295,28146,1,0,0:0:0:0:
221,139,28276,2,0,B|204:190|204:190|198:234,1,85,8|0,0:0|0:0,0:0:0:0:
392,105,28536,5,8,0:0:0:0:
229,43,28666,1,0,0:0:0:0:
229,43,28796,1,0,0:0:0:0:
418,104,28925,1,8,0:0:0:0:
311,244,29055,1,0,0:0:0:0:
311,244,29185,1,0,0:0:0:0:
224,122,29315,1,8,0:0:0:0:
171,319,29445,1,0,0:0:0:0:
69,188,29575,6,0,B|54:142|54:142|61:76,1,85,8|0,0:0|0:0,0:0:0:0:
57,105,29835,1,0,0:0:0:0:
306,103,29964,2,0,B|299:136|299:136|268:176,1,85,8|0,0:0|0:0,0:0:0:0:
131,250,30224,1,0,0:0:0:0:
217,92,30354,2,0,L|263:9,1,85,8|0,0:0|0:0,0:0:0:0:
502,173,30614,6,0,B|512:219|512:219|496:290,1,85,8|0,0:0|0:0,0:0:0:0:
389,72,30873,1,0,0:0:0:0:
327,232,31003,2,0,B|321:268|321:268|333:340,2,85,8|0|0,0:0|0:0|0:0,0:0:0:0:
208,69,31393,1,0,0:0:0:0:
179,59,31458,1,0,0:0:0:0:
149,60,31523,1,0,0:0:0:0:
121,71,31588,1,0,0:0:0:0:
96,88,31653,6,0,L|87:-10,1,85,4|0,0:0|0:0,0:0:0:0:
86,191,31912,1,8,0:0:0:0:
203,302,32042,2,0,B|156:310|156:310|118:311,1,85
14,245,32302,1,0,0:0:0:0:
160,130,32432,2,0,B|208:136|208:136|265:155,1,85,8|0,0:0|0:0,0:0:0:0:
345,356,32692,6,0,L|224:338,1,85
365,146,32951,1,8,0:0:0:0:
429,301,33081,2,0,P|484:335|511:343,2,85
327,133,33471,1,8,0:0:0:0:
501,223,33601,1,0,0:0:0:0:
316,248,33731,6,0,B|293:190|293:190|283:79,1,170,0|8,0:0|0:0,0:0:0:0:
474,45,34120,1,0,0:0:0:0:
292,13,34250,1,0,0:0:0:0:
438,157,34380,1,0,0:0:0:0:
215,96,34510,2,0,B|159:108|159:108|115:131,1,85,8|0,0:0|0:0,0:0:0:0:
81,291,34770,2,0,P|110:253|111:200,1,85
16,100,35029,6,0,L|27:192,2,56.6666666666667,8|8|8,0:0|0:0|0:0,0:0:0:0:
76,35,35289,1,8,0:0:0:0:
112,196,35419,1,8,0:3:0:0:
182,33,35549,1,4,0:3:0:0:
231,242,35679,1,4,0:3:0:0:
313,66,35809,6,0,P|369:32|502:60,1,170,4|0,0:0|0:0,0:0:0:0:
273,180,36198,2,0,B|191:163|191:163|105:108,1,170,8|0,0:0|0:0,0:0:0:0:
338,157,36588,1,8,0:3:0:0:
348,193,36653,1,8,0:3:0:0:
345,231,36718,1,4,0:3:0:0:
323,262,36783,1,4,0:3:0:0:
299,291,36847,6,0,P|278:344|277:378,1,85,8|0,0:0|0:0,0:0:0:0:
426,280,37107,1,0,0:0:0:0:
187,181,37237,2,0,P|140:185|101:219,1,85,8|0,0:0|0:0,0:0:0:0:
258,299,37497,1,8,0:3:0:0:
422,248,37627,2,0,B|512:220,1,85,4|4,0:3|0:3,0:0:0:0:
338,157,37886,6,0,P|252:132|151:215,1,170,4|0,0:0|0:0,0:0:0:0:
112,335,38276,2,0,B|122:291|100:262|100:262|99:233|99:233|75:203|85:144,1,170,8|8,0:0|0:3,0:0:0:0:
217,230,38666,1,4,0:3:0:0:
34,314,38796,1,4,0:3:0:0:
316,371,38925,6,0,B|355:349|355:349|390:302,2,85,8|0|0,0:0|0:0|0:0,0:0:0:0:
137,205,39315,2,0,B|109:174|109:174|90:106,2,85,8|0|0,0:0|0:0|0:0,0:0:0:0:
381,195,39705,1,0,0:0:0:0:
408,151,39770,1,0,0:0:0:0:
407,99,39835,1,0,0:0:0:0:
373,61,39899,1,0,0:0:0:0:
323,47,39964,5,4,0:0:0:0:
319,51,41002,1,4,1:2:0:0:
120,200,41782,5,0,2:1:0:0:
120,200,42041,2,0,P|169:230|257:225,2,127.5,4|2|2,0:1|0:1|0:1,0:0:0:0:
114,125,42907,2,0,L|112:82,2,28.3333333333333,8|4|2,0:3|0:3|1:0,0:0:0:0:
267,285,43989,6,0,B|273:223|273:223|303:168|303:168|311:93,1,170,4|2,1:0|0:1,0:0:0:0:
108,16,44378,2,0,B|95:64|95:64|108:138,1,85,8|0,0:0|0:0,0:0:0:0:
254,174,44638,2,0,P|203:187|162:214,1,85
21,288,44898,2,0,P|88:301|122:332,1,85,8|0,0:0|2:0,0:0:0:0:
198,369,45157,5,0,0:0:0:0:
292,334,45287,1,0,0:0:0:0:
176,204,45417,1,8,0:0:0:0:
230,289,45547,1,0,0:0:0:0:
273,120,45677,1,0,0:0:0:0:
269,226,45807,1,0,0:0:0:0:
393,327,45937,1,8,0:0:0:0:
494,226,46067,6,0,B|415:195|415:195|328:195,1,170
329,195,46456,2,0,P|308:154|308:99,1,85,8|0,0:0|0:0,0:0:0:0:
437,21,46716,1,0,0:0:0:0:
386,129,46846,1,0,0:0:0:0:
271,36,46976,2,0,B|235:64|235:64|201:116,1,85,8|0,0:0|0:0,0:0:0:0:
77,229,47235,6,0,B|56:184|56:184|51:138,1,85
217,308,47495,2,0,B|239:272|239:272|248:218,1,85,8|0,0:0|0:0,0:0:0:0:
188,328,47755,1,4,0:0:0:0:
337,226,47885,1,0,0:0:0:0:
135,160,48015,1,8,0:0:0:0:
291,326,48144,6,0,P|346:323|416:236,1,170
302,158,48534,2,0,B|204:180,1,85,8|0,0:0|0:0,0:0:0:0:
433,269,48794,2,0,B|467:261|467:261|523:226,1,85
380,73,49054,1,8,0:0:0:0:
301,157,49183,6,0,P|378:186|459:157,1,170
486,52,49573,2,0,B|456:21|456:21|401:4,1,85,8|0,0:0|0:0,0:0:0:0:
280,89,49833,1,0,0:0:0:0:
178,40,49963,1,0,0:0:0:0:
299,121,50093,1,8,0:0:0:0:
249,246,50222,1,0,0:0:0:0:
93,281,50352,6,0,B|51:254|51:254|22:196,1,85
148,113,50612,2,0,P|185:142|199:203,1,85,8|0,0:0|0:0,0:0:0:0:
158,350,50872,1,0,0:0:0:0:
135,221,51002,1,0,0:0:0:0:
300,373,51131,1,8,0:0:0:0:
395,277,51261,6,0,P|337:229|241:255,1,170
428,273,51651,2,0,B|448:215|448:215|417:98,1,170,8|0,0:0|0:0,0:0:0:0:
264,120,52041,1,0,0:0:0:0:
421,20,52170,1,8,0:0:0:0:
360,133,52300,1,0,0:0:0:0:
250,49,52430,5,0,0:0:0:0:
209,37,52495,1,0,0:0:0:0:
166,42,52560,1,0,0:0:0:0:
133,68,52625,1,0,0:0:0:0:
109,103,52690,2,0,B|61:107|61:107|-6:95,1,85,8|0,0:0|0:0,0:0:0:0:
203,143,52950,1,0,0:0:0:0:
45,199,53080,1,0,0:0:0:0:
138,305,53209,2,0,P|174:266|182:210,1,85,8|0,0:0|0:0,0:0:0:0:
43,294,53469,5,0,0:0:0:0:
230,341,53599,1,0,0:0:0:0:
144,181,53729,1,8,0:0:0:0:
321,243,53859,2,0,B|330:198|330:198|323:138,1,85
218,31,54119,2,0,P|242:82|281:102,1,85,0|8,0:0|0:0,0:0:0:0:
394,66,54378,6,0,B|430:58|430:58|496:79,1,85
498,114,54573,1,0,0:0:0:0:
493,160,54638,1,0,0:0:0:0:
469,200,54703,1,0,0:0:0:0:
477,246,54768,2,0,P|434:280|386:282,1,85,8|0,0:0|0:0,0:0:0:0:
172,202,55028,1,0,0:0:0:0:
201,359,55157,1,0,0:0:0:0:
271,261,55287,2,0,B|307:248|307:248|355:208,1,85,8|0,0:0|0:0,0:0:0:0:
15,221,55547,5,0,0:0:0:0:
95,378,55677,1,0,0:0:0:0:
146,254,55807,2,0,P|165:167|155:137,1,85,8|0,0:0|0:0,0:0:0:0:
15,60,56067,2,0,B|2:101|2:101|16:171,2,85,0|0|8,0:0|0:0|0:0,0:0:0:0:
155,130,56456,6,0,B|206:145|206:145|269:135|269:135|359:153,1,170
407,21,56846,2,0,P|456:26|491:50,1,85,8|0,0:0|0:0,0:0:0:0:
413,193,57106,1,0,0:0:0:0:
336,65,57235,1,0,0:0:0:0:
446,184,57365,2,0,B|459:231|459:231|451:283,1,85,8|0,0:0|0:0,0:0:0:0:
317,315,57625,1,0,0:0:0:0:
300,300,57690,5,0,0:0:0:0:
281,288,57755,1,0,0:0:0:0:
342,137,57885,1,8,0:0:0:0:
381,284,58015,1,0,0:0:0:0:
196,200,58144,1,0,0:0:0:0:
295,186,58274,1,0,0:0:0:0:
176,324,58404,1,8,0:0:0:0:
43,189,58534,6,0,B|41:237|41:237|72:291,1,85
195,130,58794,1,0,0:0:0:0:
195,130,58924,2,0,P|207:78|198:28,1,85,8|0,0:0|0:0,0:0:0:0:
121,216,59183,2,0,B|155:256|155:256|197:273,1,85
428,115,59443,2,0,P|373:121|340:147,1,85,8|0,0:0|0:0,0:0:0:0:
321,298,59703,5,0,0:0:0:0:
381,204,59833,1,0,0:0:0:0:
434,339,59963,2,0,L|324:330,1,85,8|0,0:0|0:0,0:0:0:0:
212,270,60222,1,0,0:0:0:0:
306,205,60352,1,0,0:0:0:0:
195,130,60482,1,8,0:0:0:0:
319,91,60612,6,0,B|343:54|343:54|347:-8,1,85
202,26,60872,1,0,0:0:0:0:
202,26,61002,2,0,L|85:10,1,85,8|0,0:0|0:0,0:0:0:0:
22,111,61261,1,0,0:0:0:0:
203,200,61391,1,0,0:0:0:0:
5,220,61521,1,8,0:0:0:0:
182,296,61651,6,0,B|253:317|253:317|368:300,1,170
347,302,62041,1,8,0:0:0:0:
347,302,62300,1,0,0:0:0:0:
235,229,62430,1,0,0:0:0:0:
288,384,62560,1,8,0:0:0:0:
320,205,62690,1,0,0:0:0:0:
413,330,62820,6,0,P|466:329|509:306,1,85
401,177,63080,2,0,P|438:140|443:69,1,85,8|0,0:0|0:0,0:0:0:0:
252,103,63339,2,0,P|238:57|198:21,1,85,8|0,0:0|0:0,0:0:0:0:
120,165,63599,2,0,P|73:175|42:205,1,85,8|0,0:0|0:0,0:0:0:0:
124,361,63859,6,0,B|146:315|146:315|153:245,1,85,8|0,0:0|0:0,0:0:0:0:
214,31,64119,2,0,L|236:136,1,85,8|0,0:0|0:0,0:0:0:0:
370,334,64378,2,0,B|404:301|404:301|421:259,1,85,8|0,0:0|0:0,0:0:0:0:
439,38,64638,2,0,B|401:53|401:53|340:103,1,85,8|0,0:0|0:0,0:0:0:0:
216,232,64898,5,8,0:0:0:0:
279,104,65028,1,0,0:0:0:0:
392,214,65157,2,0,L|489:195,1,85,0|8,0:0|0:0,0:0:0:0:
361,78,65417,1,0,0:0:0:0:
312,262,65547,1,0,0:0:0:0:
198,137,65677,2,0,P|157:164|136:209,1,85,8|0,0:0|0:0,0:0:0:0:
51,340,65937,5,8,0:0:0:0:
17,190,66067,1,0,0:0:0:0:
170,307,66196,5,8,0:0:0:0:
163,153,66326,1,0,0:0:0:0:
326,313,66456,5,8,0:0:0:0:
344,160,66586,1,0,0:0:0:0:
455,344,66716,5,8,0:0:0:0:
488,194,66846,1,0,0:0:0:0:
301,21,66976,6,0,P|248:30|190:94,1,127.5,4|2,1:0|0:1,0:0:0:0:
178,107,67495,2,0,L|186:195,1,85,2|2,0:0|0:1,0:0:0:0:
421,255,68014,1,0,1:0:0:0:
421,255,68534,1,2,0:2:0:0:
125,48,69053,6,0,P|171:51|245:105,1,127.5,2|2,0:1|0:1,0:0:0:0:
251,114,69573,2,0,L|225:213,1,85,2|2,0:0|0:1,0:0:0:0:
72,342,70092,1,0,1:0:0:0:
72,342,70612,1,2,0:0:0:0:
268,240,70872,1,0,1:0:0:0:
156,286,71001,1,2,0:1:0:0:
265,343,71131,6,0,B|316:360|316:360|396:355,1,127.5,2|2,0:1|0:1,0:0:0:0:
408,350,71651,2,0,P|429:296|419:248,1,85,2|2,0:0|0:1,0:0:0:0:
330,47,72170,1,0,1:0:0:0:
330,47,72690,1,2,0:0:0:0:
105,79,72950,2,0,L|155:93,1,42.5,2|0,0:1|0:1,0:0:0:0:
209,118,73209,6,0,P|229:166|198:253,1,127.5,2|2,0:1|0:1,0:0:0:0:
191,244,73729,2,0,L|89:222,1,85,2|2,0:0|0:1,0:0:0:0:
40,26,74248,1,0,1:0:0:0:
228,237,74638,5,0,1:0:0:0:
228,237,74768,2,0,L|303:249,1,42.5,0|0,1:0|1:0,1:0:0:0:
374,141,75027,2,0,L|307:163,1,42.5,2|4,1:0|1:0,1:0:0:0:
231,53,75287,6,0,P|293:49|371:71,1,127.5,4|2,1:0|0:1,0:0:0:0:
370,109,75807,2,0,L|381:216,1,85,2|2,0:0|0:1,0:0:0:0:
318,348,76196,1,0,1:0:0:0:
298,304,76261,1,0,1:0:0:0:
314,254,76326,1,12,1:0:0:0:
