osu file format v14

[General]
AudioFilename: WhenItFalls.mp3
AudioLeadIn: 0
PreviewTime: 9718
Countdown: 0
SampleSet: Soft
StackLeniency: 0.7
Mode: 0
LetterboxInBreaks: 0
WidescreenStoryboard: 0

[Editor]
DistanceSpacing: 1.1
BeatDivisor: 2
GridSize: 8
TimelineZoom: 1

[Metadata]
Title:When It Falls (feat. Casey Lee Williams)
TitleUnicode:When It Falls (feat. Casey Lee Williams)
Artist:Jeff Williams
ArtistUnicode:Jeff Williams
Creator:Pho
Version:Normal
Source:RWBY
Tags:season volume 3 three opening red white black yellow tv size tvsize
BeatmapID:823872
BeatmapSetID:376314

[Difficulty]
HPDrainRate:4
CircleSize:3
OverallDifficulty:3.5
ApproachRate:5.5
SliderMultiplier:0.899999999999999
SliderTickRate:1

[Events]
//Background and Video events
0,0,"bg.jpg",0,0
//Break Periods
//Storyboard Layer 0 (Background)
//Storyboard Layer 1 (Fail)
//Storyboard Layer 2 (Pass)
//Storyboard Layer 3 (Foreground)
//Storyboard Sound Samples

[TimingPoints]
129,569.80056980057,4,2,1,30,1,0
129,-62.5,4,2,1,30,0,0
4687,560.747663551402,4,2,1,30,1,0
4687,-62.5,4,2,1,30,0,0
5852,545.454545454546,4,2,1,25,1,0
5852,-62.5,4,2,1,25,0,0
6977,600,4,2,1,20,1,0
6977,-62.5,4,2,1,20,0,0
7952,941.915227629513,4,2,1,15,1,0
7952,-62.5,4,2,1,15,0,0
8187,-62.5,4,2,1,15,0,0
9835,259.74025974026,4,1,1,40,1,0
10744,-100,4,1,1,50,0,0
31718,-100,4,1,1,40,0,0
39964,519.480519480519,4,2,1,30,1,0
39964,-50,4,2,1,30,0,0
43989,-50,4,2,1,50,0,0
44119,259.74025974026,4,1,1,40,1,0
66976,519.480519480519,4,2,1,30,1,0
66976,-50,4,2,1,30,0,0

[Colours]
Combo1 : 187,187,0
Combo2 : 221,0,0
Combo3 : 225,243,247
Combo4 : 105,105,105

[HitObjects]
466,76,129,6,0,L|360:108,1,71.9999999999999,2|0,0:0|0:0,0:0:0:0:
413,174,698,2,0,L|307:206,1,71.9999999999999,0|0,0:0|0:0,0:0:0:0:
318,119,1268,2,0,L|212:151,1,71.9999999999999,0|0,0:0|0:0,0:0:0:0:
265,217,1838,2,0,L|159:249,1,71.9999999999999,0|0,0:0|0:0,0:0:0:0:
117,250,2408,6,0,P|85:198|82:160,1,71.9999999999999,2|0,0:0|0:0,0:0:0:0:
99,110,2978,2,0,P|151:78|189:75,1,71.9999999999999,0|0,0:0|0:0,0:0:0:0:
233,108,3547,2,0,P|293:131|350:126,1,108,0|0,0:0|0:0,0:0:0:0:
429,307,4687,6,0,L|315:325,1,108,2|0,0:0|0:0,0:0:0:0:
118,250,5852,6,0,L|254:236,1,108,2|0,0:0|0:0,0:0:0:0:
395,157,6977,6,0,P|354:164|287:148,1,108,2|0,0:0|0:0,0:0:0:0:
223,60,7952,5,2,0:0:0:0:
223,60,9835,6,0,L|220:207,1,135,8|0,1:1|1:0,0:0:0:0:
144,258,10484,1,2,0:1:0:0:
218,323,10744,6,0,P|275:347|350:336,1,135,4|8,0:0|0:0,0:0:0:0:
428,282,11393,2,0,L|435:179,1,89.9999999999999,0|8,0:0|0:0,0:0:0:0:
338,219,11912,2,0,L|347:117,1,89.9999999999999,0|8,0:0|0:0,0:0:0:0:
362,31,12432,2,0,B|312:24|312:24|263:39,1,89.9999999999999,0|8,0:0|0:0,0:0:0:0:
228,63,12822,6,0,B|171:67|171:67|75:44,1,135,4|8,0:0|0:0,0:0:0:0:
20,114,13471,2,0,P|8:160|17:222,1,89.9999999999999,0|8,0:0|0:0,0:0:0:0:
44,295,13990,2,0,B|101:279|101:279|141:295,1,89.9999999999999,0|8,0:0|0:0,0:0:0:0:
222,333,14510,2,0,L|318:371,1,89.9999999999999,0|8,0:0|0:0,0:0:0:0:
345,380,14899,6,0,P|389:337|382:248,1,135,4|8,0:0|0:0,0:0:0:0:
334,190,15549,2,0,L|326:84,1,89.9999999999999,0|8,0:0|0:0,0:0:0:0:
273,16,16068,2,0,B|233:45|233:45|174:63,1,89.9999999999999,0|8,0:0|0:0,0:0:0:0:
122,125,16588,2,0,B|170:149|170:149|201:190,1,89.9999999999999,0|8,0:0|0:0,0:0:0:0:
205,225,16977,6,0,P|184:290|92:338,1,135,4|8,0:0|0:0,0:0:0:0:
36,304,17627,1,0,0:0:0:0:
92,222,17886,1,8,0:0:0:0:
24,149,18146,2,0,L|29:44,1,89.9999999999999,0|8,0:0|0:0,0:0:0:0:
121,26,18666,2,0,P|180:30|221:76,1,89.9999999999999,8|8,0:0|0:0,0:0:0:0:
244,75,19055,6,0,L|418:66,1,135,4|8,0:0|0:0,0:0:0:0:
471,103,19705,2,0,B|482:152|482:152|470:197,1,89.9999999999999,0|8,0:0|0:0,0:0:0:0:
372,190,20224,2,0,B|365:240|365:240|377:290,1,89.9999999999999,0|8,0:0|0:0,0:0:0:0:
446,346,20744,2,0,P|415:370|334:369,1,89.9999999999999,0|8,0:0|0:0,0:0:0:0:
291,312,21263,6,0,P|234:286|184:290,1,89.9999999999999,0|8,0:0|0:0,0:0:0:0:
111,312,21783,2,0,L|97:213,1,89.9999999999999,0|8,0:0|0:0,0:0:0:0:
20,161,22302,2,0,P|77:187|184:145,1,180,0|0,0:0|0:0,0:0:0:0:
273,31,23211,6,0,B|320:8|320:8|429:16,1,135,0|8,0:0|0:0,0:0:0:0:
417,113,23860,2,0,L|407:218,1,89.9999999999999,4|8,0:0|0:0,0:0:0:0:
309,193,24380,2,0,B|261:213|261:213|228:262,1,89.9999999999999,0|8,0:0|0:0,0:0:0:0:
253,342,24899,2,0,L|139:327,1,89.9999999999999,0|8,0:0|0:0,0:0:0:0:
115,319,25289,6,0,B|98:251|98:251|117:153,1,135,0|8,0:0|0:0,0:0:0:0:
144,94,25938,1,0,0:0:0:0:
216,161,26198,1,8,0:0:0:0:
313,144,26458,2,0,P|369:116|403:42,2,135,0|8|8,0:0|0:0|0:0,0:0:0:0:
236,81,27497,6,0,L|88:70,1,135,4|8,0:0|0:0,0:0:0:0:
27,200,28276,1,8,0:0:0:0:
27,200,28536,2,0,L|186:185,1,135,8|8,0:0|0:0,0:0:0:0:
232,318,29315,1,8,0:0:0:0:
232,318,29575,6,0,L|73:303,1,135,8|8,0:0|0:0,0:0:0:0:
218,219,30354,1,8,0:0:0:0:
218,219,30614,2,0,P|289:237|335:330,1,180,8|0,0:0|0:0,0:0:0:0:
428,360,31393,1,0,0:0:0:0:
470,270,31653,6,0,B|477:217|477:217|445:109,1,135,4|0,0:0|0:0,0:0:0:0:
326,61,32432,1,8,0:0:0:0:
326,61,32692,2,0,P|265:65|196:115,2,135,0|0|8,0:0|0:0|0:0,0:0:0:0:
418,95,33731,2,0,P|466:165|464:238,2,135,0|0|8,0:0|0:0|0:0,0:0:0:0:
340,156,34770,2,0,B|307:193|307:193|285:260|285:260|231:305,1,180,0|8,0:0|0:0,0:0:0:0:
142,320,35549,1,4,0:3:0:0:
61,261,35809,6,0,P|49:200|87:105,1,135,4|8,0:0|0:0,0:0:0:0:
184,38,36588,1,8,0:3:0:0:
184,38,36847,2,0,L|328:35,2,135,8|8|4,0:0|0:0|0:3,0:0:0:0:
136,124,37886,2,0,P|127:183|151:285,1,135,4|8,0:0|0:0,0:0:0:0:
266,333,38666,1,4,0:3:0:0:
266,333,38925,2,0,B|329:307|329:307|376:252,2,135,8|8|0,0:0|0:0|0:0,0:0:0:0:
166,331,39964,5,4,0:0:0:0:
166,331,41002,1,4,1:2:0:0:
57,54,41782,1,0,2:1:0:0:
140,106,42041,2,0,B|156:178|156:178|132:258,2,135,4|2|2,0:1|0:1|0:1,0:0:0:0:
214,40,43080,1,2,0:1:0:0:
473,269,43989,6,0,P|422:300|266:264,1,225,4|0,1:0|0:0,0:0:0:0:
196,199,44898,1,8,0:0:0:0:
107,242,45157,2,0,B|94:296|94:296|108:367,1,89.9999999999999,0|8,0:0|0:0,0:0:0:0:
189,375,45677,2,0,L|298:371,1,89.9999999999999,0|8,0:0|0:0,0:0:0:0:
297,325,46067,6,0,B|339:287|339:287|439:280,1,135,0|8,0:0|0:0,0:0:0:0:
478,203,46716,2,0,P|420:164|398:121,1,89.9999999999999,0|8,0:0|0:0,0:0:0:0:
406,49,47235,2,0,L|300:82,1,89.9999999999999,0|8,0:0|0:0,0:0:0:0:
264,158,47755,2,0,P|202:164|142:153,1,89.9999999999999,4|8,0:0|0:0,0:0:0:0:
125,167,48144,6,0,B|107:89|107:89|30:28,1,135,0|8,0:0|0:0,0:0:0:0:
3,134,48794,2,0,L|28:259,1,89.9999999999999,0|8,0:0|0:0,0:0:0:0:
60,312,49313,1,0,0:0:0:0:
150,269,49573,1,8,0:0:0:0:
227,331,49833,2,0,P|290:338|345:326,1,89.9999999999999,0|8,0:0|0:0,0:0:0:0:
350,241,50352,6,0,P|407:214|504:301,1,180,0|0,0:0|0:0,0:0:0:0:
316,334,51391,2,0,P|267:295|277:176,1,180,0|0,0:0|0:0,0:0:0:0:
361,148,52170,1,8,0:0:0:0:
311,62,52430,6,0,L|210:48,1,89.9999999999999,0|8,0:0|0:0,0:0:0:0:
175,137,52950,2,0,L|74:123,1,89.9999999999999,0|8,0:0|0:0,0:0:0:0:
23,201,53469,2,0,P|16:263|39:324,1,89.9999999999999,0|8,0:0|0:0,0:0:0:0:
97,353,53989,2,0,P|135:304|140:236,1,89.9999999999999,0|8,0:0|0:0,0:0:0:0:
229,232,54508,6,0,L|346:220,1,89.9999999999999,0|8,0:0|0:0,0:0:0:0:
356,314,55028,2,0,L|473:302,1,89.9999999999999,0|8,0:0|0:0,0:0:0:0:
475,210,55547,2,0,L|486:80,2,89.9999999999999,0|8|0,0:0|0:0|0:0,0:0:0:0:
328,182,56456,6,0,P|265:194|174:159,1,135,0|8,0:0|0:0,0:0:0:0:
114,121,57106,2,0,L|114:16,1,89.9999999999999,0|8,0:0|0:0,0:0:0:0:
163,29,57495,2,0,B|209:27|209:27|257:50|257:50|321:43,1,135,0|8,0:0|0:0,0:0:0:0:
389,25,58144,2,0,P|420:83|414:143,1,89.9999999999999,0|8,0:0|0:0,0:0:0:0:
416,155,58534,6,0,L|403:306,1,135,0|8,0:0|0:0,0:0:0:0:
305,294,59183,2,0,L|314:176,1,89.9999999999999,0|8,0:0|0:0,0:0:0:0:
256,121,59703,1,0,0:0:0:0:
186,192,59963,1,8,0:0:0:0:
115,123,60222,2,0,P|27:131|11:144,1,89.9999999999999,0|8,0:0|0:0,0:0:0:0:
17,178,60612,6,0,B|57:241|57:241|135:265|135:265,1,135,0|8,0:0|0:0,0:0:0:0:
195,316,61261,1,0,0:0:0:0:
284,273,61521,1,8,0:0:0:0:
363,332,61781,2,0,P|426:316|451:196,1,180
448,116,62560,1,8,0:0:0:0:
360,164,62820,6,0,L|262:133,1,89.9999999999999,0|8,0:0|0:0,0:0:0:0:
222,52,63339,2,0,L|124:83,1,89.9999999999999,8|8,0:0|0:0,0:0:0:0:
60,143,63859,2,0,P|47:192|63:261,1,89.9999999999999,8|8,0:0|0:0,0:0:0:0:
147,207,64378,2,0,P|179:263|233:283,1,89.9999999999999,8|8,0:0|0:0,0:0:0:0:
257,194,64898,6,0,P|316:212|363:200,1,89.9999999999999,8|8,0:0|0:0,0:0:0:0:
421,146,65417,2,0,L|432:88,2,45,0|0|8,0:0|0:0|0:0,0:0:0:0:
480,225,65937,2,0,P|464:305|382:351,1,180,8|8,0:0|0:0,0:0:0:0:
313,280,66716,1,8,0:0:0:0:
243,350,66976,6,0,L|70:326,1,135,4|2,1:0|0:1,0:0:0:0:
61,318,67495,2,0,P|45:251|59:200,1,89.9999999999999,2|2,0:0|0:1,0:0:0:0:
78,136,68014,1,0,1:0:0:0:
269,350,69053,6,0,L|442:326,1,135,2|2,0:1|0:1,0:0:0:0:
451,318,69573,2,0,P|467:251|453:200,1,89.9999999999999,2|2,0:0|0:1,0:0:0:0:
434,136,70091,1,0,1:0:0:0:
260,233,70612,2,0,L|140:217,1,89.9999999999999,2|0,0:0|1:0,0:0:0:0:
81,173,71131,6,0,P|56:103|81:33,1,135,2|2,0:1|0:1,0:0:0:0:
115,23,71651,2,0,L|224:9,1,89.9999999999999,2|2,0:0|0:1,0:0:0:0:
257,93,72170,1,0,1:0:0:0:
444,341,73209,6,0,P|469:271|444:201,1,135,2|2,0:1|0:1,0:0:0:0:
405,204,73729,2,0,L|296:190,1,89.9999999999999,2|2,0:0|0:1,0:0:0:0:
254,269,74248,1,0,1:0:0:0:
73,187,74768,2,0,L|65:86,1,89.9999999999999,0|2,1:0|1:0,0:0:0:0:
146,39,75287,6,0,P|210:30|284:80,1,135,4|2,1:0|0:1,0:0:0:0:
303,99,75807,2,0,L|408:88,1,89.9999999999999,2|2,0:0|0:1,0:0:0:0:
468,25,76326,1,12,1:0:0:0:
