osu file format v14

[General]
AudioFilename: WhenItFalls.mp3
AudioLeadIn: 0
PreviewTime: 9718
Countdown: 0
SampleSet: Soft
StackLeniency: 0.7
Mode: 0
LetterboxInBreaks: 0
WidescreenStoryboard: 0

[Editor]
Bookmarks: 22302
DistanceSpacing: 0.8
BeatDivisor: 6
GridSize: 8
TimelineZoom: 1.5

[Metadata]
Title:When It Falls (feat. Casey Lee Williams)
TitleUnicode:When It Falls (feat. Casey Lee Williams)
Artist:Jeff Williams
ArtistUnicode:Jeff Williams
Creator:Pho
Version:Insane
Source:RWBY
Tags:season volume 3 three opening red white black yellow tv size tvsize
BeatmapID:823871
BeatmapSetID:376314

[Difficulty]
HPDrainRate:7
CircleSize:4
OverallDifficulty:8
ApproachRate:9
SliderMultiplier:1.5
SliderTickRate:1

[Events]
//Background and Video events
0,0,"bg.jpg",0,0
//Break Periods
2,8152,9235
//Storyboard Layer 0 (Background)
//Storyboard Layer 1 (Fail)
//Storyboard Layer 2 (Pass)
//Storyboard Layer 3 (Foreground)
//Storyboard Sound Samples

[TimingPoints]
129,569.80056980057,4,2,1,30,1,0
129,-62.5,4,2,1,30,0,0
4687,560.747663551402,4,2,1,30,1,0
4687,-62.5,4,2,1,30,0,0
5852,545.454545454546,4,2,1,25,1,0
5852,-62.5,4,2,1,25,0,0
6977,600,4,2,1,20,1,0
6977,-62.5,4,2,1,20,0,0
7952,941.915227629513,4,2,1,15,1,0
7952,-62.5,4,2,1,15,0,0
8187,-62.5,4,2,1,15,0,0
9835,259.74025974026,4,1,1,40,1,0
10744,-100,4,1,1,50,0,0
31718,-100,4,1,1,40,0,0
39964,519.480519480519,4,2,1,30,1,0
39964,-66.6666666666667,4,2,1,30,0,0
43989,-50,4,2,1,50,0,0
44119,259.74025974026,4,1,1,40,1,0
66976,519.480519480519,4,2,1,30,1,0
66976,-66.6666666666667,4,2,1,30,0,0

[Colours]
Combo1 : 187,187,0
Combo2 : 221,0,0
Combo3 : 225,243,247
Combo4 : 105,105,105

[HitObjects]
136,272,129,6,0,L|140:198,1,60,2|0,0:0|0:0,0:0:0:0:
218,315,413,2,0,L|222:241,1,60,0|0,0:0|0:0,0:0:0:0:
387,167,698,2,0,L|383:93,1,60,0|0,0:0|0:0,0:0:0:0:
305,210,983,2,0,L|301:136,1,60,0|0,0:0|0:0,0:0:0:0:
178,69,1268,6,0,L|174:143,1,60,0|0,0:0|0:0,0:0:0:0:
96,26,1553,2,0,L|92:100,1,60,0|0,0:0|0:0,0:0:0:0:
15,255,1838,2,0,L|19:329,1,60,0|0,0:0|0:0,0:0:0:0:
97,212,2123,2,0,L|101:286,1,60,0|0,0:0|0:0,0:0:0:0:
254,354,2408,6,0,L|327:346,1,60,2|0,0:0|0:0,0:0:0:0:
292,263,2693,2,0,L|365:255,1,60,0|0,0:0|0:0,0:0:0:0:
477,164,2978,2,0,L|404:156,1,60,0|0,0:0|0:0,0:0:0:0:
439,73,3262,2,0,L|366:65,1,60,0|0,0:0|0:0,0:0:0:0:
217,132,3547,5,0,0:0:0:0:
235,17,3690,1,0,0:0:0:0:
236,141,3832,1,0,0:0:0:0:
126,78,3975,1,0,0:0:0:0:
377,110,4687,6,0,P|391:206|354:319,1,180,2|0,0:0|0:0,0:0:0:0:
135,110,5852,6,0,P|121:206|156:308,1,180,2|0,0:0|0:0,0:0:0:0:
404,36,6977,6,0,P|439:116|422:228,1,180,2|0,0:0|0:0,0:0:0:0:
108,36,7952,5,2,0:0:0:0:
173,206,9835,6,0,L|191:124,1,75,8|0,1:1|1:0,0:0:0:0:
40,242,10094,2,0,L|78:346,1,75,8|0,1:1|1:0,0:0:0:0:
245,335,10354,1,8,1:1:0:0:
162,229,10484,1,2,0:1:0:0:
244,361,10614,1,8,0:1:0:0:
327,214,10744,6,0,B|386:192|386:192|489:207,1,150,4|2,0:0|0:0,0:0:0:0:
462,372,11133,2,0,P|414:359|378:325,1,75,8|2,0:0|0:0,0:0:0:0:
252,179,11393,1,0,0:0:0:0:
318,295,11523,1,2,0:0:0:0:
414,245,11653,2,0,L|417:154,1,75,8|2,0:0|0:0,0:0:0:0:
316,63,11912,6,0,B|355:40|355:40|418:31,1,75,0|2,0:0|0:0,0:0:0:0:
323,178,12172,1,8,0:0:0:0:
323,178,12302,1,2,0:0:0:0:
153,105,12432,2,0,P|117:105|61:121,1,75,0|0,0:0|0:0,0:0:0:0:
220,21,12692,1,8,0:0:0:0:
253,164,12822,6,0,B|248:217|248:217|228:265|228:265|232:328,1,150,4|0,0:0|0:0,0:0:0:0:
148,377,13211,2,0,L|143:299,1,75,8|0,0:0|0:0,0:0:0:0:
162,174,13471,2,0,B|126:159|126:159|63:154,1,75,0|0,0:0|0:0,0:0:0:0:
226,87,13731,2,0,B|261:61|261:61|323:58,1,75,8|0,0:0|0:0,0:0:0:0:
374,190,13990,5,0,0:0:0:0:
374,190,14120,1,0,0:0:0:0:
463,111,14250,2,0,P|475:60|466:24,1,75,8|0,0:0|0:0,0:0:0:0:
296,146,14510,2,0,P|284:197|293:233,1,75,0|0,0:0|0:0,0:0:0:0:
376,65,14770,1,8,0:0:0:0:
458,200,14899,6,0,B|471:298|471:298|447:351,1,150,4|0,0:0|0:0,0:0:0:0:
334,253,15289,1,8,0:0:0:0:
424,358,15419,1,0,0:0:0:0:
291,364,15549,2,0,L|195:348,1,75,0|0,0:0|0:0,0:0:0:0:
59,266,15809,2,0,B|91:241|91:241|155:231,1,75,8|0,0:0|0:0,0:0:0:0:
279,227,16068,5,0,0:0:0:0:
188,323,16198,1,0,0:0:0:0:
109,205,16328,2,0,P|88:171|91:127,1,75,8|0,0:0|0:0,0:0:0:0:
224,113,16588,2,0,B|228:75|228:75|212:13,1,75,0|0,0:0|0:0,0:0:0:0:
189,210,16847,1,8,0:0:0:0:
317,118,16977,6,0,P|388:106|490:139,1,150,4|0,0:0|0:0,0:0:0:0:
388,278,17367,2,0,L|370:192,1,75,8|0,0:0|0:0,0:0:0:0:
482,215,17627,1,0,0:0:0:0:
482,215,17757,1,0,0:0:0:0:
361,299,17886,1,8,0:0:0:0:
220,217,18016,6,0,B|195:268|195:268|213:370,1,150,0|0,0:0|0:0,0:0:0:0:
312,236,18406,2,0,P|333:189|331:150,1,75,8|0,0:0|0:0,0:0:0:0:
183,43,18666,1,8,0:0:0:0:
320,152,18796,1,8,0:0:0:0:
295,37,18925,1,8,0:0:0:0:
203,148,19055,6,0,B|167:158|131:137|131:137|96:144|96:144|73:125|54:122,1,150,4|0,0:0|0:0,0:0:0:0:
22,205,19445,2,0,B|17:242|17:242|32:307,1,75,8|0,0:0|0:0,0:0:0:0:
164,358,19705,1,0,0:0:0:0:
204,232,19835,1,0,0:0:0:0:
264,355,19964,2,0,P|324:360|365:358,1,75,8|0,0:0|0:0,0:0:0:0:
417,161,20224,5,0,0:0:0:0:
499,237,20354,1,0,0:0:0:0:
429,319,20484,2,0,B|383:323|383:323|324:298,1,75,8|0,0:0|0:0,0:0:0:0:
225,202,20744,2,0,L|315:218,1,75,0|0,0:0|0:0,0:0:0:0:
154,293,21003,1,8,0:0:0:0:
96,163,21133,6,0,P|112:110|83:16,1,150
73,189,21523,2,0,L|81:274,1,75,8|0,0:0|0:0,0:0:0:0:
203,174,21783,1,0,0:0:0:0:
276,276,21912,1,0,0:0:0:0:
183,153,22042,2,0,B|187:113|187:113|211:60,1,75,8|0,0:0|0:0,0:0:0:0:
366,228,22302,6,0,P|366:280|347:311,1,75,0|0,0:0|0:0,0:0:0:0:
170,269,22562,2,0,L|278:243,1,75,8|0,0:0|0:0,0:0:0:0:
125,351,22822,2,0,L|38:318,1,75,0|0,0:0|0:0,0:0:0:0:
237,349,23081,1,8,0:0:0:0:
314,179,23211,6,0,B|379:176|379:176|474:234,1,150,0|0,0:0|0:0,0:0:0:0:
241,227,23601,1,8,0:0:0:0:
309,321,23731,1,0,0:0:0:0:
207,218,23860,2,0,L|215:137,1,75,4|0,0:0|0:0,0:0:0:0:
63,80,24120,2,0,L|94:159,1,75,8|0,0:0|0:0,0:0:0:0:
75,344,24380,5,0,0:0:0:0:
18,218,24510,1,0,0:0:0:0:
134,280,24640,2,0,P|170:339|170:370,1,75,8|0,0:0|0:0,0:0:0:0:
6,193,24899,2,0,L|94:172,1,75,0|0,0:0|0:0,0:0:0:0:
224,254,25159,1,8,0:0:0:0:
295,44,25289,6,0,B|229:27|229:27|119:61,1,150,0|0,0:0|0:0,0:0:0:0:
174,191,25679,2,0,P|216:167|248:124,1,75,8|0,0:0|0:0,0:0:0:0:
63,80,25938,2,0,L|83:157,1,75,0|0,0:0|0:0,0:0:0:0:
71,326,26198,2,0,P|45:291|44:249,1,75,8|0,0:0|0:0,0:0:0:0:
175,307,26458,6,0,P|195:320|226:331,3,37.5,0|0|0|0,0:0|0:0|0:0|0:0,0:0:0:0:
288,307,26718,2,0,P|304:292|313:279,3,37.5,8|8|8|0,0:0|0:0|0:0|0:0,0:0:0:0:
263,203,26977,2,0,P|247:185|244:166,3,37.5,0|0|8|8,0:0|0:0|0:0|0:0,0:0:0:0:
242,80,27237,1,8,0:0:0:0:
265,61,27302,1,0,0:0:0:0:
293,53,27367,1,4,0:3:0:0:
322,55,27432,1,0,0:0:0:0:
347,70,27497,6,0,B|403:93|403:93|504:77,1,150,4|0,0:0|0:0,0:0:0:0:
491,79,27886,1,8,0:0:0:0:
272,278,28146,5,0,0:0:0:0:
300,128,28276,1,8,0:0:0:0:
208,189,28406,1,0,0:0:0:0:
299,289,28536,6,0,L|383:272,2,75,8|0|0,0:0|0:0|0:0,0:0:0:0:
208,156,28925,2,0,L|124:139,2,75,8|0|0,0:0|0:0|0:0,0:0:0:0:
305,257,29315,1,8,0:0:0:0:
175,259,29445,1,0,0:0:0:0:
297,176,29575,6,0,B|363:169|363:169|458:197,1,150,8|0,0:0|0:0,0:0:0:0:
500,307,29964,1,8,0:0:0:0:
343,60,30224,5,0,0:0:0:0:
447,18,30354,2,0,P|459:66|452:109,1,75,8|0,0:0|0:0,0:0:0:0:
354,183,30614,2,0,L|346:98,1,75,8|0,0:0|0:0,0:0:0:0:
479,211,30873,1,0,0:0:0:0:
479,211,31003,2,0,B|431:242|431:242|319:225,1,150,8|0,0:0|0:0,0:0:0:0:
226,131,31393,1,0,0:0:0:0:
207,154,31458,1,0,0:0:0:0:
202,183,31523,1,0,0:0:0:0:
203,212,31588,1,0,0:0:0:0:
214,239,31653,6,0,B|218:316|218:316|181:381,1,150,4|8,0:0|0:0,0:0:0:0:
28,315,32042,1,0,0:0:0:0:
8,291,32302,1,0,0:0:0:0:
98,174,32432,2,0,P|117:217|116:265,1,75,8|0,0:0|0:0,0:0:0:0:
10,139,32692,6,0,B|33:85|33:85|99:14,1,150,0|8,0:0|0:0,0:0:0:0:
243,54,33081,1,0,0:0:0:0:
266,72,33341,1,0,0:0:0:0:
160,150,33471,2,0,L|146:243,1,75,8|0,0:0|0:0,0:0:0:0:
292,328,33731,6,0,L|256:228,2,75,0|0|8,0:0|0:0|0:0,0:0:0:0:
475,237,34120,2,0,L|514:157,2,75,0|0|0,0:0|0:0|0:0,0:0:0:0:
306,189,34510,1,8,0:0:0:0:
323,333,34640,1,0,0:0:0:0:
401,169,34770,6,0,B|401:101|401:101|349:34,1,150,0|8,0:0|0:0,0:0:0:0:
264,47,35116,2,0,L|198:59,2,50,8|8|8,0:0|0:0|0:0,0:0:0:0:
285,126,35419,2,0,B|253:148|253:148|204:169,2,75,8|4|4,0:3|0:3|0:3,0:0:0:0:
212,249,35809,6,0,P|133:251|35:227,1,150,4|0,0:0|0:0,0:0:0:0:
250,335,36198,2,0,P|324:322|414:331,1,150,8|0,0:0|0:0,0:0:0:0:
482,194,36588,1,8,0:3:0:0:
422,336,36718,1,4,0:3:0:0:
333,203,36847,6,0,B|319:160|319:160|320:96,2,75,8|0|0,0:0|0:0|0:0,0:0:0:0:
211,113,37237,2,0,B|218:70|218:70|207:13,2,75,8|0|8,0:0|0:0|0:3,0:0:0:0:
41,34,37627,1,4,0:3:0:0:
65,191,37757,1,4,0:3:0:0:
66,47,37886,6,0,P|111:33|220:42,1,150,4|0,0:0|0:0,0:0:0:0:
434,114,38276,2,0,P|389:100|280:109,1,150,8|8,0:0|0:3,0:0:0:0:
260,269,38666,1,4,0:3:0:0:
330,191,38796,1,4,0:3:0:0:
187,129,38925,6,0,L|192:233,2,75,8|0|0,0:0|0:0|0:0,0:0:0:0:
330,191,39315,1,8,0:0:0:0:
205,341,39445,2,0,B|182:329|182:329|139:280,1,75,0|0,0:0|0:0,0:0:0:0:
297,274,39705,2,0,B|331:284|331:284|373:320,1,75,0|0,0:0|0:0,0:0:0:0:
361,309,39899,1,0,0:0:0:0:
361,309,39964,5,4,0:0:0:0:
74,182,41002,1,4,1:2:0:0:
394,48,41781,1,0,2:1:0:0:
394,48,42041,2,0,B|401:107|401:107|380:156|380:156|379:236,2,168.750006437302,4|2|2,0:1|0:1|0:1,0:0:0:0:
288,34,42907,2,0,L|293:83,2,37.5000014305115,8|4|2,0:3|0:3|1:0,0:0:0:0:
450,184,43989,6,0,P|452:272|381:314,1,150,4|2,1:0|0:1,0:0:0:0:
253,220,44378,2,0,B|282:204|282:204|349:204,1,75,8|0,0:0|0:0,0:0:0:0:
250,329,44638,2,0,L|177:294,1,75,0|0,0:0|0:0,0:0:0:0:
86,354,44898,2,0,L|57:275,1,75,8|0,0:0|2:0,0:0:0:0:
72,128,45157,5,0,0:0:0:0:
151,197,45287,2,0,P|158:240|142:298,2,75,0|8|0,0:0|0:0|0:0,0:0:0:0:
147,34,45677,2,0,B|110:38|110:38|49:71,1,75,0|0,0:0|0:0,0:0:0:0:
221,112,45937,1,8,0:0:0:0:
318,51,46067,6,0,B|312:139|312:139|340:225,1,150,0|0,0:0|0:0,0:0:0:0:
474,203,46456,1,8,0:0:0:0:
511,317,46586,1,0,0:0:0:0:
403,359,46716,2,0,B|362:369|362:369|311:369,1,75,0|0,0:0|0:0,0:0:0:0:
400,229,46976,2,0,B|475:239,1,75,8|0,0:0|0:0,0:0:0:0:
258,308,47235,6,0,B|241:275|241:275|235:228,1,75,0|0,0:0|0:0,0:0:0:0:
351,108,47495,2,0,L|333:196,1,75,8|0,0:0|0:0,0:0:0:0:
215,126,47755,1,4,0:0:0:0:
330,212,47885,1,0,0:0:0:0:
196,278,48015,1,8,0:0:0:0:
119,200,48144,6,0,P|109:129|142:47,1,150,0|0,0:0|0:0,0:0:0:0:
237,19,48534,1,8,0:0:0:0:
286,150,48664,2,0,B|248:143|248:143|208:123,1,75,0|0,0:0|0:0,0:0:0:0:
358,54,48924,2,0,B|402:41|402:41|463:45,1,75,0|8,0:0|0:0,0:0:0:0:
446,269,49183,6,0,P|410:233|404:133,1,150,0|0,0:0|0:0,0:0:0:0:
266,60,49573,1,8,0:0:0:0:
325,177,49703,1,0,0:0:0:0:
194,245,49833,2,0,B|94:230,1,75,0|0,0:0|0:0,0:0:0:0:
128,379,50093,1,8,0:0:0:0:
223,334,50222,6,0,B|242:284|242:284|212:170,1,150,0|0,0:0|0:0,0:0:0:0:
89,125,50612,2,0,P|63:167|61:207,1,75,8|0,0:0|0:0,0:0:0:0:
155,25,50872,1,0,0:0:0:0:
197,142,51002,1,0,0:0:0:0:
268,63,51131,2,0,P|312:79|344:124,1,75,8|0,0:0|0:0,0:0:0:0:
480,155,51391,6,0,L|384:129,1,75,0|0,0:0|0:0,0:0:0:0:
290,243,51651,2,0,L|377:214,1,75,8|0,0:0|0:0,0:0:0:0:
452,348,51911,1,0,0:0:0:0:
328,330,52041,1,0,0:0:0:0:
441,225,52170,1,8,0:0:0:0:
290,160,52300,6,0,P|239:181|217:206,1,75
209,220,52495,1,0,0:0:0:0:
209,250,52560,1,0,0:0:0:0:
218,278,52625,1,0,0:0:0:0:
236,302,52690,2,0,L|158:327,1,75,8|0,0:0|0:0,0:0:0:0:
39,200,52950,1,0,0:0:0:0:
63,326,53080,1,0,0:0:0:0:
140,208,53209,2,0,P|148:156|140:106,1,75,8|0,0:0|0:0,0:0:0:0:
215,16,53469,5,0,0:0:0:0:
97,47,53599,1,0,0:0:0:0:
240,141,53729,2,0,B|259:165|259:165|268:237,1,75,8|0,0:0|0:0,0:0:0:0:
323,380,53989,2,0,P|328:341|337:302,1,75,0|0,0:0|0:0,0:0:0:0:
479,155,54248,1,8,0:0:0:0:
446,238,54378,6,0,P|405:244|349:218,1,75
355,210,54573,1,0,0:0:0:0:
354,179,54638,1,0,0:0:0:0:
358,149,54703,1,0,0:0:0:0:
379,128,54768,2,0,B|408:108|408:108|428:57,1,75,8|0,0:0|0:0,0:0:0:0:
244,45,55028,1,0,0:0:0:0:
289,134,55157,1,0,0:0:0:0:
234,224,55287,2,0,P|174:247|138:243,1,75,8|0,0:0|0:0,0:0:0:0:
63,153,55547,5,0,0:0:0:0:
63,153,55677,1,0,0:0:0:0:
143,85,55807,1,8,0:0:0:0:
143,85,55937,1,0,0:0:0:0:
41,56,56067,1,0,0:0:0:0:
41,56,56196,1,0,0:0:0:0:
81,252,56326,1,8,0:0:0:0:
162,169,56456,6,0,B|220:144|220:144|336:170,1,150
353,73,56846,1,8,0:0:0:0:
443,122,56976,2,0,P|457:170|448:214,2,75,0|0|0,0:0|0:0|0:0,0:0:0:0:
370,278,57365,1,8,0:0:0:0:
289,135,57495,1,0,0:0:0:0:
368,164,57625,6,0,L|372:256,1,75,0|0,0:0|0:0,0:0:0:0:
255,356,57885,2,0,L|251:264,1,75,8|0,0:0|0:0,0:0:0:0:
192,127,58144,2,0,B|170:161|170:161|164:211,1,75,0|0,0:0|0:0,0:0:0:0:
48,225,58404,1,8,0:0:0:0:
48,225,58534,6,0,P|104:262|141:368,1,150,0|0,0:0|0:0,0:0:0:0:
255,356,58924,2,0,L|342:340,1,75,8|0,0:0|0:0,0:0:0:0:
471,274,59183,2,0,L|381:260,1,75,0|0,0:0|0:0,0:0:0:0:
310,124,59443,1,8,0:0:0:0:
293,247,59573,5,0,0:0:0:0:
409,178,59703,2,0,P|444:131|430:32,1,150,0|8,0:0|0:0,0:0:0:0:
374,183,60093,1,0,0:0:0:0:
289,59,60222,1,0,0:0:0:0:
289,59,60352,1,0,0:0:0:0:
194,183,60482,1,8,0:0:0:0:
80,76,60612,6,0,P|59:135|85:220,1,150
212,365,61002,2,0,P|212:328|202:281,1,75,8|0,0:0|0:0,0:0:0:0:
194,183,61261,1,0,0:0:0:0:
194,183,61391,1,0,0:0:0:0:
80,292,61521,1,8,0:0:0:0:
219,375,61651,6,0,B|286:375|286:375|391:347,1,150,0|0,0:0|0:0,0:0:0:0:
247,288,62041,2,0,L|159:267,1,75,8|0,0:0|0:0,0:0:0:0:
277,184,62300,1,0,0:0:0:0:
338,264,62430,1,0,0:0:0:0:
415,214,62560,2,0,P|443:167|444:115,1,75,8|0,0:0|0:0,0:0:0:0:
358,13,62820,6,0,P|320:37|274:48,1,75
116,78,63080,2,0,B|155:91|155:91|208:127,1,75,8|0,0:0|0:0,0:0:0:0:
332,134,63339,2,0,P|299:168|269:187,1,75,8|0,0:0|0:0,0:0:0:0:
144,259,63599,2,0,B|137:299|137:299|155:354,1,75,8|0,0:0|0:0,0:0:0:0:
243,195,63859,5,8,0:0:0:0:
177,341,63989,1,0,0:0:0:0:
44,284,64119,2,0,L|61:210,1,75,8|0,0:0|0:0,0:0:0:0:
209,177,64378,5,8,0:0:0:0:
293,288,64508,1,0,0:0:0:0:
370,226,64638,2,0,L|340:122,1,75,8|0,0:0|0:0,0:0:0:0:
210,23,64898,6,0,P|177:57|174:117,2,75,8|0|0,0:0|0:0|0:0,0:0:0:0:
278,144,65287,1,8,0:0:0:0:
151,184,65417,2,0,P|115:171|89:145,1,75,0|0,0:0|0:0,0:0:0:0:
145,312,65677,2,0,P|190:298|222:271,1,75,8|0,0:0|0:0,0:0:0:0:
286,191,65937,5,8,0:0:0:0:
286,191,66067,1,0,0:0:0:0:
388,208,66196,1,8,0:0:0:0:
388,208,66326,1,0,0:0:0:0:
397,111,66456,1,8,0:0:0:0:
480,172,66586,1,0,0:0:0:0:
477,268,66716,1,8,0:0:0:0:
386,304,66846,1,0,0:0:0:0:
289,241,66976,6,0,P|210:253|118:332,1,168.750006437302,4|2,1:0|0:1,0:0:0:0:
138,303,67495,2,0,L|129:179,1,112.500004291535,2|2,0:0|0:1,0:0:0:0:
203,25,68014,1,0,1:0:0:0:
203,25,68534,1,2,0:2:0:0:
296,345,69053,6,0,P|372:335|445:275,1,168.750006437302,2|2,0:1|0:1,0:0:0:0:
442,278,69573,2,0,L|432:154,1,112.500004291535,2|2,0:0|0:1,0:0:0:0:
309,25,70092,1,0,1:0:0:0:
309,25,70612,1,2,0:0:0:0:
187,192,70872,1,0,1:0:0:0:
287,130,71001,1,2,0:1:0:0:
181,74,71131,6,0,P|101:80|30:161,1,168.750006437302,2|2,0:1|0:1,0:0:0:0:
38,138,71651,2,0,L|52:259,1,112.500004291535,2|2,0:0|0:1,0:0:0:0:
207,364,72170,1,0,1:0:0:0:
207,364,72690,1,2,0:0:0:0:
352,210,72950,2,0,L|346:266,1,56.2500021457673,2|0,0:1|0:1,0:0:0:0:
439,337,73209,6,0,L|454:154,1,168.750006437302,2|2,0:1|0:1,0:0:0:0:
452,168,73729,2,0,P|396:130|323:140,1,112.500004291535,2|2,0:0|0:1,0:0:0:0:
149,196,74248,1,0,1:0:0:0:
370,158,74638,5,0,1:0:0:0:
436,35,74768,2,0,L|362:54,1,56.2500021457673,0|0,1:0|1:0,0:0:0:0:
286,95,75027,2,0,L|220:74,1,56.2500021457673,2|4,1:0|1:0,0:0:0:0:
62,51,75287,6,0,P|50:109|83:215,1,168.750006437302,4|2,1:0|0:1,0:0:0:0:
80,211,75807,2,0,L|212:203,1,112.500004291535,2|2,0:0|0:1,0:0:0:0:
348,209,76196,1,0,1:0:0:0:
346,231,76261,1,0,1:0:0:0:
344,253,76326,1,12,1:0:0:0:
