osu file format v14

[General]
AudioFilename: WhenItFalls.mp3
AudioLeadIn: 0
PreviewTime: 9718
Countdown: 0
SampleSet: Soft
StackLeniency: 0.7
Mode: 0
LetterboxInBreaks: 0
WidescreenStoryboard: 0

[Editor]
Bookmarks: 22302
DistanceSpacing: 1.3
BeatDivisor: 6
GridSize: 8
TimelineZoom: 1.5

[Metadata]
Title:When It Falls (feat. Casey Lee Williams)
TitleUnicode:When It Falls (feat. Casey Lee Williams)
Artist:Jeff Williams
ArtistUnicode:Jeff Williams
Creator:Pho
Version:Hyper
Source:RWBY
Tags:season volume 3 three opening red white black yellow tv size tvsize
BeatmapID:823870
BeatmapSetID:376314

[Difficulty]
HPDrainRate:7
CircleSize:4
OverallDifficulty:6.5
ApproachRate:8
SliderMultiplier:1.3
SliderTickRate:1

[Events]
//Background and Video events
0,0,"bg.jpg",0,0
//Break Periods
2,8152,9085
//Storyboard Layer 0 (Background)
//Storyboard Layer 1 (Fail)
//Storyboard Layer 2 (Pass)
//Storyboard Layer 3 (Foreground)
//Storyboard Sound Samples

[TimingPoints]
129,569.80056980057,4,2,1,30,1,0
129,-62.5,4,2,1,30,0,0
4687,560.747663551402,4,2,1,30,1,0
4687,-62.5,4,2,1,30,0,0
5852,545.454545454546,4,2,1,25,1,0
5852,-62.5,4,2,1,25,0,0
6977,600,4,2,1,20,1,0
6977,-62.5,4,2,1,20,0,0
7952,941.915227629513,4,2,1,15,1,0
7952,-62.5,4,2,1,15,0,0
8187,-62.5,4,2,1,15,0,0
9835,259.74025974026,4,1,1,40,1,0
10744,-100,4,1,1,50,0,0
31718,-100,4,1,1,40,0,0
39964,519.480519480519,4,2,1,30,1,0
39964,-66.6666666666667,4,2,1,30,0,0
43989,-50,4,2,1,50,0,0
44119,259.74025974026,4,1,1,40,1,0
66976,519.480519480519,4,2,1,30,1,0
66976,-66.6666666666667,4,2,1,30,0,0

[Colours]
Combo1 : 187,187,0
Combo2 : 221,0,0
Combo3 : 225,243,247
Combo4 : 105,105,105

[HitObjects]
76,64,129,6,0,L|164:76,1,52,2|0,0:0|0:0,0:0:0:0:
199,144,413,2,0,L|111:156,1,52,0|0,0:0|0:0,0:0:0:0:
64,219,698,2,0,L|152:231,1,52,0|0,0:0|0:0,0:0:0:0:
187,299,983,2,0,L|102:311,1,52,0|0,0:0|0:0,0:0:0:0:
257,354,1268,6,0,L|327:341,1,52,0|0,0:0|0:0,0:0:0:0:
376,255,1553,2,0,L|306:268,1,52,0|0,0:0|0:0,0:0:0:0:
222,215,1838,2,0,L|292:202,1,52,0|0,0:0|0:0,0:0:0:0:
341,116,2123,2,0,L|271:129,1,52,0|0,0:0|0:0,0:0:0:0:
143,111,2408,6,0,L|158:38,1,52,2|0,0:0|0:0,0:0:0:0:
58,152,2693,2,0,L|41:98,1,52,0|0,0:0|0:0,0:0:0:0:
133,240,2978,2,0,L|157:177,1,52,0|0,0:0|0:0,0:0:0:0:
55,287,3262,2,0,L|33:231,1,52,0|0,0:0|0:0,0:0:0:0:
141,324,3547,2,0,L|200:332,2,52,0|0|0,0:0|0:0|0:0,0:0:0:0:
72,369,3975,1,0,0:0:0:0:
59,37,4687,6,0,P|133:50|184:112,1,156,2|0,0:0|0:0,0:0:0:0:
430,103,5852,6,0,P|361:117|302:184,1,156,2|0,0:0|0:0,0:0:0:0:
69,214,6977,6,0,P|142:237|202:318,1,156,2|0,0:0|0:0,0:0:0:0:
315,369,7952,5,2,0:0:0:0:
315,369,9835,6,0,L|322:292,1,65,8|0,1:1|1:0,0:0:0:0:
424,243,10094,2,0,L|417:320,2,65,8|0|8,1:1|1:0|1:1,0:0:0:0:
381,161,10484,1,2,0:1:0:0:
302,209,10614,1,8,0:1:0:0:
188,153,10744,6,0,B|159:112|159:112|166:15,1,130,4|2,0:0|0:0,0:0:0:0:
234,14,11133,2,0,P|282:14|313:39,1,65,8|2,0:0|0:0,0:0:0:0:
421,68,11393,2,0,P|372:89|347:90,1,65,0|2,0:0|0:0,0:0:0:0:
274,119,11653,2,0,L|299:207,1,65,8|2,0:0|0:0,0:0:0:0:
391,269,11912,6,0,L|458:239,2,65,0|2|8,0:0|0:0|0:0,0:0:0:0:
327,345,12302,1,2,0:0:0:0:
255,271,12432,2,0,P|223:275|184:309,1,65,0|0,0:0|0:0,0:0:0:0:
132,364,12692,1,8,0:0:0:0:
132,364,12822,6,0,B|112:313|112:313|115:281|115:281|105:235,1,130,4|0,0:0|0:0,0:0:0:0:
83,150,13211,2,0,L|-5:131,1,65,8|0,0:0|0:0,0:0:0:0:
96,59,13471,2,0,P|133:61|184:80,1,65,0|0,0:0|0:0,0:0:0:0:
313,98,13731,2,0,P|256:100|232:123,1,65,8|0,0:0|0:0,0:0:0:0:
152,154,13990,5,0,0:0:0:0:
201,230,14120,1,0,0:0:0:0:
291,220,14250,2,0,L|266:313,1,65,8|0,0:0|0:0,0:0:0:0:
183,369,14510,2,0,P|182:330|200:286,1,65,0|0,0:0|0:0,0:0:0:0:
298,367,14770,1,8,0:0:0:0:
298,367,14899,6,0,L|452:339,1,130,4|0,0:0|0:0,0:0:0:0:
480,270,15289,2,0,B|485:237|485:237|475:204,1,65,8|0,0:0|0:0,0:0:0:0:
375,157,15549,2,0,B|370:190|370:190|380:223,1,65,0|0,0:0|0:0,0:0:0:0:
447,120,15809,1,8,0:0:0:0:
447,120,15938,6,0,L|300:93,1,130,0|0,0:0|0:0,0:0:0:0:
258,27,16328,1,8,0:0:0:0:
207,102,16458,1,0,0:0:0:0:
145,35,16588,2,0,P|82:37|58:53,1,65,0|0,0:0|0:0,0:0:0:0:
12,119,16847,1,8,0:0:0:0:
12,119,16977,6,0,B|45:144|45:144|94:152|94:152|142:179,1,130,4|0,0:0|0:0,0:0:0:0:
213,217,17367,2,0,B|184:234|184:234|155:262,1,65,8|0,0:0|0:0,0:0:0:0:
269,288,17627,2,0,B|240:314|240:314|211:353,1,65,0|0,0:0|0:0,0:0:0:0:
350,308,17886,2,0,B|354:341|354:341|384:395,1,65,8|0,0:0|0:0,0:0:0:0:
458,275,18146,5,0,0:0:0:0:
458,275,18276,1,0,0:0:0:0:
425,191,18406,2,0,L|358:182,1,65,8|0,0:0|0:0,0:0:0:0:
248,58,18666,5,8,0:0:0:0:
212,134,18796,1,8,0:0:0:0:
294,149,18925,1,8,0:0:0:0:
332,76,19055,6,0,P|379:40|474:55,1,130,4|0,0:0|0:0,0:0:0:0:
419,136,19445,2,0,L|398:227,1,65,8|0,0:0|0:0,0:0:0:0:
387,289,19705,1,0,0:0:0:0:
387,289,19835,1,0,0:0:0:0:
298,270,19964,2,0,L|277:361,1,65,8|0,0:0|0:0,0:0:0:0:
232,194,20224,5,0,0:0:0:0:
232,194,20354,1,0,0:0:0:0:
173,273,20484,2,0,P|137:271|94:257,1,65,8|0,0:0|0:0,0:0:0:0:
64,152,20744,2,0,L|-1:180,2,65,0|0|8,0:0|0:0|0:0,0:0:0:0:
105,71,21133,6,0,B|150:102|150:102|253:108,1,130,0|0,0:0|0:0,0:0:0:0:
322,20,21523,2,0,L|257:28,1,65,8|0,0:0|0:0,0:0:0:0:
396,109,21783,2,0,L|461:101,1,65,0|0,0:0|0:0,0:0:0:0:
365,202,22042,2,0,L|430:194,1,65,8|0,0:0|0:0,0:0:0:0:
307,269,22302,6,0,L|243:261,1,65,0|0,0:0|0:0,0:0:0:0:
338,361,22562,2,0,L|274:354,1,65,8|0,0:0|0:0,0:0:0:0:
434,371,22822,1,0,0:0:0:0:
434,371,22951,1,0,0:0:0:0:
487,294,23081,1,8,0:0:0:0:
439,206,23211,6,0,P|377:199|324:252,1,130,0|0,0:0|0:0,0:0:0:0:
245,279,23601,1,8,0:0:0:0:
187,208,23731,2,0,P|154:201|106:206,1,65,0|4,0:0|0:0,0:0:0:0:
30,264,23990,1,0,0:0:0:0:
30,264,24120,1,8,0:0:0:0:
92,198,24250,6,0,B|102:151|102:151|77:48,1,130,0|0,0:0|0:0,0:0:0:0:
157,17,24640,2,0,P|203:20|255:54,1,65,8|0,0:0|0:0,0:0:0:0:
307,72,24899,2,0,B|306:105|306:105|283:157,1,65,0|0,0:0|0:0,0:0:0:0:
230,255,25159,1,8,0:0:0:0:
174,187,25289,6,0,P|250:160|333:190,1,130,0|0,0:0|0:0,0:0:0:0:
353,240,25679,2,0,L|338:336,1,65,8|0,0:0|0:0,0:0:0:0:
442,202,25938,2,0,L|461:263,1,65,0|0,0:0|0:0,0:0:0:0:
374,151,26198,2,0,B|391:124|391:124|399:61,1,65,8|0,0:0|0:0,0:0:0:0:
307,25,26458,6,0,L|271:40,3,32.5,0|0|0|0,0:0|0:0|0:0|0:0,0:0:0:0:
242,67,26718,2,0,L|212:54,3,32.5,8|8|8|0,0:0|0:0|0:0|0:0,0:0:0:0:
173,29,26977,6,0,L|137:44,3,32.5,0|0|8|8,0:0|0:0|0:0|0:0,0:0:0:0:
108,71,27237,2,0,L|78:58,3,32.5,8|0|4|0,0:0|0:0|0:3|0:0,0:0:0:0:
32,48,27497,6,0,B|15:117|15:117|42:194,1,130,4|0,0:0|0:0,0:0:0:0:
125,165,27886,2,0,B|142:234|142:234|122:289,1,130,8|0,0:0|0:0,0:0:0:0:
48,343,28276,2,0,P|30:304|40:266,1,65,8|0,0:0|0:0,0:0:0:0:
151,314,28536,6,0,B|208:330|208:330|284:308,1,130,8|0,0:0|0:0,0:0:0:0:
264,219,28925,2,0,B|332:199|332:199|389:215,1,130,8|0,0:0|0:0,0:0:0:0:
497,253,29315,1,8,0:0:0:0:
497,253,29445,1,0,0:0:0:0:
401,344,29575,6,0,L|386:192,1,130,8|0,0:0|0:0,0:0:0:0:
264,219,29964,2,0,L|279:67,1,130,8|0,0:0|0:0,0:0:0:0:
353,11,30354,1,8,0:0:0:0:
397,95,30484,1,0,0:0:0:0:
480,58,30614,6,0,P|505:120|477:189,1,130,8|0,0:0|0:0,0:0:0:0:
388,214,31003,1,8,0:0:0:0:
388,214,31133,2,0,L|405:292,1,65,0|0,0:0|0:0,0:0:0:0:
328,349,31393,2,0,L|284:329,3,32.5,0|0|0|0,0:0|0:0|0:0|0:0,0:0:0:0:
261,324,31653,6,0,P|211:353|129:346,1,130,4|8,0:0|0:0,0:0:0:0:
62,303,32042,1,0,0:0:0:0:
121,234,32172,2,0,B|108:206|108:206|104:153,1,65,0|0,0:0|0:0,0:0:0:0:
181,121,32432,2,0,B|194:93|194:93|198:40,1,65,8|0,0:0|0:0,0:0:0:0:
111,92,32692,6,0,P|124:129|210:209,1,130,0|8,0:0|0:0,0:0:0:0:
264,238,33081,1,0,0:0:0:0:
264,238,33211,2,0,L|352:230,1,65,0|0,0:0|0:0,0:0:0:0:
434,145,33471,2,0,B|405:144|405:144|359:165,1,65,8|0,0:0|0:0,0:0:0:0:
328,307,33731,6,0,B|380:298|380:298|447:233,1,130,0|8,0:0|0:0,0:0:0:0:
432,145,34120,1,0,0:0:0:0:
432,145,34250,2,0,L|427:79,1,65,0|0,0:0|0:0,0:0:0:0:
326,24,34510,2,0,L|331:90,1,65,8|0,0:0|0:0,0:0:0:0:
274,190,34770,1,0,0:0:0:0:
106,93,35029,6,0,L|47:73,3,43.3333333333333,8|8|8|8,0:0|0:0|0:0|0:0,0:0:0:0:
166,150,35419,2,0,L|228:126,2,65,8|4|4,0:3|0:3|0:3,0:0:0:0:
78,182,35809,6,0,B|67:237|67:237|88:323,1,130,4|0,0:0|0:0,0:0:0:0:
159,353,36198,2,0,L|301:338,1,130,8|0,0:0|0:0,0:0:0:0:
382,285,36588,2,0,L|321:257,1,65,8|4,0:3|0:3,0:0:0:0:
243,165,36847,6,0,B|235:124|235:124|244:77,2,65,8|0|0,0:0|0:0|0:0,0:0:0:0:
327,97,37237,2,0,B|335:56|335:56|326:9,2,65,8|0|8,0:0|0:0|0:3,0:0:0:0:
411,184,37627,1,4,0:3:0:0:
425,97,37757,1,4,0:3:0:0:
322,141,37886,6,0,B|333:219|333:219|362:284,1,130,4|0,0:0|0:0,0:0:0:0:
230,177,38276,2,0,B|220:241|220:241|194:316,1,130,8|8,0:0|0:3,0:0:0:0:
40,280,38666,1,4,0:3:0:0:
115,376,38796,1,4,0:3:0:0:
63,291,38925,6,0,L|54:152,1,130,8|0,0:0|0:0,0:0:0:0:
122,53,39315,1,8,0:0:0:0:
122,53,39445,2,0,P|185:53|210:68,1,65,0|0,0:0|0:0,0:0:0:0:
17,89,39705,2,0,B|41:98|41:98|74:127,1,65,0|0,0:0|0:0,0:0:0:0:
145,208,39964,5,4,0:0:0:0:
145,208,41002,1,4,1:2:0:0:
44,230,41782,1,0,2:1:0:0:
44,230,42041,6,0,B|27:291|27:291|42:386,2,146.250005578995,4|2|2,0:1|0:1|0:1,0:0:0:0:
76,128,42907,2,0,L|69:85,2,32.5000012397767,8|4|2,0:3|0:3|1:0,0:0:0:0:
76,128,43989,6,0,P|140:133|230:78,1,130,4|2,1:0|0:1,0:0:0:0:
280,69,44378,2,0,B|270:40|270:40|270:-8,1,65,8|0,0:0|0:0,0:0:0:0:
358,144,44638,2,0,B|370:108|370:108|366:59,1,65,0|0,0:0|0:0,0:0:0:0:
458,218,44898,2,0,B|442:186|442:186|437:142,1,65,8|0,0:0|2:0,0:0:0:0:
447,32,45157,6,0,P|484:53|505:96,2,65,0|0|8,0:0|0:0|0:0,0:0:0:0:
353,59,45547,1,0,0:0:0:0:
358,144,45677,2,0,L|367:229,1,65,0|0,0:0|0:0,0:0:0:0:
416,297,45937,1,8,0:0:0:0:
416,297,46067,6,0,B|368:313|368:313|274:294,1,130,0|0,0:0|0:0,0:0:0:0:
215,221,46456,2,0,P|243:206|278:205,1,65,8|0,0:0|0:0,0:0:0:0:
133,279,46716,1,0,0:0:0:0:
133,279,46846,1,0,0:0:0:0:
54,224,46976,2,0,L|42:149,1,65,8|0,0:0|0:0,0:0:0:0:
76,43,47235,5,0,0:0:0:0:
76,43,47365,1,0,0:0:0:0:
157,83,47495,2,0,B|167:110|167:110|158:159,1,65,8|0,0:0|0:0,0:0:0:0:
225,273,47755,2,0,L|241:197,2,65,4|0|8,0:0|0:0|0:0,0:0:0:0:
296,368,48144,6,0,P|358:357|405:282,1,130,0|0,0:0|0:0,0:0:0:0:
341,236,48534,1,8,0:0:0:0:
402,168,48664,2,0,B|430:156|430:156|480:159,1,65,0|0,0:0|0:0,0:0:0:0:
338,111,48924,2,0,B|311:97|311:97|256:99,1,65,0|8,0:0|0:0,0:0:0:0:
178,182,49183,6,0,P|134:190|62:140,1,130,0|0,0:0|0:0,0:0:0:0:
177,56,49573,2,0,L|113:67,1,65,8|0,0:0|0:0,0:0:0:0:
256,133,49833,2,0,L|256:215,2,65,0|0|8,0:0|0:0|0:0,0:0:0:0:
334,56,50222,6,0,L|399:67,1,65,0|0,0:0|0:0,0:0:0:0:
466,128,50482,1,0,0:0:0:0:
466,128,50612,2,0,B|467:167|467:167|440:205,1,65,8|0,0:0|0:0,0:0:0:0:
352,246,50872,2,0,P|337:217|339:170,1,65,0|0,0:0|0:0,0:0:0:0:
444,273,51131,2,0,L|434:356,1,65,8|0,0:0|0:0,0:0:0:0:
355,378,51391,6,0,B|310:348|310:348|221:344,1,130,0|8,0:0|0:0,0:0:0:0:
148,370,51781,1,0,0:0:0:0:
77,313,51911,2,0,P|65:266|82:181,1,130,0|8,0:0|0:0,0:0:0:0:
232,150,52300,1,0,0:0:0:0:
175,214,52430,6,0,L|152:183,3,32.5,0|0|0|0,0:0|0:0|0:0|0:0,0:0:0:0:
140,155,52690,2,0,L|153:79,1,65,8|0,0:0|0:0,0:0:0:0:
234,18,52950,2,0,B|245:50|245:50|244:82,1,65,0|0,0:0|0:0,0:0:0:0:
313,195,53209,2,0,B|312:153|312:153|326:119,1,65,8|0,0:0|0:0,0:0:0:0:
437,94,53469,5,0,0:0:0:0:
437,94,53729,1,8,0:0:0:0:
437,94,53989,2,0,L|507:116,2,65,0|0|8,0:0|0:0|0:0,0:0:0:0:
380,165,54378,1,0,0:0:0:0:
432,239,54508,2,0,L|428:291,3,32.5,0|0|0|0,0:0|0:0|0:0|0:0,0:0:0:0:
423,317,54768,2,0,L|336:295,1,65,8|0,0:0|0:0,0:0:0:0:
290,241,55028,2,0,B|266:256|266:256|253:306,1,65,0|0,0:0|0:0,0:0:0:0:
200,382,55287,2,0,B|185:357|185:357|133:330,1,65,8|0,0:0|0:0,0:0:0:0:
29,287,55547,5,0,0:0:0:0:
29,287,55807,1,8,0:0:0:0:
29,287,56067,2,0,L|37:362,1,65,0|0,0:0|0:0,0:0:0:0:
109,228,56326,1,8,0:0:0:0:
191,271,56456,6,0,B|213:220|213:220|205:138,1,130,0|0,0:0|0:0,0:0:0:0:
148,74,56846,2,0,P|184:54|224:54,1,65,8|0,0:0|0:0,0:0:0:0:
280,122,57106,2,0,L|344:124,2,65,0|0|8,0:0|0:0|0:0,0:0:0:0:
308,6,57495,6,0,P|364:16|417:87,1,130,0|0,0:0|0:0,0:0:0:0:
433,157,57885,2,0,B|453:182|453:182|490:193,1,65,8|0,0:0|0:0,0:0:0:0:
362,226,58144,2,0,B|329:212|329:212|298:214,2,65,0|0|8,0:0|0:0|0:0,0:0:0:0:
454,297,58534,6,0,P|413:337|334:345,1,130,0|0,0:0|0:0,0:0:0:0:
264,280,58924,2,0,L|178:292,1,65,8|0,0:0|0:0,0:0:0:0:
148,353,59183,1,0,0:0:0:0:
148,353,59313,1,0,0:0:0:0:
185,219,59443,1,8,0:0:0:0:
106,236,59573,6,0,P|92:192|115:96,1,130,0|0,0:0|0:0,0:0:0:0:
186,67,59963,2,0,B|198:91|198:91|195:143,1,65,8|0,0:0|0:0,0:0:0:0:
262,190,60222,1,0,0:0:0:0:
262,190,60352,1,0,0:0:0:0:
300,68,60482,1,8,0:0:0:0:
403,135,60612,6,0,L|397:267,1,130,0|0,0:0|0:0,0:0:0:0:
337,335,61002,2,0,P|293:347|261:344,1,65,8|0,0:0|0:0,0:0:0:0:
153,285,61261,2,0,L|218:274,1,65,0|0,0:0|0:0,0:0:0:0:
80,202,61521,1,8,0:0:0:0:
80,202,61651,6,0,P|114:173|151:94,1,130,0|0,0:0|0:0,0:0:0:0:
97,22,62041,1,8,0:0:0:0:
265,113,62300,5,0,0:0:0:0:
328,47,62430,1,0,0:0:0:0:
241,18,62560,1,8,0:0:0:0:
265,113,62690,1,0,0:0:0:0:
265,113,62820,6,0,P|307:138|389:130,1,130,0|8,0:0|0:0,0:0:0:0:
469,97,63209,1,0,0:0:0:0:
469,97,63339,2,0,L|464:184,1,65,8|0,0:0|0:0,0:0:0:0:
376,281,63599,2,0,B|367:251|367:251|373:189,1,65,8|0,0:0|0:0,0:0:0:0:
453,309,63859,6,0,L|311:347,1,130,8|8,0:0|0:0,0:0:0:0:
240,264,64248,1,0,0:0:0:0:
240,264,64378,2,0,L|221:353,1,65,8|0,0:0|0:0,0:0:0:0:
123,206,64638,2,0,L|138:275,1,65,8|0,0:0|0:0,0:0:0:0:
26,240,64898,6,0,L|45:112,1,130,8|0,0:0|0:0,0:0:0:0:
114,39,65287,1,8,0:0:0:0:
114,39,65417,2,0,B|156:72|156:72|257:85,1,130,0|8,0:0|0:0,0:0:0:0:
330,99,65807,1,0,0:0:0:0:
474,75,65937,6,0,L|466:6,1,65,8|0,0:0|0:0,0:0:0:0:
330,99,66196,2,0,L|338:168,1,65,8|0,0:0|0:0,0:0:0:0:
449,228,66456,6,0,L|441:159,1,65,8|0,0:0|0:0,0:0:0:0:
298,238,66716,2,0,L|306:307,1,65,8|0,0:0|0:0,0:0:0:0:
447,365,66976,6,0,P|485:305|447:218,1,146.250005578995,4|2,1:0|0:1,0:0:0:0:
449,228,67495,2,0,L|346:220,1,97.50000371933,2|2,0:0|0:1,0:0:0:0:
157,322,68014,1,0,1:0:0:0:
157,322,68534,1,2,0:2:0:0:
65,19,69053,6,0,P|27:79|65:166,1,146.250005578995,2|2,0:1|0:1,0:0:0:0:
65,157,69573,2,0,L|168:165,1,97.50000371933,2|2,0:0|0:1,0:0:0:0:
355,62,70091,1,0,1:0:0:0:
355,62,70612,1,2,0:0:0:0:
415,147,70872,2,0,L|408:218,1,48.750001859665,0|2,1:0|0:1,0:0:0:0:
323,311,71131,6,0,B|293:266|293:266|299:156,1,146.250005578995,2|2,0:1|0:1,0:0:0:0:
299,153,71651,2,0,P|242:118|198:125,1,97.50000371933,2|2,0:0|0:1,0:0:0:0:
74,159,72170,1,0,1:0:0:0:
74,159,72690,1,2,0:0:0:0:
131,316,72950,2,0,L|183:305,1,48.750001859665,2|0,0:1|0:1,0:0:0:0:
280,224,73209,6,0,B|369:237|369:237|428:290,1,146.250005578995,2|2,0:1|0:1,0:0:0:0:
425,288,73729,2,0,P|416:229|439:180,1,97.50000371933,2|2,0:0|0:1,0:0:0:0:
509,91,74248,1,0,1:0:0:0:
297,28,74638,5,0,1:0:0:0:
225,76,74768,2,0,L|251:159,1,48.750001859665,0|0,1:0|1:0,0:0:0:0:
299,205,75027,2,0,L|328:133,1,48.750001859665,2|4,1:0|1:0,0:0:0:0:
165,165,75287,6,0,P|142:213|183:303,1,146.250005578995,4|2,1:0|0:1,0:0:0:0:
188,304,75807,2,0,B|227:314|227:314|300:299,1,97.50000371933,2|2,0:0|0:1,0:0:0:0:
370,251,76196,1,0,1:0:0:0:
370,251,76261,1,0,1:0:0:0:
370,251,76326,1,12,1:0:0:0:
