osu file format v14

[General]
AudioFilename: WhenItFalls.mp3
AudioLeadIn: 0
PreviewTime: 9718
Countdown: 0
SampleSet: Normal
StackLeniency: 0.7
Mode: 0
LetterboxInBreaks: 0
WidescreenStoryboard: 0

[Editor]
Bookmarks: 22302
DistanceSpacing: 1.6
BeatDivisor: 6
GridSize: 8
TimelineZoom: 1

[Metadata]
Title:When It Falls (feat. Casey Lee Williams)
TitleUnicode:When It Falls (feat. Casey Lee Williams)
Artist:Jeff Williams
ArtistUnicode:Jeff Williams
Creator:Pho
Version:Hard
Source:RWBY
Tags:season volume 3 three opening red white black yellow tv size tvsize
BeatmapID:823869
BeatmapSetID:376314

[Difficulty]
HPDrainRate:6
CircleSize:3.5
OverallDifficulty:5
ApproachRate:7
SliderMultiplier:1.1
SliderTickRate:1

[Events]
//Background and Video events
0,0,"bg.jpg",0,0
//Break Periods
2,8152,8935
//Storyboard Layer 0 (Background)
//Storyboard Layer 1 (Fail)
//Storyboard Layer 2 (Pass)
//Storyboard Layer 3 (Foreground)
//Storyboard Sound Samples

[TimingPoints]
129,569.80056980057,4,2,1,30,1,0
129,-62.5,4,2,1,30,0,0
4687,560.747663551402,4,2,1,30,1,0
4687,-62.5,4,2,1,30,0,0
5852,545.454545454546,4,2,1,25,1,0
5852,-62.5,4,2,1,25,0,0
6977,600,4,2,1,20,1,0
6977,-62.5,4,2,1,20,0,0
7952,941.915227629513,4,2,1,15,1,0
7952,-62.5,4,2,1,15,0,0
8187,-62.5,4,2,1,15,0,0
9835,259.74025974026,4,1,1,40,1,0
10744,-100,4,1,1,50,0,0
31718,-100,4,1,1,40,0,0
39964,519.480519480519,4,2,1,30,1,0
39964,-50,4,2,1,30,0,0
43989,-50,4,2,1,50,0,0
44119,259.74025974026,4,1,1,40,1,0
66976,519.480519480519,4,2,1,30,1,0
66976,-50,4,2,1,30,0,0

[Colours]
Combo1 : 187,187,0
Combo2 : 221,0,0
Combo3 : 225,243,247
Combo4 : 105,105,105

[HitObjects]
457,338,129,6,0,L|387:335,3,44,2|0|0|0,0:0|0:0|0:0|0:0,0:0:0:0:
360,255,698,2,0,L|289:269,3,44,0|0|0|0,0:0|0:0|0:0|0:0,0:0:0:0:
258,335,1268,2,0,L|188:323,3,44,0|0|0|0,0:0|0:0|0:0|0:0,0:0:0:0:
170,247,1838,2,0,L|102:265,3,44,0|0|0|0,0:0|0:0|0:0|0:0,0:0:0:0:
34,172,2408,6,0,L|25:110,3,44,2|0|0|0,0:0|0:0|0:0|0:0,0:0:0:0:
103,55,2978,2,0,L|112:117,3,44,0|0|0|0,0:0|0:0|0:0|0:0,0:0:0:0:
205,146,3547,2,0,L|197:87,3,44,0|0|0|0,0:0|0:0|0:0|0:0,0:0:0:0:
459,44,4687,6,0,P|440:112|437:175,1,132,2|0,0:0|0:0,0:0:0:0:
256,128,5852,6,0,P|280:192|279:263,1,132,2|0,0:0|0:0,0:0:0:0:
75,184,6977,6,0,P|59:233|52:345,1,132,2|0,0:0|0:0,0:0:0:0:
185,362,7952,5,2,0:0:0:0:
407,327,9835,6,0,L|345:320,1,55,8|0,1:1|1:0,0:0:0:0:
295,241,10094,2,0,L|357:234,1,55,8|0,1:1|1:0,0:0:0:0:
421,172,10354,2,0,L|420:115,2,55,8|2|8,1:1|0:1|0:1,0:0:0:0:
331,133,10744,6,0,P|266:116|182:162,1,165,4|8,0:0|0:0,0:0:0:0:
84,229,11393,2,0,L|8:195,2,55,0|2|8,0:0|0:0|0:0,0:0:0:0:
155,326,11912,2,0,L|190:387,2,55,0|2|8,0:0|0:0|0:0,0:0:0:0:
207,261,12302,2,0,P|270:244|328:281,1,110,2|0,0:0|0:0,0:0:0:0:
355,300,12692,1,8,0:0:0:0:
355,300,12822,6,0,B|411:266|411:266|439:166,1,165,4|8,0:0|0:0,0:0:0:0:
413,51,13471,2,0,P|344:31|291:51,1,110,0|8,0:0|0:0,0:0:0:0:
245,143,13990,2,0,P|183:146|119:95,1,110,0|8,0:0|0:0,0:0:0:0:
44,51,14510,2,0,L|56:202,1,110,0|8,0:0|0:0,0:0:0:0:
71,245,14899,6,0,P|111:300|196:315,1,110,4|0,0:0|0:0,0:0:0:0:
209,311,15289,2,0,L|293:282,1,55,8|0,0:0|0:0,0:0:0:0:
312,259,15549,2,0,P|338:272|372:309,2,55,0|0|8,0:0|0:0|0:0,0:0:0:0:
268,217,15938,2,0,P|249:123|285:52,1,165,0|8,0:0|0:0,0:0:0:0:
411,29,16588,2,0,L|483:15,2,55,0|0|8,0:0|0:0|0:0,0:0:0:0:
381,105,16977,6,0,B|367:163|367:163|383:263,1,110,4|0,0:0|0:0,0:0:0:0:
396,269,17367,1,8,0:0:0:0:
396,269,17497,2,0,P|351:312|281:313,1,110,0|0,0:0|0:0,0:0:0:0:
248,300,17886,1,8,0:0:0:0:
248,300,18016,2,0,P|173:286|116:332,1,110,0|0,0:0|0:0,0:0:0:0:
95,334,18406,2,0,L|77:246,1,55,8|0,0:0|0:0,0:0:0:0:
17,239,18666,5,8,0:0:0:0:
6,162,18796,1,8,0:0:0:0:
65,114,18925,1,8,0:0:0:0:
139,137,19055,6,0,P|204:161|301:122,1,165,4|8,0:0|0:0,0:0:0:0:
362,44,19705,2,0,L|442:24,2,55,0|0|8,0:0|0:0|0:0,0:0:0:0:
240,43,20224,2,0,L|160:23,2,55,0|0|8,0:0|0:0|0:0,0:0:0:0:
319,134,20744,2,0,P|338:201|324:263,1,110,0|8,0:0|0:0,0:0:0:0:
296,288,21133,1,0,0:0:0:0:
296,288,21263,6,0,L|186:278,1,110,0|8,0:0|0:0,0:0:0:0:
130,169,21783,2,0,L|240:179,1,110,0|8,0:0|0:0,0:0:0:0:
318,87,22302,2,0,L|208:77,1,110,0|8,0:0|0:0,0:0:0:0:
164,34,22692,1,0,0:0:0:0:
164,34,22822,2,0,B|117:63|117:63|60:59,1,110,0|8,0:0|0:0,0:0:0:0:
27,175,23341,6,0,L|44:323,1,110,0|8,0:0|0:0,0:0:0:0:
131,360,23860,1,4,0:0:0:0:
167,244,24120,1,8,0:0:0:0:
255,332,24380,2,0,L|324:356,2,55,0|0|8,0:0|0:0|0:0,0:0:0:0:
313,225,24899,2,0,L|248:252,2,55,0|0|8,0:0|0:0|0:0,0:0:0:0:
385,183,25289,6,0,P|418:118|394:37,1,110
306,17,25809,1,0,0:0:0:0:
222,103,26068,1,0,0:0:0:0:
222,103,26198,1,8,0:0:0:0:
222,103,26328,2,0,P|164:106|72:56,1,165,0|8,0:0|0:0,0:0:0:0:
2,158,26977,2,0,L|18:289,1,110,0|8,0:0|0:0,0:0:0:0:
102,351,27497,6,0,P|171:354|227:319,1,110,4|0,0:0|0:0,0:0:0:0:
250,294,27886,2,0,P|316:276|369:297,1,110,8|0,0:0|0:0,0:0:0:0:
406,318,28276,1,8,0:0:0:0:
477,220,28536,2,0,B|481:169|481:169|459:94,1,110,8|0,0:0|0:0,0:0:0:0:
429,63,28925,2,0,P|366:86|342:134,1,110,8|0,0:0|0:0,0:0:0:0:
321,176,29315,1,8,0:0:0:0:
233,92,29575,6,0,P|163:91|123:136,1,110,8|0,0:0|0:0,0:0:0:0:
107,169,29964,2,0,L|122:295,1,110,8|0,0:0|0:0,0:0:0:0:
176,300,30354,2,0,L|254:292,1,55,8|0,0:0|0:0,0:0:0:0:
272,247,30614,6,0,P|348:205|407:221,1,110,8|0,0:0|0:0,0:0:0:0:
416,242,31003,1,8,0:0:0:0:
478,138,31263,2,0,L|523:68,2,55
389,130,31653,6,0,L|257:95,1,110,4|8,0:0|0:0,0:0:0:0:
223,89,32042,1,0,0:0:0:0:
129,169,32302,1,0,0:0:0:0:
129,169,32432,1,8,0:0:0:0:
242,211,32692,2,0,P|244:285|201:335,1,110,0|8,0:0|0:0,0:0:0:0:
182,355,33081,1,0,0:0:0:0:
80,288,33341,1,0,0:0:0:0:
80,288,33471,1,8,0:0:0:0:
20,182,33731,6,0,L|39:63,1,110,0|8,0:0|0:0,0:0:0:0:
53,14,34120,2,0,B|101:41|101:41|180:53,1,110,0|0,0:0|0:0,0:0:0:0:
215,60,34510,1,8,0:0:0:0:
288,156,34770,1,0,0:0:0:0:
385,45,35029,6,0,L|383:82,3,36.6666666666667,8|8|8|8,0:0|0:0|0:0|0:0,0:0:0:0:
420,155,35419,2,0,L|492:147,2,55,8|4|4,0:3|0:3|0:3,0:0:0:0:
369,221,35809,6,0,B|311:195|311:195|214:192,1,110,4|0,0:0|0:0,0:0:0:0:
211,222,36198,2,0,P|147:228|91:201,1,110,8|0,0:0|0:0,0:0:0:0:
48,188,36588,1,8,0:3:0:0:
76,70,36847,2,0,L|88:9,2,55,8|0|0,0:0|0:0|0:0,0:0:0:0:
113,117,37237,2,0,P|180:123|225:100,1,110,8|8,0:0|0:3,0:0:0:0:
258,60,37627,1,4,0:3:0:0:
376,39,37886,6,0,P|417:98|420:157,1,110,4|0,0:0|0:0,0:0:0:0:
381,179,38276,2,0,P|355:229|360:286,1,110,8|8,0:0|0:3,0:0:0:0:
397,327,38666,1,4,0:3:0:0:
283,367,38925,2,0,B|227:338|227:338|166:351,1,110,8|0,0:0|0:0,0:0:0:0:
121,358,39315,2,0,P|93:298|98:245,1,110,8|0,0:0|0:0,0:0:0:0:
157,209,39705,1,0,0:0:0:0:
154,131,39835,1,0,0:0:0:0:
85,97,39964,5,4,0:0:0:0:
85,97,41002,1,4,1:2:0:0:
236,266,41782,1,0,2:1:0:0:
236,266,42041,2,0,B|299:279|299:279|412:255,2,165,4|2|2,0:1|0:1|0:1,0:0:0:0:
128,264,42907,2,0,L|90:305,2,36.6666666666667,8|4|2,0:3|0:3|0:1,0:0:0:0:
128,264,43989,6,0,P|122:195|125:52,1,165,4|8,1:0|0:0,0:0:0:0:
209,15,44638,1,0,0:0:0:0:
254,127,44898,1,8,0:0:0:0:
346,48,45157,2,0,P|415:48|461:83,1,110,0|8,0:0|0:0,0:0:0:0:
462,189,45677,2,0,B|411:211|411:211|346:210,1,110,0|8,0:0|0:0,0:0:0:0:
267,215,46067,6,0,P|247:273|265:346,1,110,0|0,0:0|0:0,0:0:0:0:
279,374,46456,1,8,0:0:0:0:
158,364,46716,2,0,P|131:312|144:245,1,110,0|8,0:0|0:0,0:0:0:0:
14,264,47235,2,0,P|20:204|62:147,1,110,0|8,0:0|0:0,0:0:0:0:
161,197,47755,2,0,L|141:267,2,55,4|0|8,0:0|0:0|0:0,0:0:0:0:
115,128,48144,6,0,P|100:62|112:22,1,110,0|0,0:0|0:0,0:0:0:0:
171,10,48534,1,8,0:0:0:0:
233,16,48664,2,0,P|248:82|236:122,1,110,0|0,0:0|0:0,0:0:0:0:
213,177,49054,1,8,0:0:0:0:
233,233,49183,2,0,P|310:274|365:254,1,110,0|0,0:0|0:0,0:0:0:0:
388,257,49573,1,8,0:0:0:0:
442,148,49833,2,0,L|464:59,2,55,0|0|8,0:0|0:0|0:0,0:0:0:0:
357,172,50222,6,0,P|302:153|234:135,1,110,0|0,0:0|0:0,0:0:0:0:
193,122,50612,1,8,0:0:0:0:
87,181,50872,2,0,L|39:240,2,55,0|0|8,0:0|0:0|0:0,0:0:0:0:
117,63,51391,2,0,L|91:9,2,55,0|0|8,0:0|0:0|0:0,0:0:0:0:
209,141,51911,2,0,L|285:170,2,55,0|0|8,0:0|0:0|0:0,0:0:0:0:
164,204,52300,6,0,P|188:264|273:325,1,165,0|8,0:0|0:0,0:0:0:0:
338,225,52950,1,0,0:0:0:0:
417,316,53209,1,8,0:0:0:0:
474,209,53469,2,0,L|483:86,1,110,0|8,0:0|0:0,0:0:0:0:
380,33,53989,2,0,L|371:156,1,110,0|8,0:0|0:0,0:0:0:0:
302,201,54378,6,0,P|237:215|124:167,1,165,0|8,0:0|0:0,0:0:0:0:
125,65,55028,1,0,0:0:0:0:
125,65,55157,1,0,0:0:0:0:
125,65,55287,1,8,0:0:0:0:
28,137,55547,1,0,0:0:0:0:
28,137,55677,1,0,0:0:0:0:
28,137,55807,1,8,0:0:0:0:
46,256,56067,2,0,B|91:298|91:298|125:365,1,110,0|8,0:0|0:0,0:0:0:0:
189,364,56456,6,0,L|331:358,1,110,0|0,0:0|0:0,0:0:0:0:
345,319,56846,1,8,0:0:0:0:
354,198,57106,2,0,L|365:122,2,55,0|0|8,0:0|0:0|0:0,0:0:0:0:
275,239,57495,2,0,P|208:249|134:201,1,110,0|0,0:0|0:0,0:0:0:0:
117,202,57885,1,8,0:0:0:0:
47,103,58144,2,0,L|29:171,2,55,0|0|8,0:0|0:0|0:0,0:0:0:0:
103,36,58534,6,0,P|171:22|234:50,1,110,0|0,0:0|0:0,0:0:0:0:
259,67,58924,2,0,L|333:51,1,55,8|0,0:0|0:0,0:0:0:0:
373,51,59183,2,0,L|453:66,2,55,0|0|8,0:0|0:0|0:0,0:0:0:0:
333,97,59573,2,0,P|318:173|360:243,1,110,0|0,0:0|0:0,0:0:0:0:
368,247,59963,1,8,0:0:0:0:
447,337,60222,2,0,L|461:271,2,55,0|0|8,0:0|0:0|0:0,0:0:0:0:
371,369,60612,6,0,P|309:360|265:315,1,110,0|0,0:0|0:0,0:0:0:0:
244,277,61002,1,8,0:0:0:0:
244,277,61131,2,0,L|99:293,1,110,0|0,0:0|0:0,0:0:0:0:
79,262,61521,1,8,0:0:0:0:
79,262,61651,2,0,P|49:167|74:119,1,110,0|0,0:0|0:0,0:0:0:0:
71,104,62041,1,8,0:0:0:0:
181,55,62300,2,0,L|206:182,1,110,0|8,0:0|0:0,0:0:0:0:
291,245,62820,6,0,L|310:144,2,55,0|0|8,0:0|0:0|0:0,0:0:0:0:
326,363,63339,2,0,L|376:342,2,55,8|0|8,0:0|0:0|0:0,0:0:0:0:
220,290,63859,2,0,L|161:256,2,55,8|0|8,0:0|0:0|0:0,0:0:0:0:
391,248,64378,2,0,L|452:223,2,55,8|0|8,0:0|0:0|0:0,0:0:0:0:
335,82,64898,6,0,L|314:13,2,55,8|0|8,0:0|0:0|0:0,0:0:0:0:
217,68,65417,2,0,L|196:-1,2,55,8|0|8,0:0|0:0|0:0,0:0:0:0:
107,90,65937,5,8,0:0:0:0:
76,142,66067,1,0,0:0:0:0:
97,198,66196,1,8,0:0:0:0:
211,158,66456,5,8,0:0:0:0:
234,213,66586,1,0,0:0:0:0:
209,268,66716,1,8,0:0:0:0:
117,331,66976,6,0,P|181:376|280:356,1,165,4|2,1:0|0:1,0:0:0:0:
308,325,67495,2,0,L|323:200,1,110,2|2,0:0|0:1,0:0:0:0:
236,128,68014,1,0,1:0:0:0:
236,128,68534,1,2,0:2:0:0:
461,40,69053,6,0,P|482:108|440:212,1,165,2|2,0:1|0:1,0:0:0:0:
399,220,69573,2,0,L|285:224,1,110,2|2,0:0|0:1,0:0:0:0:
167,221,70092,1,0,1:0:0:0:
167,221,70612,1,2,0:0:0:0:
99,120,70872,1,0,1:0:0:0:
99,120,71001,1,2,0:1:0:0:
99,120,71131,6,0,P|156:71|245:111,1,165,2|2,0:1|0:1,0:0:0:0:
279,137,71651,2,0,L|397:132,1,110,2|2,0:0|0:1,0:0:0:0:
469,42,72170,1,0,1:0:0:0:
469,42,72690,1,2,0:0:0:0:
478,162,72950,2,0,L|488:254,1,55,2|0,0:1|0:1,0:0:0:0:
491,276,73209,6,0,P|434:299|324:283,1,165,2|2,0:1|0:1,0:0:0:0:
277,262,73729,2,0,P|196:262|154:298,1,110,2|2,0:0|0:1,0:0:0:0:
105,375,74248,1,0,1:0:0:0:
0,225,74638,1,0,1:0:0:0:
0,225,74768,2,0,L|19:155,1,55,0|0,1:0|1:0,0:0:0:0:
75,159,75027,2,0,L|61:100,1,55,2|4,1:0|1:0,0:0:0:0:
47,46,75287,6,0,P|154:75|205:38,1,165,4|2,1:0|0:1,0:0:0:0:
243,14,75807,2,0,L|264:146,1,110,2|2,0:0|0:1,0:0:0:0:
256,280,76326,1,12,1:0:0:0:
